x86_64-openbsd-clang v13_dev0-1062-g1731c35

Architecturex86
Variantx86_64
CPUgeneric
OSopenbsd
Ownerkostylev
Compilerclang version 3.8.0 (tags/RELEASE_380/final)
Configuration--prefix=/home/mik/src/fate/x86_64-openbsd-clang/install --samples=/home/mik/src/fate/fate-suite --enable-gpl --cc='ccache clang' --disable-debug --enable-shared
CommentSHELL=/usr/local/bin/dash
Revisionv13_dev0-1062-g1731c35
Date2017-04-20 20:06:49
Status2107 / 2109
Warnings166
Logscompile configure test
2 failed testsStatusLast good rev
diffstderrfmvc-type11v13_dev0-1418-g7993ec19a
--- /home/mik/src/fate/src/tests/ref/fate/fmvc-type1	Thu Apr 13 19:30:31 2017
+++ tests/data/fate/fmvc-type1	Thu Apr 20 23:05:10 2017
@@ -1,7 +0,0 @@
-#tb 0: 1/15
-0,          0,          0,        1,   760944, 0x2feb1453
-0,          1,          1,        1,   760944, 0x9677ebf8
-0,          2,          2,        1,   760944, 0x83d2ed49
-0,          3,          3,        1,   760944, 0x9ab6c63d
-0,          4,          4,        1,   760944, 0x1820189c
-0,          5,          5,        1,   760944, 0x4b94f521
avconv version v13_dev0-1062-g1731c35, Copyright (c) 2000-2017 the Libav developers
  built on Apr 20 2017 23:02:01 with clang version 3.8.0 (tags/RELEASE_380/final)
/home/mik/src/fate/fate-suite/fmvc/6-methyl-5-hepten-2-one-CC-db_small.avi: No such file or directory
diffstderrfmvc-type21v13_dev0-1418-g7993ec19a
--- /home/mik/src/fate/src/tests/ref/fate/fmvc-type2	Thu Apr 13 19:30:31 2017
+++ tests/data/fate/fmvc-type2	Thu Apr 20 23:05:10 2017
@@ -1,29 +0,0 @@
-#tb 0: 1/10
-0,          0,          0,        1,  1327104, 0xa73c232d
-0,          1,          1,        1,  1327104, 0xa73c232d
-0,          2,          2,        1,  1327104, 0xa73c232d
-0,          3,          3,        1,  1327104, 0xf14e05be
-0,          4,          4,        1,  1327104, 0xd8c03726
-0,          5,          5,        1,  1327104, 0x16e8447a
-0,          6,          6,        1,  1327104, 0x8dfd94d2
-0,          7,          7,        1,  1327104, 0x3550833b
-0,          8,          8,        1,  1327104, 0x74bd2959
-0,          9,          9,        1,  1327104, 0xc2b4505c
-0,         10,         10,        1,  1327104, 0x7c6999cd
-0,         11,         11,        1,  1327104, 0xb6562711
-0,         12,         12,        1,  1327104, 0x50993565
-0,         13,         13,        1,  1327104, 0x579549d2
-0,         14,         14,        1,  1327104, 0xb17170f6
-0,         15,         15,        1,  1327104, 0xc7d87708
-0,         16,         16,        1,  1327104, 0xdb3879da
-0,         17,         17,        1,  1327104, 0xdb3879da
-0,         18,         18,        1,  1327104, 0xdb3879da
-0,         19,         19,        1,  1327104, 0x6f1c5c01
-0,         20,         20,        1,  1327104, 0xd9d15c01
-0,         21,         21,        1,  1327104, 0x826f0bab
-0,         22,         22,        1,  1327104, 0xf25b041d
-0,         23,         23,        1,  1327104, 0xc85a041d
-0,         24,         24,        1,  1327104, 0xc85a041d
-0,         25,         25,        1,  1327104, 0xc85a041d
-0,         26,         26,        1,  1327104, 0xc85a041d
-0,         27,         27,        1,  1327104, 0xc54cc6ae
avconv version v13_dev0-1062-g1731c35, Copyright (c) 2000-2017 the Libav developers
  built on Apr 20 2017 23:02:01 with clang version 3.8.0 (tags/RELEASE_380/final)
/home/mik/src/fate/fate-suite/fmvc/fmvcVirtualDub_small.avi: No such file or directory