x86_64-linux-x86_open64 v13_dev0-1062-g1731c35

Architecturex86
Variantx86_64
CPUgeneric
OSlinux
Ownerkostylev
CompilerOpen64 Compiler Suite Version 4.5.2.1
Configuration--prefix=/home/mkostylev/src/fate/x86_64-linux-x86_open64/install --samples=/home/mkostylev/src/fate/fate-suite --enable-gpl --cc=opencc --disable-debug --optflags=-O1
Comment-O1
Revisionv13_dev0-1062-g1731c35
Date2017-04-20 19:40:05
Status2105 / 2109
Warnings380
Logscompile configure test
4 failed testsStatusLast good rev
diffstderrcheckasm-vp9dspSEGVv13_dev0-1273-g7b7760a
No diff output recorded
checkasm: using random seed 593049656
MMX:
 - vp9dsp.mc         [OK]
MMXEXT:
 - vp9dsp.mc         [OK]
SSE:
 - vp9dsp.mc         [OK]
SSE2:
 - vp9dsp.loopfilter [OK]
 - vp9dsp.mc         [OK]
SSSE3:
 - vp9dsp.loopfilter [OK]
 - vp9dsp.mc         [OK]
AVX:
 - vp9dsp.loopfilter [OK]
Segmentation fault (core dumped)
diffstderrflac-16-lpc-choleskySEGVv13_dev0-1016-gfbc6f19
No diff output recorded
avconv version v13_dev0-1062-g1731c35, Copyright (c) 2000-2017 the Libav developers
  built on Apr 20 2017 22:38:27 with Open64 Compiler Suite Version 4.5.2.1
Guessed Channel Layout for Input Stream #0.0 : stereo
Input #0, wav, from '/home/mkostylev/src/fate/fate-suite/audio-reference/luckynight_2ch_44kHz_s16.wav':
  Duration: 00:00:09.50, bitrate: 1411 kb/s
    Stream #0:0: Audio: pcm_s16le [[1][0][0][0] / 0x0001]
      44100 Hz, 2 channels, s16, 1411 kb/s
Codec AVOption threads () specified for input file #0 (/home/mkostylev/src/fate/fate-suite/audio-reference/luckynight_2ch_44kHz_s16.wav) has not been used for any stream. The most likely reason is either wrong type (e.g. a video option with no video streams) or that it is a private option of some decoder which was not actually used for any stream.
Codec AVOption thread_type (select multithreading type) specified for input file #0 (/home/mkostylev/src/fate/fate-suite/audio-reference/luckynight_2ch_44kHz_s16.wav) has not been used for any stream. The most likely reason is either wrong type (e.g. a video option with no video streams) or that it is a private option of some decoder which was not actually used for any stream.
Stream mapping:
  Stream #0:0 -> #0:0 (pcm_s16le (native) -> flac (native))
Press ctrl-c to stop encoding
Output #0, flac, to '/home/mkostylev/src/fate/x86_64-linux-x86_open64/build/tests/data/fate/flac-16-lpc-cholesky.flac':
  Metadata:
    encoder         : Lavf58.0.0
    Stream #0:0: Audio: flac
      44100 Hz, stereo, s16, 200 kb/s
    Metadata:
      encoder         : Lavc58.2.0 flac
Segmentation fault (core dumped)
diffstderrfloat-dspSEGVv13_dev0-1018-g6a9e331
No diff output recorded
float_dsp-test: random seed 1763989263
Segmentation fault (core dumped)
diffstderrra-288SEGVv13_dev0-1274-gfeed239
No diff output recorded
avconv version v13_dev0-1062-g1731c35, Copyright (c) 2000-2017 the Libav developers
  built on Apr 20 2017 22:38:27 with Open64 Compiler Suite Version 4.5.2.1
Input #0, rm, from '/home/mkostylev/src/fate/fate-suite/real/ra_288.rm':
  Metadata:
    title           : Father Cares: The Last of Jonestown
    author          : NPR Newscasts - November 12, 1998
    copyright       : National Public Radio
    comment         : 
  Duration: 01:29:03.84, start: 0.000000, bitrate: 0 kb/s
    Stream #0:0: Audio: ra_288 [28[95]8 / 0x385F3832]
      8000 Hz, mono, flt, 15 kb/s
Codec AVOption threads () specified for input file #0 (/home/mkostylev/src/fate/fate-suite/real/ra_288.rm) has not been used for any stream. The most likely reason is either wrong type (e.g. a video option with no video streams) or that it is a private option of some decoder which was not actually used for any stream.
Codec AVOption thread_type (select multithreading type) specified for input file #0 (/home/mkostylev/src/fate/fate-suite/real/ra_288.rm) has not been used for any stream. The most likely reason is either wrong type (e.g. a video option with no video streams) or that it is a private option of some decoder which was not actually used for any stream.
Stream mapping:
  Stream #0:0 -> #0:0 (ra_288 (real_288) -> pcm_s16le (native))
Press ctrl-c to stop encoding
Segmentation fault (core dumped)