x86_64-linux-ekopath5 v13_dev0-1062-g1731c35

Architecturex86
Variantx86_64
CPUgeneric
OSlinux
Ownerkostylev
CompilerPathScale EKOPath(tm) Compiler Suite Version 5.0.1
Configuration--prefix=/home/mkostylev/src/fate/x86_64-linux-ekopath5/install --samples=/home/mkostylev/src/fate/fate-suite --enable-gpl --cc=pathcc --disable-debug --disable-inline-asm
Comment--disable-inline-asm
Revisionv13_dev0-1062-g1731c35
Date2017-04-20 19:18:03
Status2103 / 2108
Warnings53
Logscompile configure test
5 failed testsStatusLast good rev
diffstderrcheckasm-synth_filterSEGVv13_dev0-1350-g762ab2d
No diff output recorded
checkasm: using random seed 3013500465
SSE2:
 - synth_filter.synth_filter [OK]
Segmentation fault (core dumped)
diffstderrfloat-dspSEGVv13_dev0-1350-g762ab2d
No diff output recorded
float_dsp-test: random seed 3920691914
Segmentation fault (core dumped)
diffstderrra-288SEGVv13_dev0-1351-g077011b
No diff output recorded
avconv version v13_dev0-1062-g1731c35, Copyright (c) 2000-2017 the Libav developers
  built on Apr 20 2017 22:17:02 with PathScale EKOPath(tm) Compiler Suite Version 5.0.1
Input #0, rm, from '/home/mkostylev/src/fate/fate-suite/real/ra_288.rm':
  Metadata:
    title           : Father Cares: The Last of Jonestown
    author          : NPR Newscasts - November 12, 1998
    copyright       : National Public Radio
    comment         : 
  Duration: 01:29:03.84, start: 0.000000, bitrate: 0 kb/s
    Stream #0:0: Audio: ra_288 [28[95]8 / 0x385F3832]
      8000 Hz, mono, flt, 15 kb/s
Codec AVOption threads () specified for input file #0 (/home/mkostylev/src/fate/fate-suite/real/ra_288.rm) has not been used for any stream. The most likely reason is either wrong type (e.g. a video option with no video streams) or that it is a private option of some decoder which was not actually used for any stream.
Codec AVOption thread_type (select multithreading type) specified for input file #0 (/home/mkostylev/src/fate/fate-suite/real/ra_288.rm) has not been used for any stream. The most likely reason is either wrong type (e.g. a video option with no video streams) or that it is a private option of some decoder which was not actually used for any stream.
Stream mapping:
  Stream #0:0 -> #0:0 (ra_288 (real_288) -> pcm_s16le (native))
Press ctrl-c to stop encoding
Segmentation fault (core dumped)
diffstderrvsynth1-ffv11v12_dev0-2931-g7c55fac
--- /home/mkostylev/src/fate/src/tests/ref/vsynth/vsynth1-ffv1	2016-06-29 08:33:04.210928872 +0300
+++ tests/data/fate/vsynth1-ffv1	2017-04-20 22:17:49.174945576 +0300
@@ -1,4 +1,4 @@
-a6703280a623fe42de7f7a53c2383073 *tests/data/fate/vsynth1-ffv1.avi
-2691264 tests/data/fate/vsynth1-ffv1.avi
-c5ccac874dbf808e9088bc3107860042 *tests/data/fate/vsynth1-ffv1.out.rawvideo
-stddev:    0.00 PSNR:999.99 MAXDIFF:    0 bytes:  7603200/  7603200
+3d0f90130c87332d598a4a41c5213f64 *tests/data/fate/vsynth1-ffv1.avi
+2691204 tests/data/fate/vsynth1-ffv1.avi
+51cc8fe2f44fa254d602c9cb2af792aa *tests/data/fate/vsynth1-ffv1.out.rawvideo
+stddev:   22.81 PSNR: 20.96 MAXDIFF:  251 bytes:  7603200/  7603200
avconv version v13_dev0-1062-g1731c35, Copyright (c) 2000-2017 the Libav developers
  built on Apr 20 2017 22:17:02 with PathScale EKOPath(tm) Compiler Suite Version 5.0.1
[rawvideo @ 0x3436ec0] Estimating duration from bitrate, this may be inaccurate
Input #0, rawvideo, from '/home/mkostylev/src/fate/x86_64-linux-ekopath5/build/tests/data/vsynth1.yuv':
  Duration: N/A, start: 0.000000, bitrate: N/A
    Stream #0:0: Video: rawvideo
      yuv420p, 352x288
      25 fps, 25 tbn
Stream mapping:
  Stream #0:0 -> #0:0 (rawvideo (native) -> ffv1 (native))
Press ctrl-c to stop encoding
Output #0, avi, to '/home/mkostylev/src/fate/x86_64-linux-ekopath5/build/tests/data/fate/vsynth1-ffv1.avi':
    Stream #0:0: Video: ffv1 [FFV1 / 0x31564646]
      yuv420p, 352x288, q=2-31, 200 kb/s
      25 fps, 25 tbn
    Metadata:
      encoder         : ffv1
frame=   50 fps=  0 q=-0.0 Lsize=    2628kB time=1.96 bitrate=10984.5kbits/s    
video:2621kB audio:0kB other streams:0kB global headers:0kB muxing overhead: 0.257386%
avconv version v13_dev0-1062-g1731c35, Copyright (c) 2000-2017 the Libav developers
  built on Apr 20 2017 22:17:02 with PathScale EKOPath(tm) Compiler Suite Version 5.0.1
Input #0, avi, from '/home/mkostylev/src/fate/x86_64-linux-ekopath5/build/tests/data/fate/vsynth1-ffv1.avi':
  Duration: 00:00:02.00, start: 0.000000, bitrate: 10764 kb/s
    Stream #0:0: Video: ffv1 [FFV1 / 0x31564646]
      yuv420p, 352x288
      25 fps, 25 tbn
Stream mapping:
  Stream #0:0 -> #0:0 (ffv1 (native) -> rawvideo (native))
Press ctrl-c to stop encoding
Output #0, rawvideo, to '/home/mkostylev/src/fate/x86_64-linux-ekopath5/build/tests/data/fate/vsynth1-ffv1.out.rawvideo':
    Stream #0:0: Video: rawvideo [I420 / 0x30323449]
      yuv420p, 352x288, q=2-31, 200 kb/s
      25 tbn
    Metadata:
      encoder         : rawvideo
frame=   50 fps=  0 q=-0.0 Lsize=    7425kB time=1.96 bitrate=31033.5kbits/s    
video:7425kB audio:0kB other streams:0kB global headers:0kB muxing overhead: 0.000000%
diffstderrvsynth2-ffv11v12_dev0-2931-g7c55fac
--- /home/mkostylev/src/fate/src/tests/ref/vsynth/vsynth2-ffv1	2016-06-29 08:33:04.210928872 +0300
+++ tests/data/fate/vsynth2-ffv1	2017-04-20 22:17:56.670751146 +0300
@@ -1,4 +1,4 @@
-2acd1edd97eb98895bae47770b700f89 *tests/data/fate/vsynth2-ffv1.avi
-3718022 tests/data/fate/vsynth2-ffv1.avi
-36d7ca943916e1743cefa609eba0205c *tests/data/fate/vsynth2-ffv1.out.rawvideo
-stddev:    0.00 PSNR:999.99 MAXDIFF:    0 bytes:  7603200/  7603200
+7e5805fc2583cf49bddab273d1e000b2 *tests/data/fate/vsynth2-ffv1.avi
+3717986 tests/data/fate/vsynth2-ffv1.avi
+3f2626df41a8ba7eb8193832920f5b91 *tests/data/fate/vsynth2-ffv1.out.rawvideo
+stddev:   24.47 PSNR: 20.36 MAXDIFF:  250 bytes:  7603200/  7603200
avconv version v13_dev0-1062-g1731c35, Copyright (c) 2000-2017 the Libav developers
  built on Apr 20 2017 22:17:02 with PathScale EKOPath(tm) Compiler Suite Version 5.0.1
[rawvideo @ 0x299fec0] Estimating duration from bitrate, this may be inaccurate
Input #0, rawvideo, from '/home/mkostylev/src/fate/x86_64-linux-ekopath5/build/tests/data/vsynth2.yuv':
  Duration: N/A, start: 0.000000, bitrate: N/A
    Stream #0:0: Video: rawvideo
      yuv420p, 352x288
      25 fps, 25 tbn
Stream mapping:
  Stream #0:0 -> #0:0 (rawvideo (native) -> ffv1 (native))
Press ctrl-c to stop encoding
Output #0, avi, to '/home/mkostylev/src/fate/x86_64-linux-ekopath5/build/tests/data/fate/vsynth2-ffv1.avi':
    Stream #0:0: Video: ffv1 [FFV1 / 0x31564646]
      yuv420p, 352x288, q=2-31, 200 kb/s
      25 fps, 25 tbn
    Metadata:
      encoder         : ffv1
frame=   50 fps=  0 q=-0.0 Lsize=    3631kB time=1.96 bitrate=15175.5kbits/s    
video:3624kB audio:0kB other streams:0kB global headers:0kB muxing overhead: 0.186496%
avconv version v13_dev0-1062-g1731c35, Copyright (c) 2000-2017 the Libav developers
  built on Apr 20 2017 22:17:02 with PathScale EKOPath(tm) Compiler Suite Version 5.0.1
Input #0, avi, from '/home/mkostylev/src/fate/x86_64-linux-ekopath5/build/tests/data/fate/vsynth2-ffv1.avi':
  Duration: 00:00:02.00, start: 0.000000, bitrate: 14871 kb/s
    Stream #0:0: Video: ffv1 [FFV1 / 0x31564646]
      yuv420p, 352x288
      25 fps, 25 tbn
Stream mapping:
  Stream #0:0 -> #0:0 (ffv1 (native) -> rawvideo (native))
Press ctrl-c to stop encoding
Output #0, rawvideo, to '/home/mkostylev/src/fate/x86_64-linux-ekopath5/build/tests/data/fate/vsynth2-ffv1.out.rawvideo':
    Stream #0:0: Video: rawvideo [I420 / 0x30323449]
      yuv420p, 352x288, q=2-31, 200 kb/s
      25 tbn
    Metadata:
      encoder         : rawvideo
frame=   50 fps=  0 q=-0.0 Lsize=    7425kB time=1.96 bitrate=31033.5kbits/s    
video:7425kB audio:0kB other streams:0kB global headers:0kB muxing overhead: 0.000000%