x86_64-linux-ekopath4 v13_dev0-1062-g1731c35

Architecturex86
Variantx86_64
CPUgeneric
OSlinux
Ownerkostylev
CompilerPathScale EKOPath(tm) Compiler Suite Version 4.0.12.1
Configuration--prefix=/home/mkostylev/src/fate/x86_64-linux-ekopath4/install --samples=/home/mkostylev/src/fate/fate-suite --enable-gpl --cc=pathcc --disable-debug --disable-inline-asm
Comment--disable-inline-asm
Revisionv13_dev0-1062-g1731c35
Date2017-04-20 19:15:53
Status2100 / 2108
Warnings523
Logscompile configure test
8 failed testsStatusLast good rev
diffstderrcheckasm-vp9dspSEGVv13_dev0-1174-gc5c7637
No diff output recorded
checkasm: using random seed 2319309230
MMX:
 - vp9dsp.mc         [OK]
MMXEXT:
 - vp9dsp.mc         [OK]
SSE:
 - vp9dsp.mc         [OK]
SSE2:
 - vp9dsp.loopfilter [OK]
 - vp9dsp.mc         [OK]
SSSE3:
 - vp9dsp.loopfilter [OK]
 - vp9dsp.mc         [OK]
AVX:
 - vp9dsp.loopfilter [OK]
Segmentation fault (core dumped)
diffstderrflac-16-lpc-choleskySEGVv13_dev0-1189-g0e83e95
No diff output recorded
avconv version v13_dev0-1062-g1731c35, Copyright (c) 2000-2017 the Libav developers
  built on Apr 20 2017 22:14:42 with PathScale EKOPath(tm) Compiler Suite Version 4.0.12.1
Guessed Channel Layout for Input Stream #0.0 : stereo
Input #0, wav, from '/home/mkostylev/src/fate/fate-suite/audio-reference/luckynight_2ch_44kHz_s16.wav':
  Duration: 00:00:09.50, bitrate: 1411 kb/s
    Stream #0:0: Audio: pcm_s16le [[1][0][0][0] / 0x0001]
      44100 Hz, 2 channels, s16, 1411 kb/s
Codec AVOption threads () specified for input file #0 (/home/mkostylev/src/fate/fate-suite/audio-reference/luckynight_2ch_44kHz_s16.wav) has not been used for any stream. The most likely reason is either wrong type (e.g. a video option with no video streams) or that it is a private option of some decoder which was not actually used for any stream.
Codec AVOption thread_type (select multithreading type) specified for input file #0 (/home/mkostylev/src/fate/fate-suite/audio-reference/luckynight_2ch_44kHz_s16.wav) has not been used for any stream. The most likely reason is either wrong type (e.g. a video option with no video streams) or that it is a private option of some decoder which was not actually used for any stream.
Stream mapping:
  Stream #0:0 -> #0:0 (pcm_s16le (native) -> flac (native))
Press ctrl-c to stop encoding
Output #0, flac, to '/home/mkostylev/src/fate/x86_64-linux-ekopath4/build/tests/data/fate/flac-16-lpc-cholesky.flac':
  Metadata:
    encoder         : Lavf58.0.0
    Stream #0:0: Audio: flac
      44100 Hz, stereo, s16, 200 kb/s
    Metadata:
      encoder         : Lavc58.2.0 flac
Segmentation fault (core dumped)
diffstderrfloat-dspSEGVv13_dev0-1018-g6a9e331
No diff output recorded
float_dsp-test: random seed 1162237377
Segmentation fault (core dumped)
diffstderrlavf-mkv1v10_beta1-755-gad0fe2f
--- /home/mkostylev/src/fate/src/tests/ref/lavf/mkv	2017-02-22 07:33:01.924840135 +0300
+++ tests/data/fate/lavf-mkv	2017-04-20 22:15:49.070061447 +0300
@@ -1,3 +1,3 @@
 dad336329ef85127f97e9d12a3b57a59 *./tests/data/lavf/lavf.mkv
 320383 ./tests/data/lavf/lavf.mkv
-./tests/data/lavf/lavf.mkv CRC=0x63ed3cda
+./tests/data/lavf/lavf.mkv CRC=0x14de3cda
avconv version v13_dev0-1062-g1731c35, Copyright (c) 2000-2017 the Libav developers
  built on Apr 20 2017 22:14:42 with PathScale EKOPath(tm) Compiler Suite Version 4.0.12.1
Input #0, image2, from '/home/mkostylev/src/fate/x86_64-linux-ekopath4/build/tests/vsynth1/%02d.pgm':
  Duration: 00:00:02.00, start: 0.000000, bitrate: N/A
    Stream #0:0: Video: pgmyuv
      yuv420p, 352x288
      25 fps, 25 tbn
[s16le @ 0x2ee9a20] Estimating duration from bitrate, this may be inaccurate
Guessed Channel Layout for Input Stream #1.0 : mono
Input #1, s16le, from '/home/mkostylev/src/fate/x86_64-linux-ekopath4/build/./tests/data/asynth1.sw':
  Duration: N/A, start: 0.000000, bitrate: N/A
    Stream #1:0: Audio: pcm_s16le
      44100 Hz, 1 channels, s16, 705 kb/s
Codec AVOption threads () specified for input file #1 (/home/mkostylev/src/fate/x86_64-linux-ekopath4/build/./tests/data/asynth1.sw) has not been used for any stream. The most likely reason is either wrong type (e.g. a video option with no video streams) or that it is a private option of some decoder which was not actually used for any stream.
Codec AVOption idct (select IDCT implementation) specified for input file #1 (/home/mkostylev/src/fate/x86_64-linux-ekopath4/build/./tests/data/asynth1.sw) has not been used for any stream. The most likely reason is either wrong type (e.g. a video option with no video streams) or that it is a private option of some decoder which was not actually used for any stream.
Stream mapping:
  Stream #0:0 -> #0:0 (pgmyuv (native) -> mpeg4 (native))
  Stream #1:0 -> #0:1 (pcm_s16le (native) -> mp2 (native))
Press ctrl-c to stop encoding
Unknown spherical metadata
Output #0, matroska, to '/home/mkostylev/src/fate/x86_64-linux-ekopath4/build/./tests/data/lavf/lavf.mkv':
    Stream #0:0: Video: mpeg4 [FMP4 / 0x34504D46]
      yuv420p, 352x288, q=2-31, 200 kb/s
      1k tbn
    Metadata:
      encoder         : mpeg4
    Side data:
      cpb: bitrate max/min/avg: 0/0/200000 buffer size: 0 vbv_delay: -1
    Stream #0:1: Audio: mp2 [P[0][0][0] / 0x0050]
      44100 Hz, mono, s16, 64 kb/s
    Metadata:
      encoder         : mp2
frame=   25 fps=  0 q=10.0 Lsize=     313kB time=0.96 bitrate=2669.9kbits/s    
video:304kB audio:8kB other streams:0kB global headers:0kB muxing overhead: 0.366841%
avconv version v13_dev0-1062-g1731c35, Copyright (c) 2000-2017 the Libav developers
  built on Apr 20 2017 22:14:42 with PathScale EKOPath(tm) Compiler Suite Version 4.0.12.1
Unknown spherical metadata type 0
[matroska,webm @ 0x3013300] DTS discontinuity in stream 0: packet 23 with DTS 931, packet 24 with DTS 66507
Guessed Channel Layout for Input Stream #0.1 : mono
Input #0, matroska,webm, from '/home/mkostylev/src/fate/x86_64-linux-ekopath4/build/./tests/data/lavf/lavf.mkv':
  Duration: 00:00:01.03, start: 0.000000, bitrate: N/A
    Stream #0:0: Video: mpeg4 (Simple Profile)
      yuv420p, 352x288 [PAR 1:1 DAR 11:9], PAR 1:1 DAR 11:9
      1k tbn
    Metadata:
      ENCODER         : mpeg4
    Stream #0:1: Audio: mp2
      44100 Hz, 1 channels, s16p, 64 kb/s
    Metadata:
      ENCODER         : mp2
Stream mapping:
  Stream #0:0 -> #0:0 (mpeg4 (native) -> rawvideo (native))
  Stream #0:1 -> #0:1 (mp2 (native) -> pcm_s16le (native))
Press ctrl-c to stop encoding
Output #0, crc, to '/home/mkostylev/src/fate/x86_64-linux-ekopath4/build/./tests/data/mkv.lavf.crc':
  Metadata:
    encoder         : Lavf58.0.0
    Stream #0:0: Video: rawvideo [I420 / 0x30323449]
      yuv420p, 352x288 [PAR 1:1 DAR 11:9], q=2-31, 200 kb/s, PAR 1:1 DAR 11:9
      1k tbn
    Metadata:
      ENCODER         : mpeg4
    Stream #0:1: Audio: pcm_s16le
      44100 Hz, mono, s16, 705 kb/s
    Metadata:
      ENCODER         : mp2
frame=   25 fps=  0 q=-0.0 Lsize=       0kB time=0.99 bitrate=   0.1kbits/s    
video:3712kB audio:88kB other streams:0kB global headers:0kB muxing overhead: unknown
diffstderrmovenc1n / a
--- /home/mkostylev/src/fate/src/tests/ref/fate/movenc	2016-05-18 11:03:02.777307714 +0300
+++ tests/data/fate/movenc	2017-04-20 22:15:03.755237310 +0300
@@ -20,53 +20,53 @@
 write_data len 608, time 1013106, type sync atom moof
 write_data len 640, time nopts, type unknown atom -
 write_data len 148, time nopts, type trailer atom -
-e8e0346bf20bfcb448695bd905946f78 3871 ismv
+1b72425b7e04b9132546e5e6fe1a1b9d 3871 ismv
 write_data len 36, time nopts, type header atom ftyp
 write_data len 1147, time nopts, type header atom -
 write_data len 500, time 0, type sync atom moof
 write_data len 496, time 1000000, type sync atom moof
 write_data len 148, time nopts, type trailer atom -
-89ea214e1d1079556164664eea9a7884 2327 empty-moov
+80d783dcf67d4ff2c58d0536103a4dd0 2327 empty-moov
 write_data len 36, time nopts, type header atom ftyp
 write_data len 1147, time nopts, type header atom -
 write_data len 780, time 0, type sync atom moof
 write_data len 616, time 1000000, type sync atom moof
 write_data len 148, time nopts, type trailer atom -
-cf9eec38fe557203a37a44c8adafb1fe 2727 empty-moov-no-elst
+e08eb6ea19d366732bad71aa936bd02f 2727 empty-moov-no-elst
 write_data len 36, time nopts, type header atom ftyp
 write_data len 1147, time nopts, type header atom -
 write_data len 612, time -33333, type sync atom moof
 write_data len 616, time 966667, type sync atom moof
 write_data len 148, time nopts, type trailer atom -
-42eca5843d98aa9a9b3275de201700b8 2559 empty-moov-no-elst-no-adjust
+ec509f428f608c03b6c818d9bf9630e6 2559 empty-moov-no-elst-no-adjust
 write_data len 1183, time nopts, type header atom ftyp
 write_data len 500, time 0, type sync atom moof
 write_data len 496, time 1000000, type sync atom moof
 write_data len 148, time nopts, type trailer atom -
-89ea214e1d1079556164664eea9a7884 2327 delay-moov
+80d783dcf67d4ff2c58d0536103a4dd0 2327 delay-moov
 write_data len 1255, time nopts, type header atom ftyp
 write_data len 620, time -33333, type sync atom moof
 write_data len 616, time 966667, type sync atom moof
 write_data len 148, time nopts, type trailer atom -
-8fd78a5a91d73a735da53ac02f844177 2639 delay-moov-elst
+991176d01b5e3ecd5ceaf632d6e51c2d 2639 delay-moov-elst
 write_data len 1183, time nopts, type header atom ftyp
 write_data len 596, time 0, type sync atom moof
 write_data len 67, time nopts, type trailer atom -
-848d2fe2f27882960b8e10315460bc23 1846 delay-moov-empty-track
+754d47eeffec49ade346a7b4d738391f 1846 delay-moov-empty-track
 write_data len 1183, time nopts, type header atom ftyp
 write_data len 240, time 0, type sync atom moof
 write_data len 240, time 1000000, type sync atom moof
 write_data len 86, time nopts, type trailer atom -
-cbf60ba66c47b8506c1a724d43f12cdc 1749 delay-moov-empty-track-flush
+99696d301686e6afd84dc3f52dc99924 1749 delay-moov-empty-track-flush
 write_data len 36, time nopts, type header atom ftyp
 write_data len 1147, time nopts, type header atom -
-c0b13fd47ca4c6de13c03155c38c231c 1183 empty-moov-header
+bb7fe837e9489721a1a7dbde4e8711d6 1183 empty-moov-header
 write_data len 500, time 0, type sync atom moof
 write_data len 496, time 1000000, type sync atom moof
 f12baf7c4269695817337192c7069328 996 empty-moov-content
 write_data len 148, time nopts, type trailer atom -
 write_data len 1183, time nopts, type header atom ftyp
-c0b13fd47ca4c6de13c03155c38c231c 1183 delay-moov-header
+bb7fe837e9489721a1a7dbde4e8711d6 1183 delay-moov-header
 write_data len 500, time 0, type sync atom moof
 write_data len 496, time 1000000, type sync atom moof
 f12baf7c4269695817337192c7069328 996 delay-moov-content
@@ -87,24 +87,24 @@
 76e1081bbab7541eadcaf4b19d37eff6 584 delay-moov-second-frag-discont
 write_data len 110, time nopts, type trailer atom -
 write_data len 1207, time nopts, type header atom ftyp
-fdc08ccfb9ca1a7a63a8e82a99e28e83 1207 delay-moov-elst-init
+e36c2e1568ba5e95ce98fd58efa33a78 1207 delay-moov-elst-init
 write_data len 700, time -33333, type sync atom sidx
 write_data len 704, time 966667, type sync atom sidx
 41afdc44b0e376fae49a730afe0c53c2 704 delay-moov-elst-second-frag
 write_data len 148, time nopts, type trailer atom -
 write_data len 1207, time nopts, type header atom ftyp
-fdc08ccfb9ca1a7a63a8e82a99e28e83 1207 delay-moov-elst-init-discont
+e36c2e1568ba5e95ce98fd58efa33a78 1207 delay-moov-elst-init-discont
 write_data len 704, time 966667, type sync atom sidx
 41afdc44b0e376fae49a730afe0c53c2 704 delay-moov-elst-second-frag-discont
 write_data len 110, time nopts, type trailer atom -
 write_data len 1243, time nopts, type header atom ftyp
-57c113cd2baf7b231355eee6980fb6b5 1243 delay-moov-elst-signal-init
+737472bb7473fba3c89ee1e3657006ab 1243 delay-moov-elst-signal-init
 write_data len 708, time -33333, type sync atom sidx
 write_data len 704, time 966667, type sync atom sidx
 13b8487a4f004ec9f1db543aee1e5e18 704 delay-moov-elst-signal-second-frag
 write_data len 148, time nopts, type trailer atom -
 write_data len 1243, time nopts, type header atom ftyp
-57c113cd2baf7b231355eee6980fb6b5 1243 delay-moov-elst-signal-init-discont
+737472bb7473fba3c89ee1e3657006ab 1243 delay-moov-elst-signal-init-discont
 write_data len 704, time 966667, type sync atom sidx
 13b8487a4f004ec9f1db543aee1e5e18 704 delay-moov-elst-signal-second-frag-discont
 write_data len 110, time nopts, type trailer atom -
@@ -112,19 +112,19 @@
 write_data len 1552, time -333333, type sync atom sidx
 write_data len 704, time 5166667, type sync atom sidx
 write_data len 148, time nopts, type trailer atom -
-5e676152714f9478b5f74ce67cd7ed60 3647 vfr
+0922e256825cdf8af96dd9d8155abe5f 3647 vfr
 write_data len 1243, time nopts, type header atom ftyp
 write_data len 1552, time -333333, type sync atom sidx
 write_data len 704, time 5166667, type sync atom sidx
 write_data len 148, time nopts, type trailer atom -
-5e676152714f9478b5f74ce67cd7ed60 3647 vfr-noduration
+0922e256825cdf8af96dd9d8155abe5f 3647 vfr-noduration
 write_data len 1255, time nopts, type header atom ftyp
 write_data len 1500, time -333333, type sync atom moof
 write_data len 620, time nopts, type unknown atom -
 write_data len 1500, time 9666667, type sync atom moof
 write_data len 664, time nopts, type unknown atom -
 write_data len 148, time nopts, type trailer atom -
-03766894d839e5fcb1edb88498d812f7 5687 large_frag
+d759f91368fabba3d082dcd35cca7794 5687 large_frag
 write_data len 1255, time nopts, type header atom ftyp
 write_data len 508, time -33333, type sync atom moof
 write_data len 372, time 800000, type boundary atom moof
@@ -132,4 +132,4 @@
 write_data len 476, time 1566667, type sync atom moof
 write_data len 340, time 2233333, type boundary atom moof
 write_data len 262, time nopts, type trailer atom -
-a4280bdc23af2c4334ec2da3fa946d3a 3541 vfr-noduration-interleave
+6022c041bff4afa8956794228d696113 3541 vfr-noduration-interleave
No output on stderr
diffstderrra-288SEGVv13_dev0-1189-g0e83e95
No diff output recorded
avconv version v13_dev0-1062-g1731c35, Copyright (c) 2000-2017 the Libav developers
  built on Apr 20 2017 22:14:42 with PathScale EKOPath(tm) Compiler Suite Version 4.0.12.1
Input #0, rm, from '/home/mkostylev/src/fate/fate-suite/real/ra_288.rm':
  Metadata:
    title           : Father Cares: The Last of Jonestown
    author          : NPR Newscasts - November 12, 1998
    copyright       : National Public Radio
    comment         : 
  Duration: 01:29:03.84, start: 0.000000, bitrate: 0 kb/s
    Stream #0:0: Audio: ra_288 [28[95]8 / 0x385F3832]
      8000 Hz, mono, flt, 15 kb/s
Codec AVOption threads () specified for input file #0 (/home/mkostylev/src/fate/fate-suite/real/ra_288.rm) has not been used for any stream. The most likely reason is either wrong type (e.g. a video option with no video streams) or that it is a private option of some decoder which was not actually used for any stream.
Codec AVOption thread_type (select multithreading type) specified for input file #0 (/home/mkostylev/src/fate/fate-suite/real/ra_288.rm) has not been used for any stream. The most likely reason is either wrong type (e.g. a video option with no video streams) or that it is a private option of some decoder which was not actually used for any stream.
Stream mapping:
  Stream #0:0 -> #0:0 (ra_288 (real_288) -> pcm_s16le (native))
Press ctrl-c to stop encoding
Segmentation fault (core dumped)
diffstderrra4-288SEGVv13_dev0-1189-g0e83e95
No diff output recorded
avconv version v13_dev0-1062-g1731c35, Copyright (c) 2000-2017 the Libav developers
  built on Apr 20 2017 22:14:42 with PathScale EKOPath(tm) Compiler Suite Version 4.0.12.1
[rm @ 0x30d0200] Estimating duration from bitrate, this may be inaccurate
Input #0, rm, from '/home/mkostylev/src/fate/fate-suite/realaudio/ra4_288.ra':
  Metadata:
    title           : 
    author          : 
    copyright       : 
    comment         : 
  Duration: N/A, bitrate: N/A
    Stream #0:0: Audio: ra_288 [28[95]8 / 0x385F3832]
      8000 Hz, mono, flt
Codec AVOption threads () specified for input file #0 (/home/mkostylev/src/fate/fate-suite/realaudio/ra4_288.ra) has not been used for any stream. The most likely reason is either wrong type (e.g. a video option with no video streams) or that it is a private option of some decoder which was not actually used for any stream.
Codec AVOption thread_type (select multithreading type) specified for input file #0 (/home/mkostylev/src/fate/fate-suite/realaudio/ra4_288.ra) has not been used for any stream. The most likely reason is either wrong type (e.g. a video option with no video streams) or that it is a private option of some decoder which was not actually used for any stream.
Stream mapping:
  Stream #0:0 -> #0:0 (ra_288 (real_288) -> pcm_s16le (native))
Press ctrl-c to stop encoding
Segmentation fault (core dumped)
diffstderrtheora-coeff-level641n / a
--- /home/mkostylev/src/fate/src/tests/ref/fate/theora-coeff-level64	2014-04-09 00:17:25.927708793 +0400
+++ tests/data/fate/theora-coeff-level64	2017-04-20 22:15:23.902714491 +0300
@@ -1,9 +1,9 @@
 #tb 0: 1/1000
-0,          0,          0,        0,  4617600, 0x4ba6df50
-0,         66,         66,        0,  4617600, 0x419fdeaf
-0,        132,        132,        0,  4617600, 0xeb2edced
-0,        198,        198,        0,  4617600, 0xa2bb3a1a
-0,        264,        264,        0,  4617600, 0x411cfb36
-0,        330,        330,        0,  4617600, 0xb2dc22ed
-0,        396,        396,        0,  4617600, 0x236d23b5
-0,        462,        462,        0,  4617600, 0x7fef275e
+0,      64803,      64803,        0,  4617600, 0x4ba6df50
+0,      64869,      64869,        0,  4617600, 0x419fdeaf
+0,      64936,      64936,        0,  4617600, 0xeb2edced
+0,      65003,      65003,        0,  4617600, 0xa2bb3a1a
+0,      65069,      65069,        0,  4617600, 0x411cfb36
+0,      65136,      65136,        0,  4617600, 0xb2dc22ed
+0,      65203,      65203,        0,  4617600, 0x236d23b5
+0,      65269,      65269,        0,  4617600, 0x7fef275e
avconv version v13_dev0-1062-g1731c35, Copyright (c) 2000-2017 the Libav developers
  built on Apr 20 2017 22:14:42 with PathScale EKOPath(tm) Compiler Suite Version 4.0.12.1
Unknown spherical metadata type 0
[theora @ 0x1deba60] 7 bits left in packet 82
[matroska,webm @ 0x1dd9240] Estimating duration from bitrate, this may be inaccurate
Input #0, matroska,webm, from '/home/mkostylev/src/fate/fate-suite/vp3/coeff_level64.mkv':
  Metadata:
    ENCODER         : Lavf53.19.0
  Duration: N/A, start: 0.000000, bitrate: N/A
    Stream #0:0: Video: theora
      yuv420p, 2960x1040 [PAR 1:1 DAR 37:13], PAR 1:1 DAR 37:13
      15 fps, 1k tbn (default)
[theora @ 0x1dee3a0] 7 bits left in packet 82
Stream mapping:
  Stream #0:0 -> #0:0 (theora (native) -> rawvideo (native))
Press ctrl-c to stop encoding
Output #0, framecrc, to 'pipe:':
  Metadata:
    encoder         : Lavf58.0.0
    Stream #0:0: Video: rawvideo [I420 / 0x30323449]
      yuv420p, 2960x1040 [PAR 1:1 DAR 37:13], q=2-31, 200 kb/s, PAR 1:1 DAR 37:13
      1k tbn (default)
    Metadata:
      encoder         : Lavc58.2.0 rawvideo
frame=    8 fps=  0 q=-0.0 Lsize=       0kB time=65.27 bitrate=   0.1kbits/s    
video:36075kB audio:0kB other streams:0kB global headers:0kB muxing overhead: unknown