x86_64-asan-linux-clang-3.9 v13_dev0-1017-ge788ca0

Architecturex86
Variantx86_64
CPUgeneric
OSlinux
Ownerlu_zero
Compilerclang version 3.9.0 (tags/RELEASE_390/final)
Configuration--prefix=/home/fate/fate/builds/master/x86_64-asan-linux-clang-3.9/install --samples=/home/fate/fate-suite/master --enable-gpl --cc=clang-3.9 --toolchain=clang-asan
CommentAddressSanitizer
Revisionv13_dev0-1017-ge788ca0
Date2017-03-29 07:04:50
Status2100 / 2104
Warnings89
Logscompile configure test
4 failed testsStatusLast good rev
diffstderrvsynth1-ffvhuff1n / a
--- /home/fate/fate/builds/master/x86_64-asan-linux-clang-3.9/src/tests/ref/vsynth/vsynth1-ffvhuff	2016-12-12 16:00:21.931465884 +0100
+++ tests/data/fate/vsynth1-ffvhuff	2017-03-29 09:04:24.533447558 +0200
@@ -1,4 +1,2 @@
 2279cfd5efce9dc3435b814f1f95dcbc *tests/data/fate/vsynth1-ffvhuff.avi
 5987196 tests/data/fate/vsynth1-ffvhuff.avi
-c5ccac874dbf808e9088bc3107860042 *tests/data/fate/vsynth1-ffvhuff.out.rawvideo
-stddev:    0.00 PSNR:999.99 MAXDIFF:    0 bytes:  7603200/  7603200
avconv version v13_dev0-1017-ge788ca0, Copyright (c) 2000-2017 the Libav developers
  built on Mar 29 2017 09:02:54 with clang version 3.9.0 (tags/RELEASE_390/final)
[rawvideo @ 0x61a00001f280] Estimating duration from bitrate, this may be inaccurate
Input #0, rawvideo, from '/home/fate/fate/builds/master/x86_64-asan-linux-clang-3.9/build/tests/data/vsynth1.yuv':
  Duration: N/A, start: 0.000000, bitrate: N/A
    Stream #0:0: Video: rawvideo
      yuv420p, 352x288
      25 fps, 25 tbn
Stream mapping:
  Stream #0:0 -> #0:0 (rawvideo (native) -> ffvhuff (native))
Press ctrl-c to stop encoding
Output #0, avi, to '/home/fate/fate/builds/master/x86_64-asan-linux-clang-3.9/build/tests/data/fate/vsynth1-ffvhuff.avi':
    Stream #0:0: Video: ffvhuff [FFVH / 0x48564646]
      yuv420p, 352x288, q=2-31, 200 kb/s
      25 fps, 25 tbn
    Metadata:
      encoder         : ffvhuff
frame=   50 fps=  0 q=-0.0 Lsize=    5847kB time=1.96 bitrate=24437.5kbits/s    
video:5840kB audio:0kB other streams:0kB global headers:0kB muxing overhead: 0.115781%
avconv version v13_dev0-1017-ge788ca0, Copyright (c) 2000-2017 the Libav developers
  built on Mar 29 2017 09:02:54 with clang version 3.9.0 (tags/RELEASE_390/final)
Input #0, avi, from '/home/fate/fate/builds/master/x86_64-asan-linux-clang-3.9/build/tests/data/fate/vsynth1-ffvhuff.avi':
  Duration: 00:00:02.00, start: 0.000000, bitrate: 23948 kb/s
    Stream #0:0: Video: ffvhuff [FFVH / 0x48564646]
      yuv420p, 352x288
      25 fps, 25 tbn
Stream mapping:
  Stream #0:0 -> #0:0 (ffvhuff (native) -> rawvideo (native))
Press ctrl-c to stop encoding
ASAN:DEADLYSIGNAL
=================================================================
==25304==ERROR: AddressSanitizer: SEGV on unknown address 0x614000020000 (pc 0x000001be6e2c bp 0x7ffe60a38970 sp 0x7ffe60a38618 T0)
==25304==The signal is caused by a READ memory access.
    #0 0x1be6e2b in ff_add_hfyu_left_pred_unaligned_ssse3 (/home/fate/fate/builds/master/x86_64-asan-linux-clang-3.9/build/avconv+0x1be6e2b)

AddressSanitizer can not provide additional info.
SUMMARY: AddressSanitizer: SEGV (/home/fate/fate/builds/master/x86_64-asan-linux-clang-3.9/build/avconv+0x1be6e2b) in ff_add_hfyu_left_pred_unaligned_ssse3
==25304==ABORTING
diffstderrvsynth1-huffyuv1n / a
--- /home/fate/fate/builds/master/x86_64-asan-linux-clang-3.9/src/tests/ref/vsynth/vsynth1-huffyuv	2016-12-12 16:00:21.935465884 +0100
+++ tests/data/fate/vsynth1-huffyuv	2017-03-29 09:04:26.421446039 +0200
@@ -1,4 +1,2 @@
 cd93849c8e9846490d8f950f1b2319d5 *tests/data/fate/vsynth1-huffyuv.avi
 7933788 tests/data/fate/vsynth1-huffyuv.avi
-c5ccac874dbf808e9088bc3107860042 *tests/data/fate/vsynth1-huffyuv.out.rawvideo
-stddev:    0.00 PSNR:999.99 MAXDIFF:    0 bytes:  7603200/  7603200
avconv version v13_dev0-1017-ge788ca0, Copyright (c) 2000-2017 the Libav developers
  built on Mar 29 2017 09:02:54 with clang version 3.9.0 (tags/RELEASE_390/final)
[rawvideo @ 0x61a00001f280] Estimating duration from bitrate, this may be inaccurate
Input #0, rawvideo, from '/home/fate/fate/builds/master/x86_64-asan-linux-clang-3.9/build/tests/data/vsynth1.yuv':
  Duration: N/A, start: 0.000000, bitrate: N/A
    Stream #0:0: Video: rawvideo
      yuv420p, 352x288
      25 fps, 25 tbn
Stream mapping:
  Stream #0:0 -> #0:0 (rawvideo (native) -> huffyuv (native))
Press ctrl-c to stop encoding
Output #0, avi, to '/home/fate/fate/builds/master/x86_64-asan-linux-clang-3.9/build/tests/data/fate/vsynth1-huffyuv.avi':
    Stream #0:0: Video: huffyuv [HFYU / 0x55594648]
      yuv422p, 352x288, q=2-31, 200 kb/s
      25 fps, 25 tbn
    Metadata:
      encoder         : huffyuv
frame=   50 fps=  0 q=-0.0 Lsize=    7748kB time=1.96 bitrate=32382.8kbits/s    
video:7741kB audio:0kB other streams:0kB global headers:0kB muxing overhead: 0.087349%
avconv version v13_dev0-1017-ge788ca0, Copyright (c) 2000-2017 the Libav developers
  built on Mar 29 2017 09:02:54 with clang version 3.9.0 (tags/RELEASE_390/final)
Input #0, avi, from '/home/fate/fate/builds/master/x86_64-asan-linux-clang-3.9/build/tests/data/fate/vsynth1-huffyuv.avi':
  Duration: 00:00:02.00, start: 0.000000, bitrate: 31735 kb/s
    Stream #0:0: Video: huffyuv [HFYU / 0x55594648]
      yuv422p, 352x288
      25 fps, 25 tbn
Stream mapping:
  Stream #0:0 -> #0:0 (huffyuv (native) -> rawvideo (native))
Press ctrl-c to stop encoding
ASAN:DEADLYSIGNAL
=================================================================
==25704==ERROR: AddressSanitizer: SEGV on unknown address 0x614000020000 (pc 0x000001be6e2c bp 0x7ffc6db7c370 sp 0x7ffc6db7c018 T0)
==25704==The signal is caused by a READ memory access.
    #0 0x1be6e2b in ff_add_hfyu_left_pred_unaligned_ssse3 (/home/fate/fate/builds/master/x86_64-asan-linux-clang-3.9/build/avconv+0x1be6e2b)

AddressSanitizer can not provide additional info.
SUMMARY: AddressSanitizer: SEGV (/home/fate/fate/builds/master/x86_64-asan-linux-clang-3.9/build/avconv+0x1be6e2b) in ff_add_hfyu_left_pred_unaligned_ssse3
==25704==ABORTING
diffstderrvsynth2-ffvhuff1n / a
--- /home/fate/fate/builds/master/x86_64-asan-linux-clang-3.9/src/tests/ref/vsynth/vsynth2-ffvhuff	2016-12-12 16:00:21.935465884 +0100
+++ tests/data/fate/vsynth2-ffvhuff	2017-03-29 09:04:35.133439012 +0200
@@ -1,4 +1,2 @@
 9884966783a0d092b45462ea586df2f8 *tests/data/fate/vsynth2-ffvhuff.avi
 4951180 tests/data/fate/vsynth2-ffvhuff.avi
-36d7ca943916e1743cefa609eba0205c *tests/data/fate/vsynth2-ffvhuff.out.rawvideo
-stddev:    0.00 PSNR:999.99 MAXDIFF:    0 bytes:  7603200/  7603200
avconv version v13_dev0-1017-ge788ca0, Copyright (c) 2000-2017 the Libav developers
  built on Mar 29 2017 09:02:54 with clang version 3.9.0 (tags/RELEASE_390/final)
[rawvideo @ 0x61a00001f280] Estimating duration from bitrate, this may be inaccurate
Input #0, rawvideo, from '/home/fate/fate/builds/master/x86_64-asan-linux-clang-3.9/build/tests/data/vsynth2.yuv':
  Duration: N/A, start: 0.000000, bitrate: N/A
    Stream #0:0: Video: rawvideo
      yuv420p, 352x288
      25 fps, 25 tbn
Stream mapping:
  Stream #0:0 -> #0:0 (rawvideo (native) -> ffvhuff (native))
Press ctrl-c to stop encoding
Output #0, avi, to '/home/fate/fate/builds/master/x86_64-asan-linux-clang-3.9/build/tests/data/fate/vsynth2-ffvhuff.avi':
    Stream #0:0: Video: ffvhuff [FFVH / 0x48564646]
      yuv420p, 352x288, q=2-31, 200 kb/s
      25 fps, 25 tbn
    Metadata:
      encoder         : ffvhuff
frame=   50 fps=  0 q=-0.0 Lsize=    4835kB time=1.96 bitrate=20208.9kbits/s    
video:4828kB audio:0kB other streams:0kB global headers:0kB muxing overhead: 0.140041%
avconv version v13_dev0-1017-ge788ca0, Copyright (c) 2000-2017 the Libav developers
  built on Mar 29 2017 09:02:54 with clang version 3.9.0 (tags/RELEASE_390/final)
Input #0, avi, from '/home/fate/fate/builds/master/x86_64-asan-linux-clang-3.9/build/tests/data/fate/vsynth2-ffvhuff.avi':
  Duration: 00:00:02.00, start: 0.000000, bitrate: 19804 kb/s
    Stream #0:0: Video: ffvhuff [FFVH / 0x48564646]
      yuv420p, 352x288
      25 fps, 25 tbn
Stream mapping:
  Stream #0:0 -> #0:0 (ffvhuff (native) -> rawvideo (native))
Press ctrl-c to stop encoding
ASAN:DEADLYSIGNAL
=================================================================
==27482==ERROR: AddressSanitizer: SEGV on unknown address 0x614000020000 (pc 0x000001be6e2c bp 0x7ffc50680d70 sp 0x7ffc50680a18 T0)
==27482==The signal is caused by a READ memory access.
    #0 0x1be6e2b in ff_add_hfyu_left_pred_unaligned_ssse3 (/home/fate/fate/builds/master/x86_64-asan-linux-clang-3.9/build/avconv+0x1be6e2b)

AddressSanitizer can not provide additional info.
SUMMARY: AddressSanitizer: SEGV (/home/fate/fate/builds/master/x86_64-asan-linux-clang-3.9/build/avconv+0x1be6e2b) in ff_add_hfyu_left_pred_unaligned_ssse3
==27482==ABORTING
diffstderrvsynth2-huffyuv1n / a
--- /home/fate/fate/builds/master/x86_64-asan-linux-clang-3.9/src/tests/ref/vsynth/vsynth2-huffyuv	2016-12-12 16:00:21.935465884 +0100
+++ tests/data/fate/vsynth2-huffyuv	2017-03-29 09:04:37.901436774 +0200
@@ -1,4 +1,2 @@
 37c68caa7a0bd66a7511e6439c1ada49 *tests/data/fate/vsynth2-huffyuv.avi
 6422324 tests/data/fate/vsynth2-huffyuv.avi
-36d7ca943916e1743cefa609eba0205c *tests/data/fate/vsynth2-huffyuv.out.rawvideo
-stddev:    0.00 PSNR:999.99 MAXDIFF:    0 bytes:  7603200/  7603200
avconv version v13_dev0-1017-ge788ca0, Copyright (c) 2000-2017 the Libav developers
  built on Mar 29 2017 09:02:54 with clang version 3.9.0 (tags/RELEASE_390/final)
[rawvideo @ 0x61a00001f280] Estimating duration from bitrate, this may be inaccurate
Input #0, rawvideo, from '/home/fate/fate/builds/master/x86_64-asan-linux-clang-3.9/build/tests/data/vsynth2.yuv':
  Duration: N/A, start: 0.000000, bitrate: N/A
    Stream #0:0: Video: rawvideo
      yuv420p, 352x288
      25 fps, 25 tbn
Stream mapping:
  Stream #0:0 -> #0:0 (rawvideo (native) -> huffyuv (native))
Press ctrl-c to stop encoding
Output #0, avi, to '/home/fate/fate/builds/master/x86_64-asan-linux-clang-3.9/build/tests/data/fate/vsynth2-huffyuv.avi':
    Stream #0:0: Video: huffyuv [HFYU / 0x55594648]
      yuv422p, 352x288, q=2-31, 200 kb/s
      25 fps, 25 tbn
    Metadata:
      encoder         : huffyuv
frame=   50 fps=  0 q=-0.0 Lsize=    6272kB time=1.96 bitrate=26213.6kbits/s    
video:6265kB audio:0kB other streams:0kB global headers:0kB muxing overhead: 0.107928%
avconv version v13_dev0-1017-ge788ca0, Copyright (c) 2000-2017 the Libav developers
  built on Mar 29 2017 09:02:54 with clang version 3.9.0 (tags/RELEASE_390/final)
Input #0, avi, from '/home/fate/fate/builds/master/x86_64-asan-linux-clang-3.9/build/tests/data/fate/vsynth2-huffyuv.avi':
  Duration: 00:00:02.00, start: 0.000000, bitrate: 25689 kb/s
    Stream #0:0: Video: huffyuv [HFYU / 0x55594648]
      yuv422p, 352x288
      25 fps, 25 tbn
Stream mapping:
  Stream #0:0 -> #0:0 (huffyuv (native) -> rawvideo (native))
Press ctrl-c to stop encoding
ASAN:DEADLYSIGNAL
=================================================================
==27972==ERROR: AddressSanitizer: SEGV on unknown address 0x614000020000 (pc 0x000001be6e2c bp 0x7fff80a23570 sp 0x7fff80a23218 T0)
==27972==The signal is caused by a READ memory access.
    #0 0x1be6e2b in ff_add_hfyu_left_pred_unaligned_ssse3 (/home/fate/fate/builds/master/x86_64-asan-linux-clang-3.9/build/avconv+0x1be6e2b)

AddressSanitizer can not provide additional info.
SUMMARY: AddressSanitizer: SEGV (/home/fate/fate/builds/master/x86_64-asan-linux-clang-3.9/build/avconv+0x1be6e2b) in ff_add_hfyu_left_pred_unaligned_ssse3
==27972==ABORTING