x86_64-asan-linux-clang-3.9-v11 v11.8-25-g1e49734

Architecturex86
Variantx86_64
CPUgeneric
OSlinux
Ownerlu_zero
Compilerclang version 3.9.0 (tags/RELEASE_390/final)
Configuration--prefix=/home/fate/fate/builds/release11/x86_64-asan-linux-clang-3.9-v11/install --samples=/home/fate/fate-suite/release11 --enable-gpl --cc=clang-3.9 --toolchain=clang-asan
CommentAddressSanitizer
Revisionv11.8-25-g1e49734
Date2017-02-19 04:04:57
Status1923 / 1933
Warnings4514
Logscompile configure test
CPU flagsmmx mmxext sse sse2 sse3 ssse3 sse4.1 sse4.2 avx cmov
Threads1 (cpu_count = 8)
10 failed testsStatusLast good rev
diffstderrvsynth1-ffvhuff1n / a
--- /home/fate/fate/builds/release11/x86_64-asan-linux-clang-3.9-v11/src/tests/ref/vsynth/vsynth1-ffvhuff	2016-12-12 17:00:43.603465452 +0100
+++ tests/data/fate/vsynth1-ffvhuff	2017-02-19 05:04:11.064452393 +0100
@@ -1,4 +1,2 @@
 2279cfd5efce9dc3435b814f1f95dcbc *tests/data/fate/vsynth1-ffvhuff.avi
 5987196 tests/data/fate/vsynth1-ffvhuff.avi
-c5ccac874dbf808e9088bc3107860042 *tests/data/fate/vsynth1-ffvhuff.out.rawvideo
-stddev:    0.00 PSNR:999.99 MAXDIFF:    0 bytes:  7603200/  7603200
avconv version v11.8-25-g1e49734, Copyright (c) 2000-2017 the Libav developers
  built on Feb 19 2017 05:01:29 with clang version 3.9.0 (tags/RELEASE_390/final)
[rawvideo @ 0x61a00001f280] Estimating duration from bitrate, this may be inaccurate
Input #0, rawvideo, from '/home/fate/fate/builds/release11/x86_64-asan-linux-clang-3.9-v11/build/tests/data/vsynth1.yuv':
  Duration: N/A, start: 0.000000, bitrate: N/A
    Stream #0.0: Video: rawvideo, yuv420p, 352x288, 25 fps, 25 tbn
Output #0, avi, to '/home/fate/fate/builds/release11/x86_64-asan-linux-clang-3.9-v11/build/tests/data/fate/vsynth1-ffvhuff.avi':
    Stream #0.0: Video: ffvhuff, yuv420p, 352x288, q=2-31, 200 kb/s, 25 fps, 25 tbn, 25 tbc
    Metadata:
      encoder         : ffvhuff
Stream mapping:
  Stream #0:0 -> #0:0 (rawvideo (native) -> ffvhuff (native))
Press ctrl-c to stop encoding
frame=   50 fps=  0 q=0.0 Lsize=    5847kB time=1.96 bitrate=24437.5kbits/s    
video:5840kB audio:0kB other streams:0kB global headers:0kB muxing overhead: 0.115781%
avconv version v11.8-25-g1e49734, Copyright (c) 2000-2017 the Libav developers
  built on Feb 19 2017 05:01:29 with clang version 3.9.0 (tags/RELEASE_390/final)
Input #0, avi, from '/home/fate/fate/builds/release11/x86_64-asan-linux-clang-3.9-v11/build/tests/data/fate/vsynth1-ffvhuff.avi':
  Duration: 00:00:02.00, start: 0.000000, bitrate: 23948 kb/s
    Stream #0.0: Video: ffvhuff, yuv420p, 352x288, 25 fps, 25 tbn
Output #0, rawvideo, to '/home/fate/fate/builds/release11/x86_64-asan-linux-clang-3.9-v11/build/tests/data/fate/vsynth1-ffvhuff.out.rawvideo':
    Stream #0.0: Video: rawvideo, yuv420p, 352x288, q=2-31, 200 kb/s, 25 tbn, 25 tbc
    Metadata:
      encoder         : rawvideo
Stream mapping:
  Stream #0:0 -> #0:0 (ffvhuff (native) -> rawvideo (native))
Press ctrl-c to stop encoding
ASAN:DEADLYSIGNAL
=================================================================
==22578==ERROR: AddressSanitizer: SEGV on unknown address 0x614000020000 (pc 0x000001a03f8c bp 0x7ffd5fd1b910 sp 0x7ffd5fd1b5b8 T0)
==22578==The signal is caused by a READ memory access.
    #0 0x1a03f8b in ff_add_hfyu_left_pred_sse4 /home/fate/fate/builds/release11/x86_64-asan-linux-clang-3.9-v11/src/libavcodec/x86/huffyuvdsp.asm:161

AddressSanitizer can not provide additional info.
SUMMARY: AddressSanitizer: SEGV /home/fate/fate/builds/release11/x86_64-asan-linux-clang-3.9-v11/src/libavcodec/x86/huffyuvdsp.asm:161 in ff_add_hfyu_left_pred_sse4
==22578==ABORTING
diffstderrvsynth1-huffyuv1n / a
--- /home/fate/fate/builds/release11/x86_64-asan-linux-clang-3.9-v11/src/tests/ref/vsynth/vsynth1-huffyuv	2016-12-12 17:00:43.603465452 +0100
+++ tests/data/fate/vsynth1-huffyuv	2017-02-19 05:04:13.052448033 +0100
@@ -1,4 +1,2 @@
 cd93849c8e9846490d8f950f1b2319d5 *tests/data/fate/vsynth1-huffyuv.avi
 7933788 tests/data/fate/vsynth1-huffyuv.avi
-c5ccac874dbf808e9088bc3107860042 *tests/data/fate/vsynth1-huffyuv.out.rawvideo
-stddev:    0.00 PSNR:999.99 MAXDIFF:    0 bytes:  7603200/  7603200
avconv version v11.8-25-g1e49734, Copyright (c) 2000-2017 the Libav developers
  built on Feb 19 2017 05:01:29 with clang version 3.9.0 (tags/RELEASE_390/final)
[rawvideo @ 0x61a00001f280] Estimating duration from bitrate, this may be inaccurate
Input #0, rawvideo, from '/home/fate/fate/builds/release11/x86_64-asan-linux-clang-3.9-v11/build/tests/data/vsynth1.yuv':
  Duration: N/A, start: 0.000000, bitrate: N/A
    Stream #0.0: Video: rawvideo, yuv420p, 352x288, 25 fps, 25 tbn
Output #0, avi, to '/home/fate/fate/builds/release11/x86_64-asan-linux-clang-3.9-v11/build/tests/data/fate/vsynth1-huffyuv.avi':
    Stream #0.0: Video: huffyuv, yuv422p, 352x288, q=2-31, 200 kb/s, 25 fps, 25 tbn, 25 tbc
    Metadata:
      encoder         : huffyuv
Stream mapping:
  Stream #0:0 -> #0:0 (rawvideo (native) -> huffyuv (native))
Press ctrl-c to stop encoding
frame=   50 fps=  0 q=0.0 Lsize=    7748kB time=1.96 bitrate=32382.8kbits/s    
video:7741kB audio:0kB other streams:0kB global headers:0kB muxing overhead: 0.087349%
avconv version v11.8-25-g1e49734, Copyright (c) 2000-2017 the Libav developers
  built on Feb 19 2017 05:01:29 with clang version 3.9.0 (tags/RELEASE_390/final)
Input #0, avi, from '/home/fate/fate/builds/release11/x86_64-asan-linux-clang-3.9-v11/build/tests/data/fate/vsynth1-huffyuv.avi':
  Duration: 00:00:02.00, start: 0.000000, bitrate: 31735 kb/s
    Stream #0.0: Video: huffyuv, yuv422p, 352x288, 25 fps, 25 tbn
Output #0, rawvideo, to '/home/fate/fate/builds/release11/x86_64-asan-linux-clang-3.9-v11/build/tests/data/fate/vsynth1-huffyuv.out.rawvideo':
    Stream #0.0: Video: rawvideo, yuv420p, 352x288, q=2-31, 200 kb/s, 25 tbn, 25 tbc
    Metadata:
      encoder         : rawvideo
Stream mapping:
  Stream #0:0 -> #0:0 (huffyuv (native) -> rawvideo (native))
Press ctrl-c to stop encoding
ASAN:DEADLYSIGNAL
=================================================================
==23063==ERROR: AddressSanitizer: SEGV on unknown address 0x614000020000 (pc 0x000001a03f8c bp 0x7fff14fcb850 sp 0x7fff14fcb4f8 T0)
==23063==The signal is caused by a READ memory access.
    #0 0x1a03f8b in ff_add_hfyu_left_pred_sse4 /home/fate/fate/builds/release11/x86_64-asan-linux-clang-3.9-v11/src/libavcodec/x86/huffyuvdsp.asm:161

AddressSanitizer can not provide additional info.
SUMMARY: AddressSanitizer: SEGV /home/fate/fate/builds/release11/x86_64-asan-linux-clang-3.9-v11/src/libavcodec/x86/huffyuvdsp.asm:161 in ff_add_hfyu_left_pred_sse4
==23063==ABORTING
diffstderrvsynth1-mpeg2-ivlc-qprd1n / a
--- /home/fate/fate/builds/release11/x86_64-asan-linux-clang-3.9-v11/src/tests/ref/vsynth/vsynth1-mpeg2-ivlc-qprd	2016-12-12 17:00:43.607465452 +0100
+++ tests/data/fate/vsynth1-mpeg2-ivlc-qprd	2017-02-19 05:04:14.048445849 +0100
@@ -1,4 +0,0 @@
-ba08be2c6209f6b88be97e6fe74911db *tests/data/fate/vsynth1-mpeg2-ivlc-qprd.mpeg2video
-783612 tests/data/fate/vsynth1-mpeg2-ivlc-qprd.mpeg2video
-98eb9da15f880978e7f2ee1e7ce476ef *tests/data/fate/vsynth1-mpeg2-ivlc-qprd.out.rawvideo
-stddev:   10.07 PSNR: 28.06 MAXDIFF:  165 bytes:  7603200/  7603200
avconv version v11.8-25-g1e49734, Copyright (c) 2000-2017 the Libav developers
  built on Feb 19 2017 05:01:29 with clang version 3.9.0 (tags/RELEASE_390/final)
[rawvideo @ 0x61a00001f280] Estimating duration from bitrate, this may be inaccurate
Input #0, rawvideo, from '/home/fate/fate/builds/release11/x86_64-asan-linux-clang-3.9-v11/build/tests/data/vsynth1.yuv':
  Duration: N/A, start: 0.000000, bitrate: N/A
    Stream #0.0: Video: rawvideo, yuv420p, 352x288, 25 fps, 25 tbn
Output #0, mpeg2video, to '/home/fate/fate/builds/release11/x86_64-asan-linux-clang-3.9-v11/build/tests/data/fate/vsynth1-mpeg2-ivlc-qprd.mpeg2video':
    Stream #0.0: Video: mpeg2video (hq), yuv420p, 352x288, q=2-31, 500 kb/s, 25 tbn, 25 tbc
    Metadata:
      encoder         : mpeg2video
Stream mapping:
  Stream #0:0 -> #0:0 (rawvideo (native) -> mpeg2video (native))
Press ctrl-c to stop encoding
ASAN:DEADLYSIGNAL
=================================================================
==23319==ERROR: AddressSanitizer: SEGV on unknown address 0x6400000621a0 (pc 0x000001a074ac bp 0x7ffcfb88aa50 sp 0x7ffcfb88a690 T0)
==23319==The signal is caused by a READ memory access.
    #0 0x1a074ab in ff_hadamard8_diff16_sse2 /home/fate/fate/builds/release11/x86_64-asan-linux-clang-3.9-v11/src/libavcodec/x86/me_cmp.asm:275

AddressSanitizer can not provide additional info.
SUMMARY: AddressSanitizer: SEGV /home/fate/fate/builds/release11/x86_64-asan-linux-clang-3.9-v11/src/libavcodec/x86/me_cmp.asm:275 in ff_hadamard8_diff16_sse2
==23319==ABORTING
diffstderrvsynth1-mpeg4-adap1n / a
--- /home/fate/fate/builds/release11/x86_64-asan-linux-clang-3.9-v11/src/tests/ref/vsynth/vsynth1-mpeg4-adap	2016-12-12 17:00:43.607465452 +0100
+++ tests/data/fate/vsynth1-mpeg4-adap	2017-02-19 05:04:14.952443866 +0100
@@ -1,4 +0,0 @@
-eb70136b050f0b216febe57e7766b6a8 *tests/data/fate/vsynth1-mpeg4-adap.avi
-403444 tests/data/fate/vsynth1-mpeg4-adap.avi
-fa2049396479b5f170aa764fed5b2a31 *tests/data/fate/vsynth1-mpeg4-adap.out.rawvideo
-stddev:   14.05 PSNR: 25.17 MAXDIFF:  184 bytes:  7603200/  7603200
avconv version v11.8-25-g1e49734, Copyright (c) 2000-2017 the Libav developers
  built on Feb 19 2017 05:01:29 with clang version 3.9.0 (tags/RELEASE_390/final)
[rawvideo @ 0x61a00001f280] Estimating duration from bitrate, this may be inaccurate
Input #0, rawvideo, from '/home/fate/fate/builds/release11/x86_64-asan-linux-clang-3.9-v11/build/tests/data/vsynth1.yuv':
  Duration: N/A, start: 0.000000, bitrate: N/A
    Stream #0.0: Video: rawvideo, yuv420p, 352x288, 25 fps, 25 tbn
Output #0, avi, to '/home/fate/fate/builds/release11/x86_64-asan-linux-clang-3.9-v11/build/tests/data/fate/vsynth1-mpeg4-adap.avi':
    Stream #0.0: Video: mpeg4 (hq), yuv420p, 352x288, q=2-31, 550 kb/s, 25 fps, 25 tbn, 25 tbc
    Metadata:
      encoder         : mpeg4
Stream mapping:
  Stream #0:0 -> #0:0 (rawvideo (native) -> mpeg4 (native))
Press ctrl-c to stop encoding
ASAN:DEADLYSIGNAL
=================================================================
==23614==ERROR: AddressSanitizer: SEGV on unknown address 0x6400000621a0 (pc 0x000001a077f3 bp 0x7ffe45664470 sp 0x7ffe456640b8 T0)
==23614==The signal is caused by a READ memory access.
    #0 0x1a077f2 in ff_sse16_sse2 /home/fate/fate/builds/release11/x86_64-asan-linux-clang-3.9-v11/src/libavcodec/x86/me_cmp.asm:287

AddressSanitizer can not provide additional info.
SUMMARY: AddressSanitizer: SEGV /home/fate/fate/builds/release11/x86_64-asan-linux-clang-3.9-v11/src/libavcodec/x86/me_cmp.asm:287 in ff_sse16_sse2
==23614==ABORTING
diffstderrvsynth1-mpeg4-qprd1n / a
--- /home/fate/fate/builds/release11/x86_64-asan-linux-clang-3.9-v11/src/tests/ref/vsynth/vsynth1-mpeg4-qprd	2016-12-12 17:00:43.607465452 +0100
+++ tests/data/fate/vsynth1-mpeg4-qprd	2017-02-19 05:04:14.952443866 +0100
@@ -1,4 +0,0 @@
-5a95ba2c240fcb28963fe90fba4ce52b *tests/data/fate/vsynth1-mpeg4-qprd.avi
-710932 tests/data/fate/vsynth1-mpeg4-qprd.avi
-e65f4c7f343fe2bad1cac44b7da5f7c4 *tests/data/fate/vsynth1-mpeg4-qprd.out.rawvideo
-stddev:    9.79 PSNR: 28.31 MAXDIFF:  176 bytes:  7603200/  7603200
avconv version v11.8-25-g1e49734, Copyright (c) 2000-2017 the Libav developers
  built on Feb 19 2017 05:01:29 with clang version 3.9.0 (tags/RELEASE_390/final)
[rawvideo @ 0x61a00001f280] Estimating duration from bitrate, this may be inaccurate
Input #0, rawvideo, from '/home/fate/fate/builds/release11/x86_64-asan-linux-clang-3.9-v11/build/tests/data/vsynth1.yuv':
  Duration: N/A, start: 0.000000, bitrate: N/A
    Stream #0.0: Video: rawvideo, yuv420p, 352x288, 25 fps, 25 tbn
Output #0, avi, to '/home/fate/fate/builds/release11/x86_64-asan-linux-clang-3.9-v11/build/tests/data/fate/vsynth1-mpeg4-qprd.avi':
    Stream #0.0: Video: mpeg4 (hq), yuv420p, 352x288, q=2-31, 450 kb/s, 25 fps, 25 tbn, 25 tbc
    Metadata:
      encoder         : mpeg4
Stream mapping:
  Stream #0:0 -> #0:0 (rawvideo (native) -> mpeg4 (native))
Press ctrl-c to stop encoding
ASAN:DEADLYSIGNAL
=================================================================
==23610==ERROR: AddressSanitizer: SEGV on unknown address 0x6400000621a0 (pc 0x000001a074ac bp 0x7ffcae453830 sp 0x7ffcae453470 T0)
==23610==The signal is caused by a READ memory access.
    #0 0x1a074ab in ff_hadamard8_diff16_sse2 /home/fate/fate/builds/release11/x86_64-asan-linux-clang-3.9-v11/src/libavcodec/x86/me_cmp.asm:275

AddressSanitizer can not provide additional info.
SUMMARY: AddressSanitizer: SEGV /home/fate/fate/builds/release11/x86_64-asan-linux-clang-3.9-v11/src/libavcodec/x86/me_cmp.asm:275 in ff_hadamard8_diff16_sse2
==23610==ABORTING
diffstderrvsynth2-ffvhuff1n / a
--- /home/fate/fate/builds/release11/x86_64-asan-linux-clang-3.9-v11/src/tests/ref/vsynth/vsynth2-ffvhuff	2016-12-12 17:00:43.607465452 +0100
+++ tests/data/fate/vsynth2-ffvhuff	2017-02-19 05:04:21.380429769 +0100
@@ -1,4 +1,2 @@
 9884966783a0d092b45462ea586df2f8 *tests/data/fate/vsynth2-ffvhuff.avi
 4951180 tests/data/fate/vsynth2-ffvhuff.avi
-36d7ca943916e1743cefa609eba0205c *tests/data/fate/vsynth2-ffvhuff.out.rawvideo
-stddev:    0.00 PSNR:999.99 MAXDIFF:    0 bytes:  7603200/  7603200
avconv version v11.8-25-g1e49734, Copyright (c) 2000-2017 the Libav developers
  built on Feb 19 2017 05:01:29 with clang version 3.9.0 (tags/RELEASE_390/final)
[rawvideo @ 0x61a00001f280] Estimating duration from bitrate, this may be inaccurate
Input #0, rawvideo, from '/home/fate/fate/builds/release11/x86_64-asan-linux-clang-3.9-v11/build/tests/data/vsynth2.yuv':
  Duration: N/A, start: 0.000000, bitrate: N/A
    Stream #0.0: Video: rawvideo, yuv420p, 352x288, 25 fps, 25 tbn
Output #0, avi, to '/home/fate/fate/builds/release11/x86_64-asan-linux-clang-3.9-v11/build/tests/data/fate/vsynth2-ffvhuff.avi':
    Stream #0.0: Video: ffvhuff, yuv420p, 352x288, q=2-31, 200 kb/s, 25 fps, 25 tbn, 25 tbc
    Metadata:
      encoder         : ffvhuff
Stream mapping:
  Stream #0:0 -> #0:0 (rawvideo (native) -> ffvhuff (native))
Press ctrl-c to stop encoding
frame=   50 fps=  0 q=0.0 Lsize=    4835kB time=1.96 bitrate=20208.9kbits/s    
video:4828kB audio:0kB other streams:0kB global headers:0kB muxing overhead: 0.140041%
avconv version v11.8-25-g1e49734, Copyright (c) 2000-2017 the Libav developers
  built on Feb 19 2017 05:01:29 with clang version 3.9.0 (tags/RELEASE_390/final)
Input #0, avi, from '/home/fate/fate/builds/release11/x86_64-asan-linux-clang-3.9-v11/build/tests/data/fate/vsynth2-ffvhuff.avi':
  Duration: 00:00:02.00, start: 0.000000, bitrate: 19804 kb/s
    Stream #0.0: Video: ffvhuff, yuv420p, 352x288, 25 fps, 25 tbn
Output #0, rawvideo, to '/home/fate/fate/builds/release11/x86_64-asan-linux-clang-3.9-v11/build/tests/data/fate/vsynth2-ffvhuff.out.rawvideo':
    Stream #0.0: Video: rawvideo, yuv420p, 352x288, q=2-31, 200 kb/s, 25 tbn, 25 tbc
    Metadata:
      encoder         : rawvideo
Stream mapping:
  Stream #0:0 -> #0:0 (ffvhuff (native) -> rawvideo (native))
Press ctrl-c to stop encoding
ASAN:DEADLYSIGNAL
=================================================================
==24942==ERROR: AddressSanitizer: SEGV on unknown address 0x614000020000 (pc 0x000001a03f8c bp 0x7ffded9768f0 sp 0x7ffded976598 T0)
==24942==The signal is caused by a READ memory access.
    #0 0x1a03f8b in ff_add_hfyu_left_pred_sse4 /home/fate/fate/builds/release11/x86_64-asan-linux-clang-3.9-v11/src/libavcodec/x86/huffyuvdsp.asm:161

AddressSanitizer can not provide additional info.
SUMMARY: AddressSanitizer: SEGV /home/fate/fate/builds/release11/x86_64-asan-linux-clang-3.9-v11/src/libavcodec/x86/huffyuvdsp.asm:161 in ff_add_hfyu_left_pred_sse4
==24942==ABORTING
diffstderrvsynth2-huffyuv1n / a
--- /home/fate/fate/builds/release11/x86_64-asan-linux-clang-3.9-v11/src/tests/ref/vsynth/vsynth2-huffyuv	2016-12-12 17:00:43.607465452 +0100
+++ tests/data/fate/vsynth2-huffyuv	2017-02-19 05:04:22.128428128 +0100
@@ -1,4 +1,2 @@
 37c68caa7a0bd66a7511e6439c1ada49 *tests/data/fate/vsynth2-huffyuv.avi
 6422324 tests/data/fate/vsynth2-huffyuv.avi
-36d7ca943916e1743cefa609eba0205c *tests/data/fate/vsynth2-huffyuv.out.rawvideo
-stddev:    0.00 PSNR:999.99 MAXDIFF:    0 bytes:  7603200/  7603200
avconv version v11.8-25-g1e49734, Copyright (c) 2000-2017 the Libav developers
  built on Feb 19 2017 05:01:29 with clang version 3.9.0 (tags/RELEASE_390/final)
[rawvideo @ 0x61a00001f280] Estimating duration from bitrate, this may be inaccurate
Input #0, rawvideo, from '/home/fate/fate/builds/release11/x86_64-asan-linux-clang-3.9-v11/build/tests/data/vsynth2.yuv':
  Duration: N/A, start: 0.000000, bitrate: N/A
    Stream #0.0: Video: rawvideo, yuv420p, 352x288, 25 fps, 25 tbn
Output #0, avi, to '/home/fate/fate/builds/release11/x86_64-asan-linux-clang-3.9-v11/build/tests/data/fate/vsynth2-huffyuv.avi':
    Stream #0.0: Video: huffyuv, yuv422p, 352x288, q=2-31, 200 kb/s, 25 fps, 25 tbn, 25 tbc
    Metadata:
      encoder         : huffyuv
Stream mapping:
  Stream #0:0 -> #0:0 (rawvideo (native) -> huffyuv (native))
Press ctrl-c to stop encoding
frame=   50 fps=  0 q=0.0 Lsize=    6272kB time=1.96 bitrate=26213.6kbits/s    
video:6265kB audio:0kB other streams:0kB global headers:0kB muxing overhead: 0.107928%
avconv version v11.8-25-g1e49734, Copyright (c) 2000-2017 the Libav developers
  built on Feb 19 2017 05:01:29 with clang version 3.9.0 (tags/RELEASE_390/final)
Input #0, avi, from '/home/fate/fate/builds/release11/x86_64-asan-linux-clang-3.9-v11/build/tests/data/fate/vsynth2-huffyuv.avi':
  Duration: 00:00:02.00, start: 0.000000, bitrate: 25689 kb/s
    Stream #0.0: Video: huffyuv, yuv422p, 352x288, 25 fps, 25 tbn
Output #0, rawvideo, to '/home/fate/fate/builds/release11/x86_64-asan-linux-clang-3.9-v11/build/tests/data/fate/vsynth2-huffyuv.out.rawvideo':
    Stream #0.0: Video: rawvideo, yuv420p, 352x288, q=2-31, 200 kb/s, 25 tbn, 25 tbc
    Metadata:
      encoder         : rawvideo
Stream mapping:
  Stream #0:0 -> #0:0 (huffyuv (native) -> rawvideo (native))
Press ctrl-c to stop encoding
ASAN:DEADLYSIGNAL
=================================================================
==25142==ERROR: AddressSanitizer: SEGV on unknown address 0x614000020000 (pc 0x000001a03f8c bp 0x7ffdf4286970 sp 0x7ffdf4286618 T0)
==25142==The signal is caused by a READ memory access.
    #0 0x1a03f8b in ff_add_hfyu_left_pred_sse4 /home/fate/fate/builds/release11/x86_64-asan-linux-clang-3.9-v11/src/libavcodec/x86/huffyuvdsp.asm:161

AddressSanitizer can not provide additional info.
SUMMARY: AddressSanitizer: SEGV /home/fate/fate/builds/release11/x86_64-asan-linux-clang-3.9-v11/src/libavcodec/x86/huffyuvdsp.asm:161 in ff_add_hfyu_left_pred_sse4
==25142==ABORTING
diffstderrvsynth2-mpeg2-ivlc-qprd1n / a
--- /home/fate/fate/builds/release11/x86_64-asan-linux-clang-3.9-v11/src/tests/ref/vsynth/vsynth2-mpeg2-ivlc-qprd	2016-12-12 17:00:43.607465452 +0100
+++ tests/data/fate/vsynth2-mpeg2-ivlc-qprd	2017-02-19 05:04:23.084426031 +0100
@@ -1,4 +0,0 @@
-5e938746a4b50f496db6faa10cbe98d6 *tests/data/fate/vsynth2-mpeg2-ivlc-qprd.mpeg2video
-269774 tests/data/fate/vsynth2-mpeg2-ivlc-qprd.mpeg2video
-91316e6e990ee20b4a8de33f9e6adc56 *tests/data/fate/vsynth2-mpeg2-ivlc-qprd.out.rawvideo
-stddev:    5.54 PSNR: 33.25 MAXDIFF:   94 bytes:  7603200/  7603200
avconv version v11.8-25-g1e49734, Copyright (c) 2000-2017 the Libav developers
  built on Feb 19 2017 05:01:29 with clang version 3.9.0 (tags/RELEASE_390/final)
[rawvideo @ 0x61a00001f280] Estimating duration from bitrate, this may be inaccurate
Input #0, rawvideo, from '/home/fate/fate/builds/release11/x86_64-asan-linux-clang-3.9-v11/build/tests/data/vsynth2.yuv':
  Duration: N/A, start: 0.000000, bitrate: N/A
    Stream #0.0: Video: rawvideo, yuv420p, 352x288, 25 fps, 25 tbn
Output #0, mpeg2video, to '/home/fate/fate/builds/release11/x86_64-asan-linux-clang-3.9-v11/build/tests/data/fate/vsynth2-mpeg2-ivlc-qprd.mpeg2video':
    Stream #0.0: Video: mpeg2video (hq), yuv420p, 352x288, q=2-31, 500 kb/s, 25 tbn, 25 tbc
    Metadata:
      encoder         : mpeg2video
Stream mapping:
  Stream #0:0 -> #0:0 (rawvideo (native) -> mpeg2video (native))
Press ctrl-c to stop encoding
ASAN:DEADLYSIGNAL
=================================================================
==25561==ERROR: AddressSanitizer: SEGV on unknown address 0x6400000621a0 (pc 0x000001a074ac bp 0x7fff1834b1d0 sp 0x7fff1834ae10 T0)
==25561==The signal is caused by a READ memory access.
    #0 0x1a074ab in ff_hadamard8_diff16_sse2 /home/fate/fate/builds/release11/x86_64-asan-linux-clang-3.9-v11/src/libavcodec/x86/me_cmp.asm:275

AddressSanitizer can not provide additional info.
SUMMARY: AddressSanitizer: SEGV /home/fate/fate/builds/release11/x86_64-asan-linux-clang-3.9-v11/src/libavcodec/x86/me_cmp.asm:275 in ff_hadamard8_diff16_sse2
==25561==ABORTING
diffstderrvsynth2-mpeg4-adap1n / a
--- /home/fate/fate/builds/release11/x86_64-asan-linux-clang-3.9-v11/src/tests/ref/vsynth/vsynth2-mpeg4-adap	2016-12-12 17:00:43.607465452 +0100
+++ tests/data/fate/vsynth2-mpeg4-adap	2017-02-19 05:04:23.704424672 +0100
@@ -1,4 +0,0 @@
-00b903b1de8c943b344d493312cea9e7 *tests/data/fate/vsynth2-mpeg4-adap.avi
-214026 tests/data/fate/vsynth2-mpeg4-adap.avi
-a004e972aebc9baf8c84965226115526 *tests/data/fate/vsynth2-mpeg4-adap.out.rawvideo
-stddev:    4.87 PSNR: 34.37 MAXDIFF:   86 bytes:  7603200/  7603200
avconv version v11.8-25-g1e49734, Copyright (c) 2000-2017 the Libav developers
  built on Feb 19 2017 05:01:29 with clang version 3.9.0 (tags/RELEASE_390/final)
[rawvideo @ 0x61a00001f280] Estimating duration from bitrate, this may be inaccurate
Input #0, rawvideo, from '/home/fate/fate/builds/release11/x86_64-asan-linux-clang-3.9-v11/build/tests/data/vsynth2.yuv':
  Duration: N/A, start: 0.000000, bitrate: N/A
    Stream #0.0: Video: rawvideo, yuv420p, 352x288, 25 fps, 25 tbn
Output #0, avi, to '/home/fate/fate/builds/release11/x86_64-asan-linux-clang-3.9-v11/build/tests/data/fate/vsynth2-mpeg4-adap.avi':
    Stream #0.0: Video: mpeg4 (hq), yuv420p, 352x288, q=2-31, 550 kb/s, 25 fps, 25 tbn, 25 tbc
    Metadata:
      encoder         : mpeg4
Stream mapping:
  Stream #0:0 -> #0:0 (rawvideo (native) -> mpeg4 (native))
Press ctrl-c to stop encoding
ASAN:DEADLYSIGNAL
=================================================================
==25837==ERROR: AddressSanitizer: SEGV on unknown address 0x6400000621a0 (pc 0x000001a077f3 bp 0x7ffdbcbcebd0 sp 0x7ffdbcbce818 T0)
==25837==The signal is caused by a READ memory access.
    #0 0x1a077f2 in ff_sse16_sse2 /home/fate/fate/builds/release11/x86_64-asan-linux-clang-3.9-v11/src/libavcodec/x86/me_cmp.asm:287

AddressSanitizer can not provide additional info.
SUMMARY: AddressSanitizer: SEGV /home/fate/fate/builds/release11/x86_64-asan-linux-clang-3.9-v11/src/libavcodec/x86/me_cmp.asm:287 in ff_sse16_sse2
==25837==ABORTING
diffstderrvsynth2-mpeg4-qprd1n / a
--- /home/fate/fate/builds/release11/x86_64-asan-linux-clang-3.9-v11/src/tests/ref/vsynth/vsynth2-mpeg4-qprd	2016-12-12 17:00:43.607465452 +0100
+++ tests/data/fate/vsynth2-mpeg4-qprd	2017-02-19 05:04:23.632424830 +0100
@@ -1,4 +0,0 @@
-a8b93de39254468708ebf2744ff8239e *tests/data/fate/vsynth2-mpeg4-qprd.avi
-248702 tests/data/fate/vsynth2-mpeg4-qprd.avi
-baa8d0d57a7fb5e393642cb20efed2c2 *tests/data/fate/vsynth2-mpeg4-qprd.out.rawvideo
-stddev:    4.85 PSNR: 34.40 MAXDIFF:   85 bytes:  7603200/  7603200
avconv version v11.8-25-g1e49734, Copyright (c) 2000-2017 the Libav developers
  built on Feb 19 2017 05:01:29 with clang version 3.9.0 (tags/RELEASE_390/final)
[rawvideo @ 0x61a00001f280] Estimating duration from bitrate, this may be inaccurate
Input #0, rawvideo, from '/home/fate/fate/builds/release11/x86_64-asan-linux-clang-3.9-v11/build/tests/data/vsynth2.yuv':
  Duration: N/A, start: 0.000000, bitrate: N/A
    Stream #0.0: Video: rawvideo, yuv420p, 352x288, 25 fps, 25 tbn
Output #0, avi, to '/home/fate/fate/builds/release11/x86_64-asan-linux-clang-3.9-v11/build/tests/data/fate/vsynth2-mpeg4-qprd.avi':
    Stream #0.0: Video: mpeg4 (hq), yuv420p, 352x288, q=2-31, 450 kb/s, 25 fps, 25 tbn, 25 tbc
    Metadata:
      encoder         : mpeg4
Stream mapping:
  Stream #0:0 -> #0:0 (rawvideo (native) -> mpeg4 (native))
Press ctrl-c to stop encoding
ASAN:DEADLYSIGNAL
=================================================================
==25781==ERROR: AddressSanitizer: SEGV on unknown address 0x6400000621a0 (pc 0x000001a074ac bp 0x7ffe65048d90 sp 0x7ffe650489d0 T0)
==25781==The signal is caused by a READ memory access.
    #0 0x1a074ab in ff_hadamard8_diff16_sse2 /home/fate/fate/builds/release11/x86_64-asan-linux-clang-3.9-v11/src/libavcodec/x86/me_cmp.asm:275

AddressSanitizer can not provide additional info.
SUMMARY: AddressSanitizer: SEGV /home/fate/fate/builds/release11/x86_64-asan-linux-clang-3.9-v11/src/libavcodec/x86/me_cmp.asm:275 in ff_hadamard8_diff16_sse2
==25781==ABORTING