x86_32-openbsd-gcc v13_dev0-1601-g56f50183f

Architecturex86
Variantx86_32
CPUgeneric
OSopenbsd
Ownerkostylev
Compilergcc 4.2.1 (GCC) 20070719
Configuration--enable-gpl --prefix=/home/mik/src/fate/x86_32-openbsd-gcc/install --samples=/home/mik/src/fate/fate-suite --cc='ccache gcc' --disable-debug --enable-shared --optflags=-O2
Comment-O2, SHELL=dash
Revisionv13_dev0-1601-g56f50183f
Date2018-11-15 15:12:32
Status2150 / 2151
Warnings1602
Logscompile configure test
1 failed testsStatusLast good rev
diffstderrh264-conformance-frext-hcafr2_hhi_a1v13_dev0-1600-ge716323fa
--- /home/mik/src/fate/src/tests/ref/fate/h264-conformance-frext-hcafr2_hhi_a	Thu Dec  7 23:43:04 2017
+++ tests/data/fate/h264-conformance-frext-hcafr2_hhi_a	Thu Nov 15 18:03:43 2018
@@ -1,6 +1,6 @@
 #tb 0: 1/25
 0,          0,          0,        1,   152064, 0xd5448f0e
-0,          1,          1,        1,   152064, 0x93d022ba
+0,          1,          1,        1,   152064, 0x7a35ede5
 0,          2,          2,        1,   152064, 0x1eaed76e
 0,          3,          3,        1,   152064, 0xbbd54f09
 0,          4,          4,        1,   152064, 0x175d6316
avconv version v13_dev0-1601-g56f50183f, Copyright (c) 2000-2018 the Libav developers
  built on Nov 15 2018 18:01:41 with gcc 4.2.1 (GCC) 20070719
[h264 @ 0x7abec800] Estimating duration from bitrate, this may be inaccurate
Input #0, h264, from '/home/mik/src/fate/fate-suite/h264-conformance/FRext/HCAFR2_HHI.264':
  Duration: N/A, bitrate: N/A
    Stream #0:0: Video: h264 (High)
      yuv420p, 352x288
      25 fps, 25 tbn
Stream mapping:
  Stream #0:0 -> #0:0 (h264 (native) -> rawvideo (native))
Press ctrl-c to stop encoding
Output #0, framecrc, to 'pipe:':
  Metadata:
    encoder         : Lavf58.2.0
    Stream #0:0: Video: rawvideo [I420 / 0x30323449]
      yuv420p, 352x288, q=2-31, 200 kb/s
      25 tbn
    Metadata:
      encoder         : Lavc58.12.0 rawvideo
frame=   10 fps=  0 q=-0.0 Lsize=       1kB time=0.36 bitrate=  13.2kbits/s    
video:1485kB audio:0kB other streams:0kB global headers:0kB muxing overhead: unknown