x86_32-openbsd-clang v13_dev0-1600-ge716323fa

Architecturex86
Variantx86_32
CPUgeneric
OSopenbsd
Ownerkostylev
CompilerOpenBSD clang version 4.0.0 (tags/RELEASE_400/final) (based on LLVM 4.0.0)
Configuration--enable-gpl --prefix=/home/mik/src/fate/x86_32-openbsd-clang/install --samples=/home/mik/src/fate/fate-suite --cc='ccache clang' --disable-debug
CommentSHELL=dash
Revisionv13_dev0-1600-ge716323fa
Date2018-11-13 16:58:18
Status2150 / 2151
Warnings87
Logscompile configure test
1 failed testsStatusLast good rev
diffstderrfilter-drawbox1n / a
--- /home/mik/src/fate/src/tests/ref/fate/filter-drawbox	Thu Dec  7 23:43:04 2017
+++ tests/data/fate/filter-drawbox	Tue Nov 13 19:55:44 2018
@@ -3,7 +3,7 @@
 0,          1,          1,        1,   152064, 0x61125759
 0,          2,          2,        1,   152064, 0x2a64f47f
 0,          3,          3,        1,   152064, 0xc1089594
-0,          4,          4,        1,   152064, 0xd9e18830
+0,          4,          4,        1,   152064, 0x21d1882e
 0,          5,          5,        1,   152064, 0xeb135e03
 0,          6,          6,        1,   152064, 0x6a5b40d7
 0,          7,          7,        1,   152064, 0x0a356a16
@@ -13,7 +13,7 @@
 0,         11,         11,        1,   152064, 0x7f360233
 0,         12,         12,        1,   152064, 0xdd2bd142
 0,         13,         13,        1,   152064, 0xd231ad4a
-0,         14,         14,        1,   152064, 0x0543400e
+0,         14,         14,        1,   152064, 0xa919400d
 0,         15,         15,        1,   152064, 0x8252be2b
 0,         16,         16,        1,   152064, 0xd9f702be
 0,         17,         17,        1,   152064, 0xed5cf787
@@ -25,8 +25,8 @@
 0,         23,         23,        1,   152064, 0xf09e348c
 0,         24,         24,        1,   152064, 0x1afabf8a
 0,         25,         25,        1,   152064, 0xd16c558e
-0,         26,         26,        1,   152064, 0x78634796
-0,         27,         27,        1,   152064, 0xcd13b1e3
+0,         26,         26,        1,   152064, 0x1d064795
+0,         27,         27,        1,   152064, 0x5d77b1df
 0,         28,         28,        1,   152064, 0x59c2c6e5
 0,         29,         29,        1,   152064, 0x265e6beb
 0,         30,         30,        1,   152064, 0x82c656af
@@ -35,7 +35,7 @@
 0,         33,         33,        1,   152064, 0x488760cd
 0,         34,         34,        1,   152064, 0x0a080c93
 0,         35,         35,        1,   152064, 0xaab649e6
-0,         36,         36,        1,   152064, 0x9b34edaa
+0,         36,         36,        1,   152064, 0x3f32eda9
 0,         37,         37,        1,   152064, 0x44e12816
 0,         38,         38,        1,   152064, 0x03777927
 0,         39,         39,        1,   152064, 0x6644573e
avconv version v13_dev0-1600-ge716323fa, Copyright (c) 2000-2018 the Libav developers
  built on Nov 13 2018 19:47:23 with OpenBSD clang version 4.0.0 (tags/RELEASE_400/final) (based on LLVM 4.0.0)
Input #0, image2, from '/home/mik/src/fate/x86_32-openbsd-clang/build/tests/vsynth1/%02d.pgm':
  Duration: 00:00:02.00, start: 0.000000, bitrate: N/A
    Stream #0:0: Video: pgmyuv
      yuv420p, 352x288
      25 fps, 25 tbn
Stream mapping:
  Stream #0:0 -> #0:0 (pgmyuv (native) -> rawvideo (native))
Press ctrl-c to stop encoding
Output #0, framecrc, to 'pipe:':
  Metadata:
    encoder         : Lavf58.2.0
    Stream #0:0: Video: rawvideo [I420 / 0x30323449]
      yuv420p, 352x288, q=2-31, 200 kb/s
      25 tbn
    Metadata:
      encoder         : Lavc58.12.0 rawvideo
frame=   50 fps=  0 q=-0.0 Lsize=       3kB time=1.96 bitrate=  11.9kbits/s    
video:7425kB audio:0kB other streams:0kB global headers:0kB muxing overhead: unknown