x86_32-netbsd-clang-no-inline-asm v13_dev0-1599-g9bf9358b6

Architecturex86
Variantx86_32
CPUgeneric
OSnetbsd
Ownerkostylev
Compilerclang version 5.0.1 (tags/RELEASE_501/final)
Configuration--enable-gpl --prefix=/home/mik/src/fate/x86_32-netbsd-clang-no-inline-asm/install --samples=/home/mik/src/fate/fate-suite --cc='ccache clang -m32' --disable-debug --disable-inline-asm
Comment--disable-inline-asm
Revisionv13_dev0-1599-g9bf9358b6
Date2018-11-07 14:05:24
Status2139 / 2151
Warnings85
Logscompile configure test
12 failed testsStatusLast good rev
diffstderrfilter-drawbox1v12_dev0-1936-gc3e5c47
--- /home/mik/src/fate/src/tests/ref/fate/filter-drawbox	2018-03-20 04:46:16.000000000 +0300
+++ tests/data/fate/filter-drawbox	2018-11-07 17:02:00.000000000 +0300
@@ -3,7 +3,7 @@
 0,          1,          1,        1,   152064, 0x61125759
 0,          2,          2,        1,   152064, 0x2a64f47f
 0,          3,          3,        1,   152064, 0xc1089594
-0,          4,          4,        1,   152064, 0xd9e18830
+0,          4,          4,        1,   152064, 0x21d1882e
 0,          5,          5,        1,   152064, 0xeb135e03
 0,          6,          6,        1,   152064, 0x6a5b40d7
 0,          7,          7,        1,   152064, 0x0a356a16
@@ -13,7 +13,7 @@
 0,         11,         11,        1,   152064, 0x7f360233
 0,         12,         12,        1,   152064, 0xdd2bd142
 0,         13,         13,        1,   152064, 0xd231ad4a
-0,         14,         14,        1,   152064, 0x0543400e
+0,         14,         14,        1,   152064, 0xa919400d
 0,         15,         15,        1,   152064, 0x8252be2b
 0,         16,         16,        1,   152064, 0xd9f702be
 0,         17,         17,        1,   152064, 0xed5cf787
@@ -25,8 +25,8 @@
 0,         23,         23,        1,   152064, 0xf09e348c
 0,         24,         24,        1,   152064, 0x1afabf8a
 0,         25,         25,        1,   152064, 0xd16c558e
-0,         26,         26,        1,   152064, 0x78634796
-0,         27,         27,        1,   152064, 0xcd13b1e3
+0,         26,         26,        1,   152064, 0x1d064795
+0,         27,         27,        1,   152064, 0x5d77b1df
 0,         28,         28,        1,   152064, 0x59c2c6e5
 0,         29,         29,        1,   152064, 0x265e6beb
 0,         30,         30,        1,   152064, 0x82c656af
@@ -35,7 +35,7 @@
 0,         33,         33,        1,   152064, 0x488760cd
 0,         34,         34,        1,   152064, 0x0a080c93
 0,         35,         35,        1,   152064, 0xaab649e6
-0,         36,         36,        1,   152064, 0x9b34edaa
+0,         36,         36,        1,   152064, 0x3f32eda9
 0,         37,         37,        1,   152064, 0x44e12816
 0,         38,         38,        1,   152064, 0x03777927
 0,         39,         39,        1,   152064, 0x6644573e
avconv version v13_dev0-1599-g9bf9358b6, Copyright (c) 2000-2018 the Libav developers
  built on Nov  7 2018 17:01:22 with clang version 5.0.1 (tags/RELEASE_501/final)
Input #0, image2, from '/home/mik/src/fate/x86_32-netbsd-clang-no-inline-asm/build/tests/vsynth1/%02d.pgm':
  Duration: 00:00:02.00, start: 0.000000, bitrate: N/A
    Stream #0:0: Video: pgmyuv
      yuv420p, 352x288
      25 fps, 25 tbn
Stream mapping:
  Stream #0:0 -> #0:0 (pgmyuv (native) -> rawvideo (native))
Press ctrl-c to stop encoding
Output #0, framecrc, to 'pipe:':
  Metadata:
    encoder         : Lavf58.2.0
    Stream #0:0: Video: rawvideo [I420 / 0x30323449]
      yuv420p, 352x288, q=2-31, 200 kb/s
      25 tbn
    Metadata:
      encoder         : Lavc58.12.0 rawvideo
frame=   50 fps=  0 q=-0.0 Lsize=       3kB time=1.96 bitrate=  11.9kbits/s    
video:7425kB audio:0kB other streams:0kB global headers:0kB muxing overhead: unknown
diffstderrlavr-mix-q15-7-11v12_dev0-1936-gc3e5c47
stddev:    1.47 PSNR: 92.95 MAXDIFF:    2 bytes:     2048/     2048
avconv version v13_dev0-1599-g9bf9358b6, Copyright (c) 2000-2018 the Libav developers
  built on Nov  7 2018 17:01:22 with clang version 5.0.1 (tags/RELEASE_501/final)
Guessed Channel Layout for Input Stream #0.0 : 6.1
Input #0, wav, from '/home/mik/src/fate/x86_32-netbsd-clang-no-inline-asm/build/tests/data/asynth-44100-7.wav':
  Duration: 00:00:06.00, bitrate: 4939 kb/s
    Stream #0:0: Audio: pcm_s16le [[1][0][0][0] / 0x0001]
      44100 Hz, 7 channels, s16, 4939 kb/s
Codec AVOption threads () specified for input file #0 (/home/mik/src/fate/x86_32-netbsd-clang-no-inline-asm/build/tests/data/asynth-44100-7.wav) has not been used for any stream. The most likely reason is either wrong type (e.g. a video option with no video streams) or that it is a private option of some decoder which was not actually used for any stream.
Codec AVOption thread_type (select multithreading type) specified for input file #0 (/home/mik/src/fate/x86_32-netbsd-clang-no-inline-asm/build/tests/data/asynth-44100-7.wav) has not been used for any stream. The most likely reason is either wrong type (e.g. a video option with no video streams) or that it is a private option of some decoder which was not actually used for any stream.
Stream mapping:
  Stream #0:0 -> #0:0 (pcm_s16le (native) -> pcm_s16le (native))
Press ctrl-c to stop encoding
Output #0, s16le, to 'pipe:':
  Metadata:
    encoder         : Lavf58.2.0
    Stream #0:0: Audio: pcm_s16le
      44100 Hz, mono, s16, 705 kb/s
    Metadata:
      encoder         : Lavc58.12.0 pcm_s16le
size=       2kB time=0.02 bitrate= 824.8kbits/s    
video:0kB audio:2kB other streams:0kB global headers:0kB muxing overhead: 0.000000%
diffstderrlavr-resample-s32p-2626-441001v12_dev0-1936-gc3e5c47
stddev:  158.04 PSNR: 52.35 MAXDIFF:65534 bytes:   687800/   687800
avconv version v13_dev0-1599-g9bf9358b6, Copyright (c) 2000-2018 the Libav developers
  built on Nov  7 2018 17:01:22 with clang version 5.0.1 (tags/RELEASE_501/final)
Guessed Channel Layout for Input Stream #0.0 : mono
Input #0, wav, from '/home/mik/src/fate/x86_32-netbsd-clang-no-inline-asm/build/tests/data/asynth-2626-1.wav':
  Duration: 00:00:06.00, bitrate: 42 kb/s
    Stream #0:0: Audio: pcm_s16le [[1][0][0][0] / 0x0001]
      2626 Hz, 1 channels, s16, 42 kb/s
Codec AVOption threads () specified for input file #0 (/home/mik/src/fate/x86_32-netbsd-clang-no-inline-asm/build/tests/data/asynth-2626-1.wav) has not been used for any stream. The most likely reason is either wrong type (e.g. a video option with no video streams) or that it is a private option of some decoder which was not actually used for any stream.
Codec AVOption thread_type (select multithreading type) specified for input file #0 (/home/mik/src/fate/x86_32-netbsd-clang-no-inline-asm/build/tests/data/asynth-2626-1.wav) has not been used for any stream. The most likely reason is either wrong type (e.g. a video option with no video streams) or that it is a private option of some decoder which was not actually used for any stream.
Stream mapping:
  Stream #0:0 -> #0:0 (pcm_s16le (native) -> pcm_s32le (native))
Press ctrl-c to stop encoding
Output #0, s32le, to 'pipe:':
  Metadata:
    encoder         : Lavf58.2.0
    Stream #0:0: Audio: pcm_s32le
      44100 Hz, mono, s32, 1411 kb/s
    Metadata:
      encoder         : Lavc58.12.0 pcm_s32le
size=     672kB time=3.90 bitrate=1412.2kbits/s    
video:0kB audio:672kB other streams:0kB global headers:0kB muxing overhead: 0.000000%
diffstderrlavr-resample-s32p-2626-480001v12_dev0-1936-gc3e5c47
stddev:  107.12 PSNR: 55.73 MAXDIFF:65535 bytes:   748628/   748628
avconv version v13_dev0-1599-g9bf9358b6, Copyright (c) 2000-2018 the Libav developers
  built on Nov  7 2018 17:01:22 with clang version 5.0.1 (tags/RELEASE_501/final)
Guessed Channel Layout for Input Stream #0.0 : mono
Input #0, wav, from '/home/mik/src/fate/x86_32-netbsd-clang-no-inline-asm/build/tests/data/asynth-2626-1.wav':
  Duration: 00:00:06.00, bitrate: 42 kb/s
    Stream #0:0: Audio: pcm_s16le [[1][0][0][0] / 0x0001]
      2626 Hz, 1 channels, s16, 42 kb/s
Codec AVOption threads () specified for input file #0 (/home/mik/src/fate/x86_32-netbsd-clang-no-inline-asm/build/tests/data/asynth-2626-1.wav) has not been used for any stream. The most likely reason is either wrong type (e.g. a video option with no video streams) or that it is a private option of some decoder which was not actually used for any stream.
Codec AVOption thread_type (select multithreading type) specified for input file #0 (/home/mik/src/fate/x86_32-netbsd-clang-no-inline-asm/build/tests/data/asynth-2626-1.wav) has not been used for any stream. The most likely reason is either wrong type (e.g. a video option with no video streams) or that it is a private option of some decoder which was not actually used for any stream.
Stream mapping:
  Stream #0:0 -> #0:0 (pcm_s16le (native) -> pcm_s32le (native))
Press ctrl-c to stop encoding
Output #0, s32le, to 'pipe:':
  Metadata:
    encoder         : Lavf58.2.0
    Stream #0:0: Audio: pcm_s32le
      48000 Hz, mono, s32, 1536 kb/s
    Metadata:
      encoder         : Lavc58.12.0 pcm_s32le
size=     731kB time=3.90 bitrate=1537.1kbits/s    
video:0kB audio:731kB other streams:0kB global headers:0kB muxing overhead: 0.000000%
diffstderrlavr-resample-s32p-2626-80001v12_dev0-1936-gc3e5c47
stddev:  262.38 PSNR: 47.95 MAXDIFF:65535 bytes:   124772/   124772
avconv version v13_dev0-1599-g9bf9358b6, Copyright (c) 2000-2018 the Libav developers
  built on Nov  7 2018 17:01:22 with clang version 5.0.1 (tags/RELEASE_501/final)
Guessed Channel Layout for Input Stream #0.0 : mono
Input #0, wav, from '/home/mik/src/fate/x86_32-netbsd-clang-no-inline-asm/build/tests/data/asynth-2626-1.wav':
  Duration: 00:00:06.00, bitrate: 42 kb/s
    Stream #0:0: Audio: pcm_s16le [[1][0][0][0] / 0x0001]
      2626 Hz, 1 channels, s16, 42 kb/s
Codec AVOption threads () specified for input file #0 (/home/mik/src/fate/x86_32-netbsd-clang-no-inline-asm/build/tests/data/asynth-2626-1.wav) has not been used for any stream. The most likely reason is either wrong type (e.g. a video option with no video streams) or that it is a private option of some decoder which was not actually used for any stream.
Codec AVOption thread_type (select multithreading type) specified for input file #0 (/home/mik/src/fate/x86_32-netbsd-clang-no-inline-asm/build/tests/data/asynth-2626-1.wav) has not been used for any stream. The most likely reason is either wrong type (e.g. a video option with no video streams) or that it is a private option of some decoder which was not actually used for any stream.
Stream mapping:
  Stream #0:0 -> #0:0 (pcm_s16le (native) -> pcm_s32le (native))
Press ctrl-c to stop encoding
Output #0, s32le, to 'pipe:':
  Metadata:
    encoder         : Lavf58.2.0
    Stream #0:0: Audio: pcm_s32le
      8000 Hz, mono, s32, 256 kb/s
    Metadata:
      encoder         : Lavc58.12.0 pcm_s32le
size=     122kB time=3.90 bitrate= 256.2kbits/s    
video:0kB audio:122kB other streams:0kB global headers:0kB muxing overhead: 0.000000%
diffstderrlavr-resample-s32p-2626-960001v12_dev0-1936-gc3e5c47
stddev:  131.19 PSNR: 53.97 MAXDIFF:65535 bytes:  1497252/  1497252
avconv version v13_dev0-1599-g9bf9358b6, Copyright (c) 2000-2018 the Libav developers
  built on Nov  7 2018 17:01:22 with clang version 5.0.1 (tags/RELEASE_501/final)
Guessed Channel Layout for Input Stream #0.0 : mono
Input #0, wav, from '/home/mik/src/fate/x86_32-netbsd-clang-no-inline-asm/build/tests/data/asynth-2626-1.wav':
  Duration: 00:00:06.00, bitrate: 42 kb/s
    Stream #0:0: Audio: pcm_s16le [[1][0][0][0] / 0x0001]
      2626 Hz, 1 channels, s16, 42 kb/s
Codec AVOption threads () specified for input file #0 (/home/mik/src/fate/x86_32-netbsd-clang-no-inline-asm/build/tests/data/asynth-2626-1.wav) has not been used for any stream. The most likely reason is either wrong type (e.g. a video option with no video streams) or that it is a private option of some decoder which was not actually used for any stream.
Codec AVOption thread_type (select multithreading type) specified for input file #0 (/home/mik/src/fate/x86_32-netbsd-clang-no-inline-asm/build/tests/data/asynth-2626-1.wav) has not been used for any stream. The most likely reason is either wrong type (e.g. a video option with no video streams) or that it is a private option of some decoder which was not actually used for any stream.
Stream mapping:
  Stream #0:0 -> #0:0 (pcm_s16le (native) -> pcm_s32le (native))
Press ctrl-c to stop encoding
Output #0, s32le, to 'pipe:':
  Metadata:
    encoder         : Lavf58.2.0
    Stream #0:0: Audio: pcm_s32le
      96000 Hz, mono, s32, 3072 kb/s
    Metadata:
      encoder         : Lavc58.12.0 pcm_s32le
size=    1462kB time=3.90 bitrate=3074.1kbits/s    
video:0kB audio:1462kB other streams:0kB global headers:0kB muxing overhead: 0.000000%
diffstderrlavr-resample-s32p-44100-26261v12_dev0-1936-gc3e5c47
stddev: 2652.14 PSNR: 27.86 MAXDIFF:65504 bytes:     2440/     2440
avconv version v13_dev0-1599-g9bf9358b6, Copyright (c) 2000-2018 the Libav developers
  built on Nov  7 2018 17:01:22 with clang version 5.0.1 (tags/RELEASE_501/final)
Guessed Channel Layout for Input Stream #0.0 : mono
Input #0, wav, from '/home/mik/src/fate/x86_32-netbsd-clang-no-inline-asm/build/tests/data/asynth-44100-1.wav':
  Duration: 00:00:06.00, bitrate: 705 kb/s
    Stream #0:0: Audio: pcm_s16le [[1][0][0][0] / 0x0001]
      44100 Hz, 1 channels, s16, 705 kb/s
Codec AVOption threads () specified for input file #0 (/home/mik/src/fate/x86_32-netbsd-clang-no-inline-asm/build/tests/data/asynth-44100-1.wav) has not been used for any stream. The most likely reason is either wrong type (e.g. a video option with no video streams) or that it is a private option of some decoder which was not actually used for any stream.
Codec AVOption thread_type (select multithreading type) specified for input file #0 (/home/mik/src/fate/x86_32-netbsd-clang-no-inline-asm/build/tests/data/asynth-44100-1.wav) has not been used for any stream. The most likely reason is either wrong type (e.g. a video option with no video streams) or that it is a private option of some decoder which was not actually used for any stream.
Stream mapping:
  Stream #0:0 -> #0:0 (pcm_s16le (native) -> pcm_s32le (native))
Press ctrl-c to stop encoding
Output #0, s32le, to 'pipe:':
  Metadata:
    encoder         : Lavf58.2.0
    Stream #0:0: Audio: pcm_s32le
      2626 Hz, mono, s32, 84 kb/s
    Metadata:
      encoder         : Lavc58.12.0 pcm_s32le
size=       2kB time=0.23 bitrate=  85.4kbits/s    
video:0kB audio:2kB other streams:0kB global headers:0kB muxing overhead: 0.000000%
diffstderrlavr-resample-s32p-44100-80001v12_dev0-1936-gc3e5c47
stddev:    2.14 PSNR: 89.69 MAXDIFF:   10 bytes:     7432/     7432
avconv version v13_dev0-1599-g9bf9358b6, Copyright (c) 2000-2018 the Libav developers
  built on Nov  7 2018 17:01:22 with clang version 5.0.1 (tags/RELEASE_501/final)
Guessed Channel Layout for Input Stream #0.0 : mono
Input #0, wav, from '/home/mik/src/fate/x86_32-netbsd-clang-no-inline-asm/build/tests/data/asynth-44100-1.wav':
  Duration: 00:00:06.00, bitrate: 705 kb/s
    Stream #0:0: Audio: pcm_s16le [[1][0][0][0] / 0x0001]
      44100 Hz, 1 channels, s16, 705 kb/s
Codec AVOption threads () specified for input file #0 (/home/mik/src/fate/x86_32-netbsd-clang-no-inline-asm/build/tests/data/asynth-44100-1.wav) has not been used for any stream. The most likely reason is either wrong type (e.g. a video option with no video streams) or that it is a private option of some decoder which was not actually used for any stream.
Codec AVOption thread_type (select multithreading type) specified for input file #0 (/home/mik/src/fate/x86_32-netbsd-clang-no-inline-asm/build/tests/data/asynth-44100-1.wav) has not been used for any stream. The most likely reason is either wrong type (e.g. a video option with no video streams) or that it is a private option of some decoder which was not actually used for any stream.
Stream mapping:
  Stream #0:0 -> #0:0 (pcm_s16le (native) -> pcm_s32le (native))
Press ctrl-c to stop encoding
Output #0, s32le, to 'pipe:':
  Metadata:
    encoder         : Lavf58.2.0
    Stream #0:0: Audio: pcm_s32le
      8000 Hz, mono, s32, 256 kb/s
    Metadata:
      encoder         : Lavc58.12.0 pcm_s32le
size=       7kB time=0.23 bitrate= 257.4kbits/s    
video:0kB audio:7kB other streams:0kB global headers:0kB muxing overhead: 0.000000%
diffstderrlavr-resample-s32p-48000-26261v12_dev0-1936-gc3e5c47
stddev:   20.25 PSNR: 70.20 MAXDIFF:   50 bytes:     2244/     2244
avconv version v13_dev0-1599-g9bf9358b6, Copyright (c) 2000-2018 the Libav developers
  built on Nov  7 2018 17:01:22 with clang version 5.0.1 (tags/RELEASE_501/final)
Guessed Channel Layout for Input Stream #0.0 : mono
Input #0, wav, from '/home/mik/src/fate/x86_32-netbsd-clang-no-inline-asm/build/tests/data/asynth-48000-1.wav':
  Duration: 00:00:06.00, bitrate: 768 kb/s
    Stream #0:0: Audio: pcm_s16le [[1][0][0][0] / 0x0001]
      48000 Hz, 1 channels, s16, 768 kb/s
Codec AVOption threads () specified for input file #0 (/home/mik/src/fate/x86_32-netbsd-clang-no-inline-asm/build/tests/data/asynth-48000-1.wav) has not been used for any stream. The most likely reason is either wrong type (e.g. a video option with no video streams) or that it is a private option of some decoder which was not actually used for any stream.
Codec AVOption thread_type (select multithreading type) specified for input file #0 (/home/mik/src/fate/x86_32-netbsd-clang-no-inline-asm/build/tests/data/asynth-48000-1.wav) has not been used for any stream. The most likely reason is either wrong type (e.g. a video option with no video streams) or that it is a private option of some decoder which was not actually used for any stream.
Stream mapping:
  Stream #0:0 -> #0:0 (pcm_s16le (native) -> pcm_s32le (native))
Press ctrl-c to stop encoding
Output #0, s32le, to 'pipe:':
  Metadata:
    encoder         : Lavf58.2.0
    Stream #0:0: Audio: pcm_s32le
      2626 Hz, mono, s32, 84 kb/s
    Metadata:
      encoder         : Lavc58.12.0 pcm_s32le
size=       2kB time=0.21 bitrate=  85.6kbits/s    
video:0kB audio:2kB other streams:0kB global headers:0kB muxing overhead: 0.000000%
diffstderrlavr-resample-s32p-8000-26261v12_dev0-1936-gc3e5c47
stddev:    3.34 PSNR: 85.85 MAXDIFF:   12 bytes:    13448/    13448
avconv version v13_dev0-1599-g9bf9358b6, Copyright (c) 2000-2018 the Libav developers
  built on Nov  7 2018 17:01:22 with clang version 5.0.1 (tags/RELEASE_501/final)
[wav @ 0xfbd15800] max_analyze_duration 5000000 reached
Guessed Channel Layout for Input Stream #0.0 : mono
Input #0, wav, from '/home/mik/src/fate/x86_32-netbsd-clang-no-inline-asm/build/tests/data/asynth-8000-1.wav':
  Duration: 00:00:06.00, bitrate: 128 kb/s
    Stream #0:0: Audio: pcm_s16le [[1][0][0][0] / 0x0001]
      8000 Hz, 1 channels, s16, 128 kb/s
Codec AVOption threads () specified for input file #0 (/home/mik/src/fate/x86_32-netbsd-clang-no-inline-asm/build/tests/data/asynth-8000-1.wav) has not been used for any stream. The most likely reason is either wrong type (e.g. a video option with no video streams) or that it is a private option of some decoder which was not actually used for any stream.
Codec AVOption thread_type (select multithreading type) specified for input file #0 (/home/mik/src/fate/x86_32-netbsd-clang-no-inline-asm/build/tests/data/asynth-8000-1.wav) has not been used for any stream. The most likely reason is either wrong type (e.g. a video option with no video streams) or that it is a private option of some decoder which was not actually used for any stream.
Stream mapping:
  Stream #0:0 -> #0:0 (pcm_s16le (native) -> pcm_s32le (native))
Press ctrl-c to stop encoding
Output #0, s32le, to 'pipe:':
  Metadata:
    encoder         : Lavf58.2.0
    Stream #0:0: Audio: pcm_s32le
      2626 Hz, mono, s32, 84 kb/s
    Metadata:
      encoder         : Lavc58.12.0 pcm_s32le
size=      13kB time=1.28 bitrate=  84.3kbits/s    
video:0kB audio:13kB other streams:0kB global headers:0kB muxing overhead: 0.000000%
diffstderrlavr-resample-s32p-96000-26261v12_dev0-1936-gc3e5c47
stddev:   41.08 PSNR: 64.06 MAXDIFF:  108 bytes:     1124/     1124
avconv version v13_dev0-1599-g9bf9358b6, Copyright (c) 2000-2018 the Libav developers
  built on Nov  7 2018 17:01:22 with clang version 5.0.1 (tags/RELEASE_501/final)
Guessed Channel Layout for Input Stream #0.0 : mono
Input #0, wav, from '/home/mik/src/fate/x86_32-netbsd-clang-no-inline-asm/build/tests/data/asynth-96000-1.wav':
  Duration: 00:00:06.00, bitrate: 1536 kb/s
    Stream #0:0: Audio: pcm_s16le [[1][0][0][0] / 0x0001]
      96000 Hz, 1 channels, s16, 1536 kb/s
Codec AVOption threads () specified for input file #0 (/home/mik/src/fate/x86_32-netbsd-clang-no-inline-asm/build/tests/data/asynth-96000-1.wav) has not been used for any stream. The most likely reason is either wrong type (e.g. a video option with no video streams) or that it is a private option of some decoder which was not actually used for any stream.
Codec AVOption thread_type (select multithreading type) specified for input file #0 (/home/mik/src/fate/x86_32-netbsd-clang-no-inline-asm/build/tests/data/asynth-96000-1.wav) has not been used for any stream. The most likely reason is either wrong type (e.g. a video option with no video streams) or that it is a private option of some decoder which was not actually used for any stream.
Stream mapping:
  Stream #0:0 -> #0:0 (pcm_s16le (native) -> pcm_s32le (native))
Press ctrl-c to stop encoding
Output #0, s32le, to 'pipe:':
  Metadata:
    encoder         : Lavf58.2.0
    Stream #0:0: Audio: pcm_s32le
      2626 Hz, mono, s32, 84 kb/s
    Metadata:
      encoder         : Lavc58.12.0 pcm_s32le
size=       1kB time=0.10 bitrate=  87.1kbits/s    
video:0kB audio:1kB other streams:0kB global headers:0kB muxing overhead: 0.000000%
diffstderrlavr-resample-s32p-96000-80001v12_dev0-1936-gc3e5c47
stddev:    3.78 PSNR: 84.77 MAXDIFF:   10 bytes:     3416/     3416
avconv version v13_dev0-1599-g9bf9358b6, Copyright (c) 2000-2018 the Libav developers
  built on Nov  7 2018 17:01:22 with clang version 5.0.1 (tags/RELEASE_501/final)
Guessed Channel Layout for Input Stream #0.0 : mono
Input #0, wav, from '/home/mik/src/fate/x86_32-netbsd-clang-no-inline-asm/build/tests/data/asynth-96000-1.wav':
  Duration: 00:00:06.00, bitrate: 1536 kb/s
    Stream #0:0: Audio: pcm_s16le [[1][0][0][0] / 0x0001]
      96000 Hz, 1 channels, s16, 1536 kb/s
Codec AVOption threads () specified for input file #0 (/home/mik/src/fate/x86_32-netbsd-clang-no-inline-asm/build/tests/data/asynth-96000-1.wav) has not been used for any stream. The most likely reason is either wrong type (e.g. a video option with no video streams) or that it is a private option of some decoder which was not actually used for any stream.
Codec AVOption thread_type (select multithreading type) specified for input file #0 (/home/mik/src/fate/x86_32-netbsd-clang-no-inline-asm/build/tests/data/asynth-96000-1.wav) has not been used for any stream. The most likely reason is either wrong type (e.g. a video option with no video streams) or that it is a private option of some decoder which was not actually used for any stream.
Stream mapping:
  Stream #0:0 -> #0:0 (pcm_s16le (native) -> pcm_s32le (native))
Press ctrl-c to stop encoding
Output #0, s32le, to 'pipe:':
  Metadata:
    encoder         : Lavf58.2.0
    Stream #0:0: Audio: pcm_s32le
      8000 Hz, mono, s32, 256 kb/s
    Metadata:
      encoder         : Lavc58.12.0 pcm_s32le
size=       3kB time=0.11 bitrate= 259.0kbits/s    
video:0kB audio:3kB other streams:0kB global headers:0kB muxing overhead: 0.000000%