x86_32-linux-gcc-valgrind v13_dev0-1128-g3daaa44

Architecturex86
Variantx86_32
CPUgeneric
OSlinux
Ownerkostylev
Compilergcc 4.7.4 (GCC)
Configuration--prefix=/home/mik/src/fate/x86_32-linux-gcc-valgrind/install --samples=/home/mik/src/fate/fate-suite --enable-gpl --cc='gcc-4.7 -m32' --target-exec='valgrind --leak-check=full --error-exitcode=1 --malloc-fill=0x4a --undef-value-errors=no' --extra-cflags=-O3 --disable-optimizations
Commentvalgrind --undef-value-errors=no
Revisionv13_dev0-1128-g3daaa44
Date2017-05-17 03:06:56
Status2108 / 2109
Warnings64
Logscompile configure test
1 failed testsStatusLast good rev
diffstderrsvq3-21n / a
--- /home/mik/src/fate/src/tests/ref/fate/svq3-2	2017-02-27 11:03:03.511002640 +0100
+++ tests/data/fate/svq3-2	2017-05-17 04:53:26.931958917 +0200
@@ -1,5 +1,5 @@
 #tb 0: 1/19200
-0,     -20000,     -20000,        0,   185280, 0x061c0d85
+0,     -20000,     -20000,        0,   185280, 0xc0bd953f
 0,     -19200,     -19200,        0,   185280, 0x427ef9a7
 0,     -18400,     -18400,        0,   185280, 0x64c74d6a
 0,     -17600,     -17600,        0,   185280, 0x5bfd0e5b
==6923== Memcheck, a memory error detector
==6923== Copyright (C) 2002-2015, and GNU GPL'd, by Julian Seward et al.
==6923== Using Valgrind-3.12.0 and LibVEX; rerun with -h for copyright info
==6923== Command: /home/mik/src/fate/x86_32-linux-gcc-valgrind/build/avconv -nostats -cpuflags all -flags +bitexact -hwaccel none -threads 1 -thread_type frame+slice -i /home/mik/src/fate/fate-suite/svq3/svq3_decoding_regression.mov -an -f framecrc -
==6923== 
avconv version v13_dev0-1128-g3daaa44, Copyright (c) 2000-2017 the Libav developers
  built on May 17 2017 04:38:27 with gcc 4.7.4 (GCC)
Input #0, mov,mp4,m4a,3gp,3g2,mj2, from '/home/mik/src/fate/fate-suite/svq3/svq3_decoding_regression.mov':
  Metadata:
    major_brand     : qt  
    minor_version   : 512
    compatible_brands: qt  
    artist          : Mark Strube - SupaDupaStrube@msn.com
    artist-eng      : Mark Strube - SupaDupaStrube@msn.com
    title           : Movie-List Presents: The Abyss
    title-eng       : Movie-List Presents: The Abyss
    encoder         : Lavf57.66.101
    copyright       : © 1989 Twentieth Century Fox
    copyright-eng   : © 1989 Twentieth Century Fox
  Duration: 00:00:00.83, bitrate: 2376 kb/s
    Stream #0:0(eng): Video: svq3 [SVQ3 / 0x33515653]
      yuvj420p, pc, 480x257, 2366 kb/s
      24 fps, 19200 tbn (default)
    Metadata:
      handler_name    : DataHandler
      encoder         : Sorenson Video 3
Stream mapping:
  Stream #0:0 -> #0:0 (svq3 (native) -> rawvideo (native))
Press ctrl-c to stop encoding
[svq3 @ 0x4295ee0] Missing reference frame.
==6923==    at 0x88C4E1D: VALGRIND_PRINTF_BACKTRACE.constprop.1 (valgrind.h:3771)
==6923==    by 0x88C5113: av_log_default_callback (log.c:176)
==6923==    by 0x88C5320: av_vlog (log.c:197)
==6923==    by 0x88C5320: av_log (log.c:191)
==6923==    by 0x84F6BD2: svq3_decode_frame (svq3.c:1425)
==6923==    by 0x82435D4: decode_simple_internal (decode.c:335)
==6923==    by 0x82435D4: decode_simple_receive_frame (decode.c:386)
==6923==    by 0x82439B4: decode_receive_frame_internal (decode.c:404)
==6923==    by 0x82439B4: avcodec_send_packet (decode.c:441)
==6923==    by 0x80B0A99: decode (avconv.c:1309)
==6923==    by 0x80B0A99: decode_video (avconv.c:1409)
==6923==    by 0x809B41D: process_input_packet (avconv.c:1528)
==6923==    by 0x809B41D: process_input (avconv.c:2722)
==6923==    by 0x809B41D: transcode (avconv.c:2764)
==6923==    by 0x809B41D: main (avconv.c:2938)
Output #0, framecrc, to 'pipe:':
  Metadata:
    major_brand     : qt  
    minor_version   : 512
    compatible_brands: qt  
    artist          : Mark Strube - SupaDupaStrube@msn.com
    artist-eng      : Mark Strube - SupaDupaStrube@msn.com
    title           : Movie-List Presents: The Abyss
    title-eng       : Movie-List Presents: The Abyss
    copyright-eng   : © 1989 Twentieth Century Fox
    copyright       : © 1989 Twentieth Century Fox
    encoder         : Lavf58.0.0
    Stream #0:0(eng): Video: rawvideo [I420 / 0x30323449]
      yuvj420p, 480x257, q=2-31, 200 kb/s
      19200 tbn (default)
    Metadata:
      handler_name    : DataHandler
      encoder         : Sorenson Video 3
*** dropping frame 19 from stream 0 at ts -6400
frame=   19 fps=  0 q=-0.0 Lsize=       1kB time=10000000000.00 bitrate=   0.0kbits/s drop=1    
video:3438kB audio:0kB other streams:0kB global headers:0kB muxing overhead: unknown
==6923== 
==6923== HEAP SUMMARY:
==6923==     in use at exit: 0 bytes in 0 blocks
==6923==   total heap usage: 1,542 allocs, 1,542 frees, 8,607,802 bytes allocated
==6923== 
==6923== All heap blocks were freed -- no leaks are possible
==6923== 
==6923== For counts of detected and suppressed errors, rerun with: -v
==6923== ERROR SUMMARY: 0 errors from 0 contexts (suppressed: 0 from 0)