x86_32-linux-clang v13_dev0-1417-g3ff8fbb

Architecturex86
Variantx86_32
CPUgeneric
OSlinux
Ownerkostylev
Compilerclang version 6.0.0 (trunk 319646)
Configuration--prefix=/home/mkostylev/src/fate/x86_32-linux-clang/install --samples=/home/mkostylev/src/fate/fate-suite --enable-gpl --cc='ccache clang -m32' --disable-debug
Comment
Revisionv13_dev0-1417-g3ff8fbb
Date2017-12-07 00:03:31
Status2069 / 2107
Warnings66
Logscompile configure test
38 failed testsStatusLast good rev
diffstderrcheckasm-vp9dspSEGVv13_dev0-1415-ge171022
No diff output recorded
checkasm: using random seed 1545605596
Segmentation fault (core dumped)
diffstderrvp9-00-quantizer-071v13_dev0-1415-ge171022
--- /home/mkostylev/src/fate/src/tests/ref/fate/vp9-00-quantizer-07	2017-11-28 18:24:41.263849962 +0300
+++ tests/data/fate/vp9-00-quantizer-07	2017-12-07 03:03:20.523867268 +0300
@@ -1,3 +1,3 @@
 #tb 0: 1/1000
 0,          0,          0,        0,   152064, 6f5122064bead9d9882bec2698a6ed9c
-0,         33,         33,        0,   152064, 50dae67d2f57a76eece210dee8b6df9e
+0,         33,         33,        0,   152064, 8ce4f2e527846410cda9df4dd20529ad
avconv version v13_dev0-1417-g3ff8fbb, Copyright (c) 2000-2017 the Libav developers
  built on Dec  7 2017 03:02:59 with clang version 6.0.0 (trunk 319646)
Input #0, matroska,webm, from '/home/mkostylev/src/fate/fate-suite/vp9-test-vectors/vp90-2-00-quantizer-07.webm':
  Duration: 00:00:00.06, start: 0.000000, bitrate: N/A
    Stream #0:0(eng): Video: vp9
      yuv420p, 352x288, PAR 1:1 DAR 11:9
      29.97 fps, 1k tbn (default)
    Side data:
      stereo3d: 2D
Stream mapping:
  Stream #0:0 -> #0:0 (vp9 (native) -> rawvideo (native))
Press ctrl-c to stop encoding
Output #0, framemd5, to 'pipe:':
  Metadata:
    encoder         : Lavf58.1.0
    Stream #0:0(eng): Video: rawvideo [I420 / 0x30323449]
      yuv420p, 352x288 [PAR 1:1 DAR 11:9], q=2-31, 200 kb/s, PAR 1:1 DAR 11:9
      1k tbn (default)
    Metadata:
      encoder         : Lavc58.5.0 rawvideo
frame=    2 fps=  0 q=-0.0 Lsize=       0kB time=0.03 bitrate=  42.2kbits/s    
video:297kB audio:0kB other streams:0kB global headers:0kB muxing overhead: unknown
diffstderrvp9-00-quantizer-101v13_dev0-1415-ge171022
--- /home/mkostylev/src/fate/src/tests/ref/fate/vp9-00-quantizer-10	2017-11-28 18:24:41.263849962 +0300
+++ tests/data/fate/vp9-00-quantizer-10	2017-12-07 03:03:20.535867640 +0300
@@ -1,3 +1,3 @@
 #tb 0: 1/1000
 0,          0,          0,        0,   152064, 20dda6231f9801c9c237c6d09d9939b6
-0,         33,         33,        0,   152064, 23c91e93807fb9a4ed5bd5bdd449d99f
+0,         33,         33,        0,   152064, efa8c32d88a8bbd771c57f46232309c2
avconv version v13_dev0-1417-g3ff8fbb, Copyright (c) 2000-2017 the Libav developers
  built on Dec  7 2017 03:02:59 with clang version 6.0.0 (trunk 319646)
Input #0, matroska,webm, from '/home/mkostylev/src/fate/fate-suite/vp9-test-vectors/vp90-2-00-quantizer-10.webm':
  Duration: 00:00:00.06, start: 0.000000, bitrate: N/A
    Stream #0:0(eng): Video: vp9
      yuv420p, 352x288, PAR 1:1 DAR 11:9
      29.97 fps, 1k tbn (default)
    Side data:
      stereo3d: 2D
Stream mapping:
  Stream #0:0 -> #0:0 (vp9 (native) -> rawvideo (native))
Press ctrl-c to stop encoding
Output #0, framemd5, to 'pipe:':
  Metadata:
    encoder         : Lavf58.1.0
    Stream #0:0(eng): Video: rawvideo [I420 / 0x30323449]
      yuv420p, 352x288 [PAR 1:1 DAR 11:9], q=2-31, 200 kb/s, PAR 1:1 DAR 11:9
      1k tbn (default)
    Metadata:
      encoder         : Lavc58.5.0 rawvideo
frame=    2 fps=  0 q=-0.0 Lsize=       0kB time=0.03 bitrate=  42.2kbits/s    
video:297kB audio:0kB other streams:0kB global headers:0kB muxing overhead: unknown
diffstderrvp9-00-quantizer-141v13_dev0-1415-ge171022
--- /home/mkostylev/src/fate/src/tests/ref/fate/vp9-00-quantizer-14	2017-11-28 18:24:41.263849962 +0300
+++ tests/data/fate/vp9-00-quantizer-14	2017-12-07 03:03:20.551868138 +0300
@@ -1,3 +1,3 @@
 #tb 0: 1/1000
 0,          0,          0,        0,   152064, 57e9e333c641fa952f7485b788df225a
-0,         33,         33,        0,   152064, 551f0cea83dcdf4540c3983736757874
+0,         33,         33,        0,   152064, 77a1a1913ce6da651900c781630005d7
avconv version v13_dev0-1417-g3ff8fbb, Copyright (c) 2000-2017 the Libav developers
  built on Dec  7 2017 03:02:59 with clang version 6.0.0 (trunk 319646)
Input #0, matroska,webm, from '/home/mkostylev/src/fate/fate-suite/vp9-test-vectors/vp90-2-00-quantizer-14.webm':
  Duration: 00:00:00.06, start: 0.000000, bitrate: N/A
    Stream #0:0(eng): Video: vp9
      yuv420p, 352x288, PAR 1:1 DAR 11:9
      29.97 fps, 1k tbn (default)
    Side data:
      stereo3d: 2D
Stream mapping:
  Stream #0:0 -> #0:0 (vp9 (native) -> rawvideo (native))
Press ctrl-c to stop encoding
Output #0, framemd5, to 'pipe:':
  Metadata:
    encoder         : Lavf58.1.0
    Stream #0:0(eng): Video: rawvideo [I420 / 0x30323449]
      yuv420p, 352x288 [PAR 1:1 DAR 11:9], q=2-31, 200 kb/s, PAR 1:1 DAR 11:9
      1k tbn (default)
    Metadata:
      encoder         : Lavc58.5.0 rawvideo
frame=    2 fps=  0 q=-0.0 Lsize=       0kB time=0.03 bitrate=  42.2kbits/s    
video:297kB audio:0kB other streams:0kB global headers:0kB muxing overhead: unknown
diffstderrvp9-00-quantizer-161v13_dev0-1415-ge171022
--- /home/mkostylev/src/fate/src/tests/ref/fate/vp9-00-quantizer-16	2017-11-28 18:24:41.263849962 +0300
+++ tests/data/fate/vp9-00-quantizer-16	2017-12-07 03:03:20.555868262 +0300
@@ -1,3 +1,3 @@
 #tb 0: 1/1000
 0,          0,          0,        0,   152064, 6cc2089e9a3d352fe10b59ccd935c677
-0,         33,         33,        0,   152064, d165bf7b9cb901e121a65038758d8613
+0,         33,         33,        0,   152064, abd53bf9d855c617aed2a5a75e98e701
avconv version v13_dev0-1417-g3ff8fbb, Copyright (c) 2000-2017 the Libav developers
  built on Dec  7 2017 03:02:59 with clang version 6.0.0 (trunk 319646)
Input #0, matroska,webm, from '/home/mkostylev/src/fate/fate-suite/vp9-test-vectors/vp90-2-00-quantizer-16.webm':
  Duration: 00:00:00.06, start: 0.000000, bitrate: N/A
    Stream #0:0(eng): Video: vp9
      yuv420p, 352x288, PAR 1:1 DAR 11:9
      29.97 fps, 1k tbn (default)
    Side data:
      stereo3d: 2D
Stream mapping:
  Stream #0:0 -> #0:0 (vp9 (native) -> rawvideo (native))
Press ctrl-c to stop encoding
Output #0, framemd5, to 'pipe:':
  Metadata:
    encoder         : Lavf58.1.0
    Stream #0:0(eng): Video: rawvideo [I420 / 0x30323449]
      yuv420p, 352x288 [PAR 1:1 DAR 11:9], q=2-31, 200 kb/s, PAR 1:1 DAR 11:9
      1k tbn (default)
    Metadata:
      encoder         : Lavc58.5.0 rawvideo
frame=    2 fps=  0 q=-0.0 Lsize=       0kB time=0.03 bitrate=  42.2kbits/s    
video:297kB audio:0kB other streams:0kB global headers:0kB muxing overhead: unknown
diffstderrvp9-00-quantizer-201v13_dev0-1415-ge171022
--- /home/mkostylev/src/fate/src/tests/ref/fate/vp9-00-quantizer-20	2017-11-28 18:24:41.267850040 +0300
+++ tests/data/fate/vp9-00-quantizer-20	2017-12-07 03:03:20.571868759 +0300
@@ -1,3 +1,3 @@
 #tb 0: 1/1000
 0,          0,          0,        0,   152064, 7786eb9944dba0553e129133523a98c1
-0,         33,         33,        0,   152064, 206d888f8453427f10a40aa8bf5f6df0
+0,         33,         33,        0,   152064, 0a1e7529aac3dfb15799f5f3778d7806
avconv version v13_dev0-1417-g3ff8fbb, Copyright (c) 2000-2017 the Libav developers
  built on Dec  7 2017 03:02:59 with clang version 6.0.0 (trunk 319646)
Input #0, matroska,webm, from '/home/mkostylev/src/fate/fate-suite/vp9-test-vectors/vp90-2-00-quantizer-20.webm':
  Duration: 00:00:00.06, start: 0.000000, bitrate: N/A
    Stream #0:0(eng): Video: vp9
      yuv420p, 352x288, PAR 1:1 DAR 11:9
      29.97 fps, 1k tbn (default)
    Side data:
      stereo3d: 2D
Stream mapping:
  Stream #0:0 -> #0:0 (vp9 (native) -> rawvideo (native))
Press ctrl-c to stop encoding
Output #0, framemd5, to 'pipe:':
  Metadata:
    encoder         : Lavf58.1.0
    Stream #0:0(eng): Video: rawvideo [I420 / 0x30323449]
      yuv420p, 352x288 [PAR 1:1 DAR 11:9], q=2-31, 200 kb/s, PAR 1:1 DAR 11:9
      1k tbn (default)
    Metadata:
      encoder         : Lavc58.5.0 rawvideo
frame=    2 fps=  0 q=-0.0 Lsize=       0kB time=0.03 bitrate=  42.2kbits/s    
video:297kB audio:0kB other streams:0kB global headers:0kB muxing overhead: unknown
diffstderrvp9-01-sharpness-11v13_dev0-1415-ge171022
--- /home/mkostylev/src/fate/src/tests/ref/fate/vp9-01-sharpness-1	2017-11-28 18:24:41.267850040 +0300
+++ tests/data/fate/vp9-01-sharpness-1	2017-12-07 03:03:20.691872488 +0300
@@ -1,7 +1,7 @@
 #tb 0: 1/1000
 0,          0,          0,        0,   152064, a2e5c820fd9733e18f9349fb658ca281
 0,         33,         33,        0,   152064, aa20a75be3a316193496706c9f760d08
-0,         66,         66,        0,   152064, 95567be97a64d3c9efe45f2524116a2e
+0,         66,         66,        0,   152064, b11dbb59a820fd224a58a73556b8ec54
 0,        100,        100,        0,   152064, 219e86cd6b3cca312856eead21776b1c
 0,        133,        133,        0,   152064, 4a67fd359ca362398e97c15eb018a2bb
 0,        166,        166,        0,   152064, 9916d4e359274d690827f0eb22547423
avconv version v13_dev0-1417-g3ff8fbb, Copyright (c) 2000-2017 the Libav developers
  built on Dec  7 2017 03:02:59 with clang version 6.0.0 (trunk 319646)
Input #0, matroska,webm, from '/home/mkostylev/src/fate/fate-suite/vp9-test-vectors/vp90-2-01-sharpness-1.webm':
  Duration: 00:00:00.33, start: 0.000000, bitrate: N/A
    Stream #0:0(eng): Video: vp9
      yuv420p, 352x288, PAR 1:1 DAR 11:9
      29.97 fps, 1k tbn (default)
    Side data:
      stereo3d: 2D
Stream mapping:
  Stream #0:0 -> #0:0 (vp9 (native) -> rawvideo (native))
Press ctrl-c to stop encoding
Output #0, framemd5, to 'pipe:':
  Metadata:
    encoder         : Lavf58.1.0
    Stream #0:0(eng): Video: rawvideo [I420 / 0x30323449]
      yuv420p, 352x288 [PAR 1:1 DAR 11:9], q=2-31, 200 kb/s, PAR 1:1 DAR 11:9
      1k tbn (default)
    Metadata:
      encoder         : Lavc58.5.0 rawvideo
frame=   10 fps=  0 q=-0.0 Lsize=       1kB time=0.30 bitrate=  21.7kbits/s    
video:1485kB audio:0kB other streams:0kB global headers:0kB muxing overhead: unknown
diffstderrvp9-01-sharpness-21v13_dev0-1415-ge171022
--- /home/mkostylev/src/fate/src/tests/ref/fate/vp9-01-sharpness-2	2017-11-28 18:24:41.267850040 +0300
+++ tests/data/fate/vp9-01-sharpness-2	2017-12-07 03:03:20.695872612 +0300
@@ -1,7 +1,7 @@
 #tb 0: 1/1000
 0,          0,          0,        0,   152064, a2e5c820fd9733e18f9349fb658ca281
 0,         33,         33,        0,   152064, cd94572239817ae7c9b07de739c3272b
-0,         66,         66,        0,   152064, 383cf752d457e122b5ff49d08960208e
+0,         66,         66,        0,   152064, ef81f43e91be92c231e3c9819e2a5c64
 0,        100,        100,        0,   152064, 1c0a6ec9cd3ce29b8b004e7526f1b07e
 0,        133,        133,        0,   152064, 91c42a8a108d67947cabfc2a5a80df66
 0,        166,        166,        0,   152064, 08c57fc1f3fec0305883315a66c714d1
avconv version v13_dev0-1417-g3ff8fbb, Copyright (c) 2000-2017 the Libav developers
  built on Dec  7 2017 03:02:59 with clang version 6.0.0 (trunk 319646)
Input #0, matroska,webm, from '/home/mkostylev/src/fate/fate-suite/vp9-test-vectors/vp90-2-01-sharpness-2.webm':
  Duration: 00:00:00.33, start: 0.000000, bitrate: N/A
    Stream #0:0(eng): Video: vp9
      yuv420p, 352x288, PAR 1:1 DAR 11:9
      29.97 fps, 1k tbn (default)
    Side data:
      stereo3d: 2D
Stream mapping:
  Stream #0:0 -> #0:0 (vp9 (native) -> rawvideo (native))
Press ctrl-c to stop encoding
Output #0, framemd5, to 'pipe:':
  Metadata:
    encoder         : Lavf58.1.0
    Stream #0:0(eng): Video: rawvideo [I420 / 0x30323449]
      yuv420p, 352x288 [PAR 1:1 DAR 11:9], q=2-31, 200 kb/s, PAR 1:1 DAR 11:9
      1k tbn (default)
    Metadata:
      encoder         : Lavc58.5.0 rawvideo
frame=   10 fps=  0 q=-0.0 Lsize=       1kB time=0.30 bitrate=  21.7kbits/s    
video:1485kB audio:0kB other streams:0kB global headers:0kB muxing overhead: unknown
diffstderrvp9-01-sharpness-31v13_dev0-1415-ge171022
--- /home/mkostylev/src/fate/src/tests/ref/fate/vp9-01-sharpness-3	2017-11-28 18:24:41.267850040 +0300
+++ tests/data/fate/vp9-01-sharpness-3	2017-12-07 03:03:20.695872612 +0300
@@ -1,7 +1,7 @@
 #tb 0: 1/1000
 0,          0,          0,        0,   152064, a2e5c820fd9733e18f9349fb658ca281
 0,         33,         33,        0,   152064, 0d487a146393a0b8b84b4be1b371b507
-0,         66,         66,        0,   152064, 68372e191eba620a431cfff226026ac3
+0,         66,         66,        0,   152064, cf3bcc817e42f46fd06a22e15802fb56
 0,        100,        100,        0,   152064, de7fd274460e36b983fe93acc208d72f
 0,        133,        133,        0,   152064, afbd36c61bab65b98ff9acf08e215721
 0,        166,        166,        0,   152064, e1e9fc2ab4e7a187a8d8d84aae48d6b9
avconv version v13_dev0-1417-g3ff8fbb, Copyright (c) 2000-2017 the Libav developers
  built on Dec  7 2017 03:02:59 with clang version 6.0.0 (trunk 319646)
Input #0, matroska,webm, from '/home/mkostylev/src/fate/fate-suite/vp9-test-vectors/vp90-2-01-sharpness-3.webm':
  Duration: 00:00:00.33, start: 0.000000, bitrate: N/A
    Stream #0:0(eng): Video: vp9
      yuv420p, 352x288, PAR 1:1 DAR 11:9
      29.97 fps, 1k tbn (default)
    Side data:
      stereo3d: 2D
Stream mapping:
  Stream #0:0 -> #0:0 (vp9 (native) -> rawvideo (native))
Press ctrl-c to stop encoding
Output #0, framemd5, to 'pipe:':
  Metadata:
    encoder         : Lavf58.1.0
    Stream #0:0(eng): Video: rawvideo [I420 / 0x30323449]
      yuv420p, 352x288 [PAR 1:1 DAR 11:9], q=2-31, 200 kb/s, PAR 1:1 DAR 11:9
      1k tbn (default)
    Metadata:
      encoder         : Lavc58.5.0 rawvideo
frame=   10 fps=  0 q=-0.0 Lsize=       1kB time=0.30 bitrate=  21.7kbits/s    
video:1485kB audio:0kB other streams:0kB global headers:0kB muxing overhead: unknown
diffstderrvp9-01-sharpness-41v13_dev0-1415-ge171022
--- /home/mkostylev/src/fate/src/tests/ref/fate/vp9-01-sharpness-4	2017-11-28 18:24:41.267850040 +0300
+++ tests/data/fate/vp9-01-sharpness-4	2017-12-07 03:03:20.703872861 +0300
@@ -1,11 +1,11 @@
 #tb 0: 1/1000
 0,          0,          0,        0,   152064, a2e5c820fd9733e18f9349fb658ca281
 0,         33,         33,        0,   152064, 8bad76c55b5149169d64ce6512521de6
-0,         66,         66,        0,   152064, c1d986e1f9bf46382e598ba289b9bd7c
+0,         66,         66,        0,   152064, 3e77c9fe7a82ea29b7fb8732e80a5d8d
 0,        100,        100,        0,   152064, 86c097ac6069c786023d3561dae68bac
 0,        133,        133,        0,   152064, 8c238a2831b8c7c49736b6de6ff76ed8
 0,        166,        166,        0,   152064, cb5a038ed0a74a317ee72dae93a7ee3e
 0,        200,        200,        0,   152064, f8fe330a257e3e4e4c39c1c12820a654
 0,        233,        233,        0,   152064, a73e2fcdcbb9334c0c123f8276a2c881
-0,        266,        266,        0,   152064, 24fccece8ee639e4d0e00e4060e1db0c
+0,        266,        266,        0,   152064, a54c606cee1ee6ad70b81584fdbf719f
 0,        300,        300,        0,   152064, 46d6e9aad69a39c718c5fd1e41e86e6e
avconv version v13_dev0-1417-g3ff8fbb, Copyright (c) 2000-2017 the Libav developers
  built on Dec  7 2017 03:02:59 with clang version 6.0.0 (trunk 319646)
Input #0, matroska,webm, from '/home/mkostylev/src/fate/fate-suite/vp9-test-vectors/vp90-2-01-sharpness-4.webm':
  Duration: 00:00:00.33, start: 0.000000, bitrate: N/A
    Stream #0:0(eng): Video: vp9
      yuv420p, 352x288, PAR 1:1 DAR 11:9
      29.97 fps, 1k tbn (default)
    Side data:
      stereo3d: 2D
Stream mapping:
  Stream #0:0 -> #0:0 (vp9 (native) -> rawvideo (native))
Press ctrl-c to stop encoding
Output #0, framemd5, to 'pipe:':
  Metadata:
    encoder         : Lavf58.1.0
    Stream #0:0(eng): Video: rawvideo [I420 / 0x30323449]
      yuv420p, 352x288 [PAR 1:1 DAR 11:9], q=2-31, 200 kb/s, PAR 1:1 DAR 11:9
      1k tbn (default)
    Metadata:
      encoder         : Lavc58.5.0 rawvideo
frame=   10 fps=  0 q=-0.0 Lsize=       1kB time=0.30 bitrate=  21.7kbits/s    
video:1485kB audio:0kB other streams:0kB global headers:0kB muxing overhead: unknown
diffstderrvp9-01-sharpness-51v13_dev0-1415-ge171022
--- /home/mkostylev/src/fate/src/tests/ref/fate/vp9-01-sharpness-5	2017-11-28 18:24:41.267850040 +0300
+++ tests/data/fate/vp9-01-sharpness-5	2017-12-07 03:03:20.699872737 +0300
@@ -1,7 +1,7 @@
 #tb 0: 1/1000
 0,          0,          0,        0,   152064, a2e5c820fd9733e18f9349fb658ca281
 0,         33,         33,        0,   152064, f1ce0a5d57a46c9ff1331804b7b03fdb
-0,         66,         66,        0,   152064, 0364a085b06bee6b980189cf5378eda9
+0,         66,         66,        0,   152064, ac10b315f0944457b37a92955ce51bb6
 0,        100,        100,        0,   152064, 4b5358698d734b0ae210909a913d4c1e
 0,        133,        133,        0,   152064, dc22565aaceee77b15fd8ab3c84bd5e0
 0,        166,        166,        0,   152064, 5f6340b656536292b46ba9a647aeb6e4
avconv version v13_dev0-1417-g3ff8fbb, Copyright (c) 2000-2017 the Libav developers
  built on Dec  7 2017 03:02:59 with clang version 6.0.0 (trunk 319646)
Input #0, matroska,webm, from '/home/mkostylev/src/fate/fate-suite/vp9-test-vectors/vp90-2-01-sharpness-5.webm':
  Duration: 00:00:00.33, start: 0.000000, bitrate: N/A
    Stream #0:0(eng): Video: vp9
      yuv420p, 352x288, PAR 1:1 DAR 11:9
      29.97 fps, 1k tbn (default)
    Side data:
      stereo3d: 2D
Stream mapping:
  Stream #0:0 -> #0:0 (vp9 (native) -> rawvideo (native))
Press ctrl-c to stop encoding
Output #0, framemd5, to 'pipe:':
  Metadata:
    encoder         : Lavf58.1.0
    Stream #0:0(eng): Video: rawvideo [I420 / 0x30323449]
      yuv420p, 352x288 [PAR 1:1 DAR 11:9], q=2-31, 200 kb/s, PAR 1:1 DAR 11:9
      1k tbn (default)
    Metadata:
      encoder         : Lavc58.5.0 rawvideo
frame=   10 fps=  0 q=-0.0 Lsize=       1kB time=0.30 bitrate=  21.7kbits/s    
video:1485kB audio:0kB other streams:0kB global headers:0kB muxing overhead: unknown
diffstderrvp9-01-sharpness-61v13_dev0-1415-ge171022
--- /home/mkostylev/src/fate/src/tests/ref/fate/vp9-01-sharpness-6	2017-11-28 18:24:41.267850040 +0300
+++ tests/data/fate/vp9-01-sharpness-6	2017-12-07 03:03:20.699872737 +0300
@@ -1,7 +1,7 @@
 #tb 0: 1/1000
 0,          0,          0,        0,   152064, a2e5c820fd9733e18f9349fb658ca281
 0,         33,         33,        0,   152064, 45d9ca07ed04210b1ebc743169bc8ec4
-0,         66,         66,        0,   152064, 5b646cc309a711f1d8814f925002d8c4
+0,         66,         66,        0,   152064, e9fe7bc610e7dd5b146f80fc34517b1f
 0,        100,        100,        0,   152064, 34db8db727fa1ded0a55cc7cf85be249
 0,        133,        133,        0,   152064, 54173d08afe6369b16a9c0c9cc6ce04d
 0,        166,        166,        0,   152064, 76275b0a478cdb3c1fb527ebbce023c3
avconv version v13_dev0-1417-g3ff8fbb, Copyright (c) 2000-2017 the Libav developers
  built on Dec  7 2017 03:02:59 with clang version 6.0.0 (trunk 319646)
Input #0, matroska,webm, from '/home/mkostylev/src/fate/fate-suite/vp9-test-vectors/vp90-2-01-sharpness-6.webm':
  Duration: 00:00:00.33, start: 0.000000, bitrate: N/A
    Stream #0:0(eng): Video: vp9
      yuv420p, 352x288, PAR 1:1 DAR 11:9
      29.97 fps, 1k tbn (default)
    Side data:
      stereo3d: 2D
Stream mapping:
  Stream #0:0 -> #0:0 (vp9 (native) -> rawvideo (native))
Press ctrl-c to stop encoding
Output #0, framemd5, to 'pipe:':
  Metadata:
    encoder         : Lavf58.1.0
    Stream #0:0(eng): Video: rawvideo [I420 / 0x30323449]
      yuv420p, 352x288 [PAR 1:1 DAR 11:9], q=2-31, 200 kb/s, PAR 1:1 DAR 11:9
      1k tbn (default)
    Metadata:
      encoder         : Lavc58.5.0 rawvideo
frame=   10 fps=  0 q=-0.0 Lsize=       1kB time=0.30 bitrate=  21.7kbits/s    
video:1485kB audio:0kB other streams:0kB global headers:0kB muxing overhead: unknown
diffstderrvp9-01-sharpness-71v13_dev0-1415-ge171022
--- /home/mkostylev/src/fate/src/tests/ref/fate/vp9-01-sharpness-7	2017-11-28 18:24:41.267850040 +0300
+++ tests/data/fate/vp9-01-sharpness-7	2017-12-07 03:03:20.707872985 +0300
@@ -1,7 +1,7 @@
 #tb 0: 1/1000
 0,          0,          0,        0,   152064, a2e5c820fd9733e18f9349fb658ca281
 0,         33,         33,        0,   152064, f719d0be18d16a448b4e7da3e2d9bf28
-0,         66,         66,        0,   152064, 83ee8ebc0ca796782a2376a76f2ffc26
+0,         66,         66,        0,   152064, ffab03553fb4a9e007fdd55822f051c9
 0,        100,        100,        0,   152064, 7cf5afdbc229e1af50a5377cfc23d831
 0,        133,        133,        0,   152064, 44244e896e0362f6376ba5afa563ba8b
 0,        166,        166,        0,   152064, df5f518d44eb6cb91b2df5a30d27ef82
avconv version v13_dev0-1417-g3ff8fbb, Copyright (c) 2000-2017 the Libav developers
  built on Dec  7 2017 03:02:59 with clang version 6.0.0 (trunk 319646)
Input #0, matroska,webm, from '/home/mkostylev/src/fate/fate-suite/vp9-test-vectors/vp90-2-01-sharpness-7.webm':
  Duration: 00:00:00.33, start: 0.000000, bitrate: N/A
    Stream #0:0(eng): Video: vp9
      yuv420p, 352x288, PAR 1:1 DAR 11:9
      29.97 fps, 1k tbn (default)
    Side data:
      stereo3d: 2D
Stream mapping:
  Stream #0:0 -> #0:0 (vp9 (native) -> rawvideo (native))
Press ctrl-c to stop encoding
Output #0, framemd5, to 'pipe:':
  Metadata:
    encoder         : Lavf58.1.0
    Stream #0:0(eng): Video: rawvideo [I420 / 0x30323449]
      yuv420p, 352x288 [PAR 1:1 DAR 11:9], q=2-31, 200 kb/s, PAR 1:1 DAR 11:9
      1k tbn (default)
    Metadata:
      encoder         : Lavc58.5.0 rawvideo
frame=   10 fps=  0 q=-0.0 Lsize=       1kB time=0.30 bitrate=  21.7kbits/s    
video:1485kB audio:0kB other streams:0kB global headers:0kB muxing overhead: unknown
diffstderrvp9-02-size-34x181v13_dev0-1415-ge171022
--- /home/mkostylev/src/fate/src/tests/ref/fate/vp9-02-size-34x18	2017-11-28 18:24:41.267850040 +0300
+++ tests/data/fate/vp9-02-size-34x18	2017-12-07 03:03:20.783875347 +0300
@@ -4,8 +4,8 @@
 0,         66,         66,        0,      918, bd773f11d89091b3c9ebc22d8291dd49
 0,        100,        100,        0,      918, 278c215d6c188752818f07f4d317c0e0
 0,        133,        133,        0,      918, b59856932c675c1ba587644c23cdb002
-0,        166,        166,        0,      918, 2bcaef04f89326a56025269a68742043
+0,        166,        166,        0,      918, 871350948b1554e2bfd9358cf97df52b
 0,        200,        200,        0,      918, 5abb4a1b96b4bc003cd19a146347c54e
-0,        233,        233,        0,      918, 26e36058f451ff80d498ac1c0343489f
-0,        266,        266,        0,      918, 57ac43fcc6f1a2c863188aca68d52524
-0,        300,        300,        0,      918, 282467118b5b7a986ccd28d16dab3ea7
+0,        233,        233,        0,      918, c2cd4778bab8fa57568682414d5b5826
+0,        266,        266,        0,      918, f5b2d0d9696cd90b003711cc3b766a20
+0,        300,        300,        0,      918, 542706d4248d219eab545cbcb2e7a817
avconv version v13_dev0-1417-g3ff8fbb, Copyright (c) 2000-2017 the Libav developers
  built on Dec  7 2017 03:02:59 with clang version 6.0.0 (trunk 319646)
Input #0, matroska,webm, from '/home/mkostylev/src/fate/fate-suite/vp9-test-vectors/vp90-2-02-size-34x18.webm':
  Duration: 00:00:00.33, start: 0.000000, bitrate: N/A
    Stream #0:0(eng): Video: vp9
      yuv420p, 34x18, PAR 1:1 DAR 17:9
      29.97 fps, 1k tbn (default)
    Side data:
      stereo3d: 2D
Stream mapping:
  Stream #0:0 -> #0:0 (vp9 (native) -> rawvideo (native))
Press ctrl-c to stop encoding
Output #0, framemd5, to 'pipe:':
  Metadata:
    encoder         : Lavf58.1.0
    Stream #0:0(eng): Video: rawvideo [I420 / 0x30323449]
      yuv420p, 34x18 [PAR 1:1 DAR 17:9], q=2-31, 200 kb/s, PAR 1:1 DAR 17:9
      1k tbn (default)
    Metadata:
      encoder         : Lavc58.5.0 rawvideo
frame=   10 fps=  0 q=-0.0 Lsize=       1kB time=0.30 bitrate=  21.7kbits/s    
video:9kB audio:0kB other streams:0kB global headers:0kB muxing overhead: unknown
diffstderrvp9-02-size-34x321v13_dev0-1415-ge171022
--- /home/mkostylev/src/fate/src/tests/ref/fate/vp9-02-size-34x32	2017-11-28 18:24:41.267850040 +0300
+++ tests/data/fate/vp9-02-size-34x32	2017-12-07 03:03:20.783875347 +0300
@@ -6,6 +6,6 @@
 0,        133,        133,        0,     1632, b9cdf3ebea0d1e3f1e0c42db2e11a3c2
 0,        166,        166,        0,     1632, c08a728d955a559457c82e44c3296148
 0,        200,        200,        0,     1632, d05f4c4a8b0e606525c3d388d26a9351
-0,        233,        233,        0,     1632, 78fc2544da88a1a21d6626b0f7bbcf8c
-0,        266,        266,        0,     1632, 90832c4fed05390377551359bb9a91f7
-0,        300,        300,        0,     1632, 5290a0e77081863398f36c7ae192710b
+0,        233,        233,        0,     1632, 4807d87d0f86e68e298d0ee6a5cbaefc
+0,        266,        266,        0,     1632, ceb0dadcc0f1ed4578737256fcca521a
+0,        300,        300,        0,     1632, 862abdaf2a6f8e85f28e5872555fd097
avconv version v13_dev0-1417-g3ff8fbb, Copyright (c) 2000-2017 the Libav developers
  built on Dec  7 2017 03:02:59 with clang version 6.0.0 (trunk 319646)
Input #0, matroska,webm, from '/home/mkostylev/src/fate/fate-suite/vp9-test-vectors/vp90-2-02-size-34x32.webm':
  Duration: 00:00:00.33, start: 0.000000, bitrate: N/A
    Stream #0:0(eng): Video: vp9
      yuv420p, 34x32, PAR 1:1 DAR 17:16
      29.97 fps, 1k tbn (default)
    Side data:
      stereo3d: 2D
Stream mapping:
  Stream #0:0 -> #0:0 (vp9 (native) -> rawvideo (native))
Press ctrl-c to stop encoding
Output #0, framemd5, to 'pipe:':
  Metadata:
    encoder         : Lavf58.1.0
    Stream #0:0(eng): Video: rawvideo [I420 / 0x30323449]
      yuv420p, 34x32 [PAR 1:1 DAR 17:16], q=2-31, 200 kb/s, PAR 1:1 DAR 17:16
      1k tbn (default)
    Metadata:
      encoder         : Lavc58.5.0 rawvideo
frame=   10 fps=  0 q=-0.0 Lsize=       1kB time=0.30 bitrate=  21.7kbits/s    
video:16kB audio:0kB other streams:0kB global headers:0kB muxing overhead: unknown
diffstderrvp9-02-size-64x341v13_dev0-1415-ge171022
--- /home/mkostylev/src/fate/src/tests/ref/fate/vp9-02-size-64x34	2017-11-28 18:24:41.267850040 +0300
+++ tests/data/fate/vp9-02-size-64x34	2017-12-07 03:03:20.799875845 +0300
@@ -1,10 +1,10 @@
 #tb 0: 1/1000
 0,          0,          0,        0,     3264, 68d00958a78e6252dd75d632806e2022
-0,         33,         33,        0,     3264, f7b6266e74200a669eecd241db787ee2
-0,         66,         66,        0,     3264, c8b88d43aee037857310edeb74bc66f4
-0,        100,        100,        0,     3264, c6d9a52baf3ca962574bff1364fcb8dc
-0,        133,        133,        0,     3264, b384fbf3ceef0affa69f5e81681edc6e
-0,        166,        166,        0,     3264, cd473f0c8d1cde98153402123a3ee7cf
+0,         33,         33,        0,     3264, c33de51500ef98782e999191ce1e5c3e
+0,         66,         66,        0,     3264, f3c94641a815215911ecb3124787d1b1
+0,        100,        100,        0,     3264, f99432309055a718836fcac4f4caf1f2
+0,        133,        133,        0,     3264, d76a05770ba13f4452e38919556549bc
+0,        166,        166,        0,     3264, 147f5940236d8a966b17ffcac37a7c1f
 0,        200,        200,        0,     3264, c0f320a23c3e39719a3b3590fe3c2ab5
 0,        233,        233,        0,     3264, 751207d15a791728c1022f711a25cd68
 0,        266,        266,        0,     3264, 7396df89a0d88044cf7527420d193636
avconv version v13_dev0-1417-g3ff8fbb, Copyright (c) 2000-2017 the Libav developers
  built on Dec  7 2017 03:02:59 with clang version 6.0.0 (trunk 319646)
Input #0, matroska,webm, from '/home/mkostylev/src/fate/fate-suite/vp9-test-vectors/vp90-2-02-size-64x34.webm':
  Duration: 00:00:00.33, start: 0.000000, bitrate: N/A
    Stream #0:0(eng): Video: vp9
      yuv420p, 64x34, PAR 1:1 DAR 32:17
      29.97 fps, 1k tbn (default)
    Side data:
      stereo3d: 2D
Stream mapping:
  Stream #0:0 -> #0:0 (vp9 (native) -> rawvideo (native))
Press ctrl-c to stop encoding
Output #0, framemd5, to 'pipe:':
  Metadata:
    encoder         : Lavf58.1.0
    Stream #0:0(eng): Video: rawvideo [I420 / 0x30323449]
      yuv420p, 64x34 [PAR 1:1 DAR 32:17], q=2-31, 200 kb/s, PAR 1:1 DAR 32:17
      1k tbn (default)
    Metadata:
      encoder         : Lavc58.5.0 rawvideo
frame=   10 fps=  0 q=-0.0 Lsize=       1kB time=0.30 bitrate=  21.7kbits/s    
video:32kB audio:0kB other streams:0kB global headers:0kB muxing overhead: unknown
diffstderrvp9-03-size-196x1981v13_dev0-1415-ge171022
--- /home/mkostylev/src/fate/src/tests/ref/fate/vp9-03-size-196x198	2017-11-28 18:24:41.267850040 +0300
+++ tests/data/fate/vp9-03-size-196x198	2017-12-07 03:03:20.827876715 +0300
@@ -7,5 +7,5 @@
 0,        166,        166,        0,    58212, 17495af68b0a2c075899849382f3b046
 0,        200,        200,        0,    58212, 7853db163344798e5c37672adaac92d8
 0,        233,        233,        0,    58212, 7b2ee2e1ca709c58457c7d818e47c95c
-0,        266,        266,        0,    58212, f7eb3ce10561628f932861358a30b414
+0,        266,        266,        0,    58212, ce05ce0fce18287da353bdaf4d9fbe81
 0,        300,        300,        0,    58212, 3182374f5aa539fd0faa44ed4a7492e5
avconv version v13_dev0-1417-g3ff8fbb, Copyright (c) 2000-2017 the Libav developers
  built on Dec  7 2017 03:02:59 with clang version 6.0.0 (trunk 319646)
Input #0, matroska,webm, from '/home/mkostylev/src/fate/fate-suite/vp9-test-vectors/vp90-2-03-size-196x198.webm':
  Duration: 00:00:00.33, start: 0.000000, bitrate: N/A
    Stream #0:0(eng): Video: vp9
      yuv420p, 196x198, PAR 1:1 DAR 98:99
      29.97 fps, 1k tbn (default)
    Side data:
      stereo3d: 2D
Stream mapping:
  Stream #0:0 -> #0:0 (vp9 (native) -> rawvideo (native))
Press ctrl-c to stop encoding
Output #0, framemd5, to 'pipe:':
  Metadata:
    encoder         : Lavf58.1.0
    Stream #0:0(eng): Video: rawvideo [I420 / 0x30323449]
      yuv420p, 196x198 [PAR 1:1 DAR 98:99], q=2-31, 200 kb/s, PAR 1:1 DAR 98:99
      1k tbn (default)
    Metadata:
      encoder         : Lavc58.5.0 rawvideo
frame=   10 fps=  0 q=-0.0 Lsize=       1kB time=0.30 bitrate=  21.7kbits/s    
video:568kB audio:0kB other streams:0kB global headers:0kB muxing overhead: unknown
diffstderrvp9-03-size-196x2081v13_dev0-1415-ge171022
--- /home/mkostylev/src/fate/src/tests/ref/fate/vp9-03-size-196x208	2017-11-28 18:24:41.267850040 +0300
+++ tests/data/fate/vp9-03-size-196x208	2017-12-07 03:03:20.831876839 +0300
@@ -5,7 +5,7 @@
 0,        100,        100,        0,    61152, fbb6e01c524fc7c8007c6cfe2c64f467
 0,        133,        133,        0,    61152, 7453994c2e9901fa23f295ec0b556f9c
 0,        166,        166,        0,    61152, ba39dc984789fa2c4b833cd88013cc97
-0,        200,        200,        0,    61152, cea5061cac1be18d5f9a9301a5460491
-0,        233,        233,        0,    61152, 1c583018c425b1a91949e0c3eb0a4152
-0,        266,        266,        0,    61152, b48be02280ac6f97731af69bcf18de25
-0,        300,        300,        0,    61152, 6f8ab465214d8374c9ff77b939da333e
+0,        200,        200,        0,    61152, 1f1a8e28bec27215bf865c7dbff97888
+0,        233,        233,        0,    61152, 4339ab2bfbe9df0a331d9b941068806a
+0,        266,        266,        0,    61152, 0220b892b83a008b7d7b59b12bfc4528
+0,        300,        300,        0,    61152, ecc0c0d609e872e3a3d4e52b36798abf
avconv version v13_dev0-1417-g3ff8fbb, Copyright (c) 2000-2017 the Libav developers
  built on Dec  7 2017 03:02:59 with clang version 6.0.0 (trunk 319646)
Input #0, matroska,webm, from '/home/mkostylev/src/fate/fate-suite/vp9-test-vectors/vp90-2-03-size-196x208.webm':
  Duration: 00:00:00.33, start: 0.000000, bitrate: N/A
    Stream #0:0(eng): Video: vp9
      yuv420p, 196x208, PAR 1:1 DAR 49:52
      29.97 fps, 1k tbn (default)
    Side data:
      stereo3d: 2D
Stream mapping:
  Stream #0:0 -> #0:0 (vp9 (native) -> rawvideo (native))
Press ctrl-c to stop encoding
Output #0, framemd5, to 'pipe:':
  Metadata:
    encoder         : Lavf58.1.0
    Stream #0:0(eng): Video: rawvideo [I420 / 0x30323449]
      yuv420p, 196x208 [PAR 1:1 DAR 49:52], q=2-31, 200 kb/s, PAR 1:1 DAR 49:52
      1k tbn (default)
    Metadata:
      encoder         : Lavc58.5.0 rawvideo
frame=   10 fps=  0 q=-0.0 Lsize=       1kB time=0.30 bitrate=  21.7kbits/s    
video:597kB audio:0kB other streams:0kB global headers:0kB muxing overhead: unknown
diffstderrvp9-03-size-196x2101v13_dev0-1415-ge171022
--- /home/mkostylev/src/fate/src/tests/ref/fate/vp9-03-size-196x210	2017-11-28 18:24:41.267850040 +0300
+++ tests/data/fate/vp9-03-size-196x210	2017-12-07 03:03:20.835876963 +0300
@@ -8,4 +8,4 @@
 0,        200,        200,        0,    61740, ffe5d2b6d874af0f878075c97940ccfb
 0,        233,        233,        0,    61740, d10fae10144ff88075048827203f7e9c
 0,        266,        266,        0,    61740, bdf35736ac625f2178902c1f24d513c0
-0,        300,        300,        0,    61740, 30882bf2c21785be6234b637c4b16b28
+0,        300,        300,        0,    61740, a93553c458ad16e32b4523e402ee4e80
avconv version v13_dev0-1417-g3ff8fbb, Copyright (c) 2000-2017 the Libav developers
  built on Dec  7 2017 03:02:59 with clang version 6.0.0 (trunk 319646)
Input #0, matroska,webm, from '/home/mkostylev/src/fate/fate-suite/vp9-test-vectors/vp90-2-03-size-196x210.webm':
  Duration: 00:00:00.33, start: 0.000000, bitrate: N/A
    Stream #0:0(eng): Video: vp9
      yuv420p, 196x210, PAR 1:1 DAR 14:15
      29.97 fps, 1k tbn (default)
    Side data:
      stereo3d: 2D
Stream mapping:
  Stream #0:0 -> #0:0 (vp9 (native) -> rawvideo (native))
Press ctrl-c to stop encoding
Output #0, framemd5, to 'pipe:':
  Metadata:
    encoder         : Lavf58.1.0
    Stream #0:0(eng): Video: rawvideo [I420 / 0x30323449]
      yuv420p, 196x210 [PAR 1:1 DAR 14:15], q=2-31, 200 kb/s, PAR 1:1 DAR 14:15
      1k tbn (default)
    Metadata:
      encoder         : Lavc58.5.0 rawvideo
frame=   10 fps=  0 q=-0.0 Lsize=       1kB time=0.30 bitrate=  21.7kbits/s    
video:603kB audio:0kB other streams:0kB global headers:0kB muxing overhead: unknown
diffstderrvp9-03-size-196x2261v13_dev0-1415-ge171022
--- /home/mkostylev/src/fate/src/tests/ref/fate/vp9-03-size-196x226	2017-11-28 18:24:41.267850040 +0300
+++ tests/data/fate/vp9-03-size-196x226	2017-12-07 03:03:20.839877087 +0300
@@ -1,11 +1,11 @@
 #tb 0: 1/1000
 0,          0,          0,        0,    66444, 5cb240f10761f59687612ed589759800
-0,         33,         33,        0,    66444, 9d8d5b57336ddfa5c9c5100a0302197d
-0,         66,         66,        0,    66444, 9db74997d23b16f527c63e88795331dc
-0,        100,        100,        0,    66444, 52758cd901533e790334d464bee516da
+0,         33,         33,        0,    66444, 51111daf8ac863f4ddae421dec6e7c5f
+0,         66,         66,        0,    66444, 79794363305325f8adfad0b20ecce479
+0,        100,        100,        0,    66444, c3c6170871aae5bda7a458ea5d4fd574
 0,        133,        133,        0,    66444, 40e671b9b85d07b13acba85eb64bbbaa
 0,        166,        166,        0,    66444, 8524b2cd2c9bb3e41c6167f8269e75d2
-0,        200,        200,        0,    66444, ff194ad6fa180fde86cc05a99c0580ec
-0,        233,        233,        0,    66444, 22ab303cb37745a73c227cd7d1c70003
-0,        266,        266,        0,    66444, 01986c58e82e0b5194418f5b75a8599c
-0,        300,        300,        0,    66444, eedfc9c14cbf3fa10402dbed52103848
+0,        200,        200,        0,    66444, 8f73992fc7d6e2f290037991ef0f238b
+0,        233,        233,        0,    66444, 812f6c3bc6e4bfdea7613aa5e21c31c6
+0,        266,        266,        0,    66444, 637eb513f58828dc7aa4c84915398687
+0,        300,        300,        0,    66444, 7d56391ca0d964b29a9c39cf54a34e67
avconv version v13_dev0-1417-g3ff8fbb, Copyright (c) 2000-2017 the Libav developers
  built on Dec  7 2017 03:02:59 with clang version 6.0.0 (trunk 319646)
Input #0, matroska,webm, from '/home/mkostylev/src/fate/fate-suite/vp9-test-vectors/vp90-2-03-size-196x226.webm':
  Duration: 00:00:00.33, start: 0.000000, bitrate: N/A
    Stream #0:0(eng): Video: vp9
      yuv420p, 196x226, PAR 1:1 DAR 98:113
      29.97 fps, 1k tbn (default)
    Side data:
      stereo3d: 2D
Stream mapping:
  Stream #0:0 -> #0:0 (vp9 (native) -> rawvideo (native))
Press ctrl-c to stop encoding
Output #0, framemd5, to 'pipe:':
  Metadata:
    encoder         : Lavf58.1.0
    Stream #0:0(eng): Video: rawvideo [I420 / 0x30323449]
      yuv420p, 196x226 [PAR 1:1 DAR 98:113], q=2-31, 200 kb/s, PAR 1:1 DAR 98:113
      1k tbn (default)
    Metadata:
      encoder         : Lavc58.5.0 rawvideo
frame=   10 fps=  0 q=-0.0 Lsize=       1kB time=0.30 bitrate=  21.7kbits/s    
video:649kB audio:0kB other streams:0kB global headers:0kB muxing overhead: unknown
diffstderrvp9-03-size-198x2021v13_dev0-1415-ge171022
--- /home/mkostylev/src/fate/src/tests/ref/fate/vp9-03-size-198x202	2017-11-28 18:24:41.267850040 +0300
+++ tests/data/fate/vp9-03-size-198x202	2017-12-07 03:03:20.851877460 +0300
@@ -6,6 +6,6 @@
 0,        133,        133,        0,    59994, 4962c98c23b16b9257869a8ad5138731
 0,        166,        166,        0,    59994, fde9e858ec895c36c2d8071e69f68db6
 0,        200,        200,        0,    59994, 42e1271915f31a00be3627fa866ce3ee
-0,        233,        233,        0,    59994, c15f794933f913861a6d0041ff2fccdb
-0,        266,        266,        0,    59994, 35dab245ba952dc6fddc1a9668c30b28
-0,        300,        300,        0,    59994, 30bb4ef77cdde9cf5aea0f1287183b23
+0,        233,        233,        0,    59994, 2e19fb886904c418f92eee9c24bfbb53
+0,        266,        266,        0,    59994, b711c8cd9accb0cd7ef778025273ee91
+0,        300,        300,        0,    59994, 60f32c782932203f60d6ae963efd0d43
avconv version v13_dev0-1417-g3ff8fbb, Copyright (c) 2000-2017 the Libav developers
  built on Dec  7 2017 03:02:59 with clang version 6.0.0 (trunk 319646)
Input #0, matroska,webm, from '/home/mkostylev/src/fate/fate-suite/vp9-test-vectors/vp90-2-03-size-198x202.webm':
  Duration: 00:00:00.33, start: 0.000000, bitrate: N/A
    Stream #0:0(eng): Video: vp9
      yuv420p, 198x202, PAR 1:1 DAR 99:101
      29.97 fps, 1k tbn (default)
    Side data:
      stereo3d: 2D
Stream mapping:
  Stream #0:0 -> #0:0 (vp9 (native) -> rawvideo (native))
Press ctrl-c to stop encoding
Output #0, framemd5, to 'pipe:':
  Metadata:
    encoder         : Lavf58.1.0
    Stream #0:0(eng): Video: rawvideo [I420 / 0x30323449]
      yuv420p, 198x202 [PAR 1:1 DAR 99:101], q=2-31, 200 kb/s, PAR 1:1 DAR 99:101
      1k tbn (default)
    Metadata:
      encoder         : Lavc58.5.0 rawvideo
frame=   10 fps=  0 q=-0.0 Lsize=       1kB time=0.30 bitrate=  21.7kbits/s    
video:586kB audio:0kB other streams:0kB global headers:0kB muxing overhead: unknown
diffstderrvp9-03-size-198x2081v13_dev0-1415-ge171022
--- /home/mkostylev/src/fate/src/tests/ref/fate/vp9-03-size-198x208	2017-11-28 18:24:41.267850040 +0300
+++ tests/data/fate/vp9-03-size-198x208	2017-12-07 03:03:20.855877585 +0300
@@ -1,11 +1,11 @@
 #tb 0: 1/1000
 0,          0,          0,        0,    61776, d45b561f81cbfcca8a1dddbc2bf8ca31
-0,         33,         33,        0,    61776, 3664f63b2e59e380622caadb7a05545e
-0,         66,         66,        0,    61776, 0662fa199512320704efecc10af1aaa4
-0,        100,        100,        0,    61776, d8dc00882e73be89d0585663892cbcff
-0,        133,        133,        0,    61776, ff64b8d50b7c5b484a06dab09a26147c
-0,        166,        166,        0,    61776, 1771b6a55112eb7ea10885d1390339cc
-0,        200,        200,        0,    61776, 0d5944e8a13e3c2faffb562bbe2671a8
-0,        233,        233,        0,    61776, 744bed3a88407b75a8ff27a1b0cec64e
-0,        266,        266,        0,    61776, 3887415f2ab10d2a265c4a413e7060b9
-0,        300,        300,        0,    61776, 7dd683019b19b464bc0436f41e0b7c87
+0,         33,         33,        0,    61776, 7d8c923e4287b9efae6972cd186a446b
+0,         66,         66,        0,    61776, 5ac6e106e7ae66b5c030126070768050
+0,        100,        100,        0,    61776, e9851c6d2e399d6318743b11a38744e5
+0,        133,        133,        0,    61776, cca66297f44a41a86b05d72c82bd31a1
+0,        166,        166,        0,    61776, 86405dd33f0a4bb189125f2f6571af65
+0,        200,        200,        0,    61776, 475eac8609f863755fff932c7ef1d1ec
+0,        233,        233,        0,    61776, 4b10c52d6af2d15eec249f1795d8b25f
+0,        266,        266,        0,    61776, ee4d8a96f694b04612e84a6383500918
+0,        300,        300,        0,    61776, 30a834b9eb45e0a0ac2e80c5a981bca9
avconv version v13_dev0-1417-g3ff8fbb, Copyright (c) 2000-2017 the Libav developers
  built on Dec  7 2017 03:02:59 with clang version 6.0.0 (trunk 319646)
Input #0, matroska,webm, from '/home/mkostylev/src/fate/fate-suite/vp9-test-vectors/vp90-2-03-size-198x208.webm':
  Duration: 00:00:00.33, start: 0.000000, bitrate: N/A
    Stream #0:0(eng): Video: vp9
      yuv420p, 198x208, PAR 1:1 DAR 99:104
      29.97 fps, 1k tbn (default)
    Side data:
      stereo3d: 2D
Stream mapping:
  Stream #0:0 -> #0:0 (vp9 (native) -> rawvideo (native))
Press ctrl-c to stop encoding
Output #0, framemd5, to 'pipe:':
  Metadata:
    encoder         : Lavf58.1.0
    Stream #0:0(eng): Video: rawvideo [I420 / 0x30323449]
      yuv420p, 198x208 [PAR 1:1 DAR 99:104], q=2-31, 200 kb/s, PAR 1:1 DAR 99:104
      1k tbn (default)
    Metadata:
      encoder         : Lavc58.5.0 rawvideo
frame=   10 fps=  0 q=-0.0 Lsize=       1kB time=0.30 bitrate=  21.7kbits/s    
video:603kB audio:0kB other streams:0kB global headers:0kB muxing overhead: unknown
diffstderrvp9-03-size-198x2241v13_dev0-1415-ge171022
--- /home/mkostylev/src/fate/src/tests/ref/fate/vp9-03-size-198x224	2017-11-28 18:24:41.267850040 +0300
+++ tests/data/fate/vp9-03-size-198x224	2017-12-07 03:03:20.859877709 +0300
@@ -8,4 +8,4 @@
 0,        200,        200,        0,    66528, d6306b5737f88f989bf2e6a1084a94fe
 0,        233,        233,        0,    66528, 5669761d7417b52b3cf81d44a13e3fb7
 0,        266,        266,        0,    66528, 3f730b8658d7a6657d1af38c75357512
-0,        300,        300,        0,    66528, 27df68d515148f732325bf821037d59f
+0,        300,        300,        0,    66528, a3c686c7d85194ecca221b6308f882c8
avconv version v13_dev0-1417-g3ff8fbb, Copyright (c) 2000-2017 the Libav developers
  built on Dec  7 2017 03:02:59 with clang version 6.0.0 (trunk 319646)
Input #0, matroska,webm, from '/home/mkostylev/src/fate/fate-suite/vp9-test-vectors/vp90-2-03-size-198x224.webm':
  Duration: 00:00:00.33, start: 0.000000, bitrate: N/A
    Stream #0:0(eng): Video: vp9
      yuv420p, 198x224, PAR 1:1 DAR 99:112
      29.97 fps, 1k tbn (default)
    Side data:
      stereo3d: 2D
Stream mapping:
  Stream #0:0 -> #0:0 (vp9 (native) -> rawvideo (native))
Press ctrl-c to stop encoding
Output #0, framemd5, to 'pipe:':
  Metadata:
    encoder         : Lavf58.1.0
    Stream #0:0(eng): Video: rawvideo [I420 / 0x30323449]
      yuv420p, 198x224 [PAR 1:1 DAR 99:112], q=2-31, 200 kb/s, PAR 1:1 DAR 99:112
      1k tbn (default)
    Metadata:
      encoder         : Lavc58.5.0 rawvideo
frame=   10 fps=  0 q=-0.0 Lsize=       1kB time=0.30 bitrate=  21.7kbits/s    
video:650kB audio:0kB other streams:0kB global headers:0kB muxing overhead: unknown
diffstderrvp9-03-size-198x2261v13_dev0-1415-ge171022
--- /home/mkostylev/src/fate/src/tests/ref/fate/vp9-03-size-198x226	2017-11-28 18:24:41.271850117 +0300
+++ tests/data/fate/vp9-03-size-198x226	2017-12-07 03:03:20.859877709 +0300
@@ -1,7 +1,7 @@
 #tb 0: 1/1000
 0,          0,          0,        0,    67122, 412c33a8fd71c99e68e6701b050b107c
-0,         33,         33,        0,    67122, 8e69483ff8a094096dd550b30be20dde
-0,         66,         66,        0,    67122, b8df87ab3d2613be31a3743e34d7e794
+0,         33,         33,        0,    67122, 260d960a38e6b335963a9fbfad33b506
+0,         66,         66,        0,    67122, ce7f0e6b7a0e551fa954d6fd9c3e6809
 0,        100,        100,        0,    67122, ec4b08a4014950f1fe04e83f8a790af0
 0,        133,        133,        0,    67122, 030da2b60627d879730108826ce6632c
 0,        166,        166,        0,    67122, 03aab0c9b4d75bc0b47fa5237e9efe3d
avconv version v13_dev0-1417-g3ff8fbb, Copyright (c) 2000-2017 the Libav developers
  built on Dec  7 2017 03:02:59 with clang version 6.0.0 (trunk 319646)
Input #0, matroska,webm, from '/home/mkostylev/src/fate/fate-suite/vp9-test-vectors/vp90-2-03-size-198x226.webm':
  Duration: 00:00:00.33, start: 0.000000, bitrate: N/A
    Stream #0:0(eng): Video: vp9
      yuv420p, 198x226, PAR 1:1 DAR 99:113
      29.97 fps, 1k tbn (default)
    Side data:
      stereo3d: 2D
Stream mapping:
  Stream #0:0 -> #0:0 (vp9 (native) -> rawvideo (native))
Press ctrl-c to stop encoding
Output #0, framemd5, to 'pipe:':
  Metadata:
    encoder         : Lavf58.1.0
    Stream #0:0(eng): Video: rawvideo [I420 / 0x30323449]
      yuv420p, 198x226 [PAR 1:1 DAR 99:113], q=2-31, 200 kb/s, PAR 1:1 DAR 99:113
      1k tbn (default)
    Metadata:
      encoder         : Lavc58.5.0 rawvideo
frame=   10 fps=  0 q=-0.0 Lsize=       1kB time=0.30 bitrate=  21.7kbits/s    
video:655kB audio:0kB other streams:0kB global headers:0kB muxing overhead: unknown
diffstderrvp9-03-size-200x1981v13_dev0-1415-ge171022
--- /home/mkostylev/src/fate/src/tests/ref/fate/vp9-03-size-200x198	2017-11-28 18:24:41.271850117 +0300
+++ tests/data/fate/vp9-03-size-200x198	2017-12-07 03:03:20.875878205 +0300
@@ -1,11 +1,11 @@
 #tb 0: 1/1000
 0,          0,          0,        0,    59400, d4b3578d800c747bcabaa484a140ffb0
-0,         33,         33,        0,    59400, a40f6f8c384c5dc3d5546d960bb6d9e5
-0,         66,         66,        0,    59400, e270ae8754d9906dd88b1c7d05280801
-0,        100,        100,        0,    59400, bde7fde5012840c5e188f3b29f4f0003
-0,        133,        133,        0,    59400, 8f8510c1130615b64fb8469af66ff678
-0,        166,        166,        0,    59400, 79b9d4e0c64f82a6e9540394222a593d
-0,        200,        200,        0,    59400, 34852ac9ca5c6bfa51736296784343c7
-0,        233,        233,        0,    59400, b055218509dbed644113642f8f0ac8a8
-0,        266,        266,        0,    59400, 1628866b436f1c4b892474025226e545
-0,        300,        300,        0,    59400, 3fdec760c04e30c90e74afb38dbf757c
+0,         33,         33,        0,    59400, 506f597731286b0e6b647f48b4da5d05
+0,         66,         66,        0,    59400, 04b07423775cc00c2680573755f12ea1
+0,        100,        100,        0,    59400, 7a6e722f143ae1de2ee54256b27a768b
+0,        133,        133,        0,    59400, c040653359f9d1615c53aa7a63c50583
+0,        166,        166,        0,    59400, 2a33134998c9bf3562dc4d7d0e6ae56a
+0,        200,        200,        0,    59400, 47229b232504fe0ad8deb7cd0dee6a96
+0,        233,        233,        0,    59400, 07c0317414e1f91b1721ea0cc53c62f6
+0,        266,        266,        0,    59400, 9aff61551c56efc92dc16e29a06877cc
+0,        300,        300,        0,    59400, 3d1c6904df7fc0445d80d777d9bb4294
avconv version v13_dev0-1417-g3ff8fbb, Copyright (c) 2000-2017 the Libav developers
  built on Dec  7 2017 03:02:59 with clang version 6.0.0 (trunk 319646)
Input #0, matroska,webm, from '/home/mkostylev/src/fate/fate-suite/vp9-test-vectors/vp90-2-03-size-200x198.webm':
  Duration: 00:00:00.33, start: 0.000000, bitrate: N/A
    Stream #0:0(eng): Video: vp9
      yuv420p, 200x198, PAR 1:1 DAR 100:99
      29.97 fps, 1k tbn (default)
    Side data:
      stereo3d: 2D
Stream mapping:
  Stream #0:0 -> #0:0 (vp9 (native) -> rawvideo (native))
Press ctrl-c to stop encoding
Output #0, framemd5, to 'pipe:':
  Metadata:
    encoder         : Lavf58.1.0
    Stream #0:0(eng): Video: rawvideo [I420 / 0x30323449]
      yuv420p, 200x198 [PAR 1:1 DAR 100:99], q=2-31, 200 kb/s, PAR 1:1 DAR 100:99
      1k tbn (default)
    Metadata:
      encoder         : Lavc58.5.0 rawvideo
frame=   10 fps=  0 q=-0.0 Lsize=       1kB time=0.30 bitrate=  21.7kbits/s    
video:580kB audio:0kB other streams:0kB global headers:0kB muxing overhead: unknown
diffstderrvp9-03-size-200x2021v13_dev0-1415-ge171022
--- /home/mkostylev/src/fate/src/tests/ref/fate/vp9-03-size-200x202	2017-11-28 18:24:41.271850117 +0300
+++ tests/data/fate/vp9-03-size-200x202	2017-12-07 03:03:20.875878205 +0300
@@ -7,5 +7,5 @@
 0,        166,        166,        0,    60600, 33e5e2799eb4a9c548c8372fd6769db9
 0,        200,        200,        0,    60600, fa53c1c7e60bd1d00335af542ec69ed7
 0,        233,        233,        0,    60600, 534cafe658af10a314d6d084e55b3620
-0,        266,        266,        0,    60600, 502529e4fbecc8b890abf665fa21f53c
-0,        300,        300,        0,    60600, bf1f73c6e77370bc51a770c8ae87bd12
+0,        266,        266,        0,    60600, 3b5868abdb782c4cd4697cf13ea61496
+0,        300,        300,        0,    60600, fa45950ddb73ff0de3f2cc75ebc7425b
avconv version v13_dev0-1417-g3ff8fbb, Copyright (c) 2000-2017 the Libav developers
  built on Dec  7 2017 03:02:59 with clang version 6.0.0 (trunk 319646)
Input #0, matroska,webm, from '/home/mkostylev/src/fate/fate-suite/vp9-test-vectors/vp90-2-03-size-200x202.webm':
  Duration: 00:00:00.33, start: 0.000000, bitrate: N/A
    Stream #0:0(eng): Video: vp9
      yuv420p, 200x202, PAR 1:1 DAR 100:101
      29.97 fps, 1k tbn (default)
    Side data:
      stereo3d: 2D
Stream mapping:
  Stream #0:0 -> #0:0 (vp9 (native) -> rawvideo (native))
Press ctrl-c to stop encoding
Output #0, framemd5, to 'pipe:':
  Metadata:
    encoder         : Lavf58.1.0
    Stream #0:0(eng): Video: rawvideo [I420 / 0x30323449]
      yuv420p, 200x202 [PAR 1:1 DAR 100:101], q=2-31, 200 kb/s, PAR 1:1 DAR 100:101
      1k tbn (default)
    Metadata:
      encoder         : Lavc58.5.0 rawvideo
frame=   10 fps=  0 q=-0.0 Lsize=       1kB time=0.30 bitrate=  21.7kbits/s    
video:592kB audio:0kB other streams:0kB global headers:0kB muxing overhead: unknown
diffstderrvp9-03-size-200x2081v13_dev0-1415-ge171022
--- /home/mkostylev/src/fate/src/tests/ref/fate/vp9-03-size-200x208	2017-11-28 18:24:41.271850117 +0300
+++ tests/data/fate/vp9-03-size-200x208	2017-12-07 03:03:20.875878205 +0300
@@ -1,7 +1,7 @@
 #tb 0: 1/1000
 0,          0,          0,        0,    62400, 702748bec18c500dd41d93ae74b11d56
 0,         33,         33,        0,    62400, 4fb542190dab2fd673724d47451ff6ee
-0,         66,         66,        0,    62400, dbb4d27d52797dab67e39d32092c9d44
+0,         66,         66,        0,    62400, 90626e29a986298a411d1477fbf7073a
 0,        100,        100,        0,    62400, e4a0ed1572207b7ba433896bba711148
 0,        133,        133,        0,    62400, 28ec32bc165f4f9d455efec8a7aa8737
 0,        166,        166,        0,    62400, a95910575a6423abffb28ca38c384b34
avconv version v13_dev0-1417-g3ff8fbb, Copyright (c) 2000-2017 the Libav developers
  built on Dec  7 2017 03:02:59 with clang version 6.0.0 (trunk 319646)
Input #0, matroska,webm, from '/home/mkostylev/src/fate/fate-suite/vp9-test-vectors/vp90-2-03-size-200x208.webm':
  Duration: 00:00:00.33, start: 0.000000, bitrate: N/A
    Stream #0:0(eng): Video: vp9
      yuv420p, 200x208, PAR 1:1 DAR 25:26
      29.97 fps, 1k tbn (default)
    Side data:
      stereo3d: 2D
Stream mapping:
  Stream #0:0 -> #0:0 (vp9 (native) -> rawvideo (native))
Press ctrl-c to stop encoding
Output #0, framemd5, to 'pipe:':
  Metadata:
    encoder         : Lavf58.1.0
    Stream #0:0(eng): Video: rawvideo [I420 / 0x30323449]
      yuv420p, 200x208 [PAR 1:1 DAR 25:26], q=2-31, 200 kb/s, PAR 1:1 DAR 25:26
      1k tbn (default)
    Metadata:
      encoder         : Lavc58.5.0 rawvideo
frame=   10 fps=  0 q=-0.0 Lsize=       1kB time=0.30 bitrate=  21.7kbits/s    
video:609kB audio:0kB other streams:0kB global headers:0kB muxing overhead: unknown
diffstderrvp9-03-size-202x2021v13_dev0-1415-ge171022
--- /home/mkostylev/src/fate/src/tests/ref/fate/vp9-03-size-202x202	2017-11-28 18:24:41.271850117 +0300
+++ tests/data/fate/vp9-03-size-202x202	2017-12-07 03:03:20.899878951 +0300
@@ -5,7 +5,7 @@
 0,        100,        100,        0,    61206, 1d06b72f06178cbb6bb5d188d22bff43
 0,        133,        133,        0,    61206, 25bd41bd7607f88a01aa0cdc336c9975
 0,        166,        166,        0,    61206, 86836a95a7a9fb1eefb20f7c5a15a9ab
-0,        200,        200,        0,    61206, d8eb3fecce1b646b9877cd4fcca9f9bf
-0,        233,        233,        0,    61206, a057e0b29e4ac9717452cc478c418c12
-0,        266,        266,        0,    61206, 9a3bab91b4f0fff174536b1609c9632c
-0,        300,        300,        0,    61206, d1cd93975f746b6cae490aae31f89e7e
+0,        200,        200,        0,    61206, 323c8fdcc407a003c2bacf172fa30fc1
+0,        233,        233,        0,    61206, f48d154e5db41590c19948e673d92cac
+0,        266,        266,        0,    61206, 5f52cdab876d88802eabbe6ed5f68a20
+0,        300,        300,        0,    61206, c8b52a8b36ad1496415d3fc8bc44f764
avconv version v13_dev0-1417-g3ff8fbb, Copyright (c) 2000-2017 the Libav developers
  built on Dec  7 2017 03:02:59 with clang version 6.0.0 (trunk 319646)
Input #0, matroska,webm, from '/home/mkostylev/src/fate/fate-suite/vp9-test-vectors/vp90-2-03-size-202x202.webm':
  Duration: 00:00:00.33, start: 0.000000, bitrate: N/A
    Stream #0:0(eng): Video: vp9
      yuv420p, 202x202, PAR 1:1 DAR 1:1
      29.97 fps, 1k tbn (default)
    Side data:
      stereo3d: 2D
Stream mapping:
  Stream #0:0 -> #0:0 (vp9 (native) -> rawvideo (native))
Press ctrl-c to stop encoding
Output #0, framemd5, to 'pipe:':
  Metadata:
    encoder         : Lavf58.1.0
    Stream #0:0(eng): Video: rawvideo [I420 / 0x30323449]
      yuv420p, 202x202 [PAR 1:1 DAR 1:1], q=2-31, 200 kb/s, PAR 1:1 DAR 1:1
      1k tbn (default)
    Metadata:
      encoder         : Lavc58.5.0 rawvideo
frame=   10 fps=  0 q=-0.0 Lsize=       1kB time=0.30 bitrate=  21.7kbits/s    
video:598kB audio:0kB other streams:0kB global headers:0kB muxing overhead: unknown
diffstderrvp9-03-size-202x2101v13_dev0-1415-ge171022
--- /home/mkostylev/src/fate/src/tests/ref/fate/vp9-03-size-202x210	2017-11-28 18:24:41.271850117 +0300
+++ tests/data/fate/vp9-03-size-202x210	2017-12-07 03:03:20.903879076 +0300
@@ -6,6 +6,6 @@
 0,        133,        133,        0,    63630, b0a527ae3aafe94d13573199c6f4944f
 0,        166,        166,        0,    63630, 1be14b213ebf1d653468b8c16bae03fb
 0,        200,        200,        0,    63630, 44e5a8333a043cd93b9d1cc78e5f188f
-0,        233,        233,        0,    63630, bfd7619f990f20e23b47d0738a6a8449
+0,        233,        233,        0,    63630, 7195100850c54ad71a87c8649e4a09bc
 0,        266,        266,        0,    63630, 800405f45ca5198014ef8d8521b044fa
-0,        300,        300,        0,    63630, dca4eda872349708f54486433efc8225
+0,        300,        300,        0,    63630, 1c72d212ec435c1640d26f720bc99c09
avconv version v13_dev0-1417-g3ff8fbb, Copyright (c) 2000-2017 the Libav developers
  built on Dec  7 2017 03:02:59 with clang version 6.0.0 (trunk 319646)
Input #0, matroska,webm, from '/home/mkostylev/src/fate/fate-suite/vp9-test-vectors/vp90-2-03-size-202x210.webm':
  Duration: 00:00:00.33, start: 0.000000, bitrate: N/A
    Stream #0:0(eng): Video: vp9
      yuv420p, 202x210, PAR 1:1 DAR 101:105
      29.97 fps, 1k tbn (default)
    Side data:
      stereo3d: 2D
Stream mapping:
  Stream #0:0 -> #0:0 (vp9 (native) -> rawvideo (native))
Press ctrl-c to stop encoding
Output #0, framemd5, to 'pipe:':
  Metadata:
    encoder         : Lavf58.1.0
    Stream #0:0(eng): Video: rawvideo [I420 / 0x30323449]
      yuv420p, 202x210 [PAR 1:1 DAR 101:105], q=2-31, 200 kb/s, PAR 1:1 DAR 101:105
      1k tbn (default)
    Metadata:
      encoder         : Lavc58.5.0 rawvideo
frame=   10 fps=  0 q=-0.0 Lsize=       1kB time=0.30 bitrate=  21.7kbits/s    
video:621kB audio:0kB other streams:0kB global headers:0kB muxing overhead: unknown
diffstderrvp9-03-size-208x1981v13_dev0-1415-ge171022
--- /home/mkostylev/src/fate/src/tests/ref/fate/vp9-03-size-208x198	2017-11-28 18:24:41.271850117 +0300
+++ tests/data/fate/vp9-03-size-208x198	2017-12-07 03:03:20.915879449 +0300
@@ -1,8 +1,8 @@
 #tb 0: 1/1000
 0,          0,          0,        0,    61776, 1f1fa3cdf865d8c75183f4ba6203b675
-0,         33,         33,        0,    61776, ead33ead8fea5bd5d831a79f4c75a590
-0,         66,         66,        0,    61776, 9a406b4464989fd4bb7cbcb1b18aeaa7
-0,        100,        100,        0,    61776, fab3d228e7032f2cdc440dbfcb17c4c1
+0,         33,         33,        0,    61776, 20b3339c08c330943ef18286ba7d8a30
+0,         66,         66,        0,    61776, 6efa8ce4f26f02c10f9716b7398f0c29
+0,        100,        100,        0,    61776, 23e22c25ec7d881ca6b98b9cd8a5f6fc
 0,        133,        133,        0,    61776, f2f3f8b8d9ece21c359c89245157c613
 0,        166,        166,        0,    61776, 321f5a8ecb2cec1780013fe72c237bde
 0,        200,        200,        0,    61776, 6f025b1f4ef61d261f05ca149a9470e6
avconv version v13_dev0-1417-g3ff8fbb, Copyright (c) 2000-2017 the Libav developers
  built on Dec  7 2017 03:02:59 with clang version 6.0.0 (trunk 319646)
Input #0, matroska,webm, from '/home/mkostylev/src/fate/fate-suite/vp9-test-vectors/vp90-2-03-size-208x198.webm':
  Duration: 00:00:00.33, start: 0.000000, bitrate: N/A
    Stream #0:0(eng): Video: vp9
      yuv420p, 208x198, PAR 1:1 DAR 104:99
      29.97 fps, 1k tbn (default)
    Side data:
      stereo3d: 2D
Stream mapping:
  Stream #0:0 -> #0:0 (vp9 (native) -> rawvideo (native))
Press ctrl-c to stop encoding
Output #0, framemd5, to 'pipe:':
  Metadata:
    encoder         : Lavf58.1.0
    Stream #0:0(eng): Video: rawvideo [I420 / 0x30323449]
      yuv420p, 208x198 [PAR 1:1 DAR 104:99], q=2-31, 200 kb/s, PAR 1:1 DAR 104:99
      1k tbn (default)
    Metadata:
      encoder         : Lavc58.5.0 rawvideo
frame=   10 fps=  0 q=-0.0 Lsize=       1kB time=0.30 bitrate=  21.7kbits/s    
video:603kB audio:0kB other streams:0kB global headers:0kB muxing overhead: unknown
diffstderrvp9-03-size-210x2081v13_dev0-1415-ge171022
--- /home/mkostylev/src/fate/src/tests/ref/fate/vp9-03-size-210x208	2017-11-28 18:24:41.271850117 +0300
+++ tests/data/fate/vp9-03-size-210x208	2017-12-07 03:03:20.939880195 +0300
@@ -7,5 +7,5 @@
 0,        166,        166,        0,    65520, 36900199c56310e651723de4e3ad2f2c
 0,        200,        200,        0,    65520, 908db56e975b5db07af17fdc51b12be8
 0,        233,        233,        0,    65520, 400e32490b1262009a481cc331a00e44
-0,        266,        266,        0,    65520, dc43b786cba033cc92b9921d12f7b3d7
-0,        300,        300,        0,    65520, e8c94c5965c729f5d1ef3ba4509c97c8
+0,        266,        266,        0,    65520, 9e75645daed3677e039b1851631ca5cd
+0,        300,        300,        0,    65520, 0aed9b26841c81f8328bac47072dce9f
avconv version v13_dev0-1417-g3ff8fbb, Copyright (c) 2000-2017 the Libav developers
  built on Dec  7 2017 03:02:59 with clang version 6.0.0 (trunk 319646)
Input #0, matroska,webm, from '/home/mkostylev/src/fate/fate-suite/vp9-test-vectors/vp90-2-03-size-210x208.webm':
  Duration: 00:00:00.33, start: 0.000000, bitrate: N/A
    Stream #0:0(eng): Video: vp9
      yuv420p, 210x208, PAR 1:1 DAR 105:104
      29.97 fps, 1k tbn (default)
    Side data:
      stereo3d: 2D
Stream mapping:
  Stream #0:0 -> #0:0 (vp9 (native) -> rawvideo (native))
Press ctrl-c to stop encoding
Output #0, framemd5, to 'pipe:':
  Metadata:
    encoder         : Lavf58.1.0
    Stream #0:0(eng): Video: rawvideo [I420 / 0x30323449]
      yuv420p, 210x208 [PAR 1:1 DAR 105:104], q=2-31, 200 kb/s, PAR 1:1 DAR 105:104
      1k tbn (default)
    Metadata:
      encoder         : Lavc58.5.0 rawvideo
frame=   10 fps=  0 q=-0.0 Lsize=       1kB time=0.30 bitrate=  21.7kbits/s    
video:640kB audio:0kB other streams:0kB global headers:0kB muxing overhead: unknown
diffstderrvp9-03-size-226x1961v13_dev0-1415-ge171022
--- /home/mkostylev/src/fate/src/tests/ref/fate/vp9-03-size-226x196	2017-11-28 18:24:41.271850117 +0300
+++ tests/data/fate/vp9-03-size-226x196	2017-12-07 03:03:20.967881065 +0300
@@ -8,4 +8,4 @@
 0,        200,        200,        0,    66444, 21a9fd5e78212fe71719e173844bc6e6
 0,        233,        233,        0,    66444, 81b3919208e345d93dde62740b47dd93
 0,        266,        266,        0,    66444, df010555a929ba88a2f25c6267e3786e
-0,        300,        300,        0,    66444, d2cff8282e5e7a5bbd879c73df0670c3
+0,        300,        300,        0,    66444, fd2f08c2aa8dc0d2b6a833736b2cce7a
avconv version v13_dev0-1417-g3ff8fbb, Copyright (c) 2000-2017 the Libav developers
  built on Dec  7 2017 03:02:59 with clang version 6.0.0 (trunk 319646)
Input #0, matroska,webm, from '/home/mkostylev/src/fate/fate-suite/vp9-test-vectors/vp90-2-03-size-226x196.webm':
  Duration: 00:00:00.33, start: 0.000000, bitrate: N/A
    Stream #0:0(eng): Video: vp9
      yuv420p, 226x196, PAR 1:1 DAR 113:98
      29.97 fps, 1k tbn (default)
    Side data:
      stereo3d: 2D
Stream mapping:
  Stream #0:0 -> #0:0 (vp9 (native) -> rawvideo (native))
Press ctrl-c to stop encoding
Output #0, framemd5, to 'pipe:':
  Metadata:
    encoder         : Lavf58.1.0
    Stream #0:0(eng): Video: rawvideo [I420 / 0x30323449]
      yuv420p, 226x196 [PAR 1:1 DAR 113:98], q=2-31, 200 kb/s, PAR 1:1 DAR 113:98
      1k tbn (default)
    Metadata:
      encoder         : Lavc58.5.0 rawvideo
frame=   10 fps=  0 q=-0.0 Lsize=       1kB time=0.30 bitrate=  21.7kbits/s    
video:649kB audio:0kB other streams:0kB global headers:0kB muxing overhead: unknown
diffstderrvp9-03-size-226x2261v13_dev0-1415-ge171022
--- /home/mkostylev/src/fate/src/tests/ref/fate/vp9-03-size-226x226	2017-11-28 18:24:41.271850117 +0300
+++ tests/data/fate/vp9-03-size-226x226	2017-12-07 03:03:20.987881686 +0300
@@ -7,5 +7,5 @@
 0,        166,        166,        0,    76614, b2379c4b28dca10e67ac58631f9731c0
 0,        200,        200,        0,    76614, b16fd651884340a428cea3fe0ac18ba6
 0,        233,        233,        0,    76614, cb65cd4c421cfd6a19fb123ec27abbe6
-0,        266,        266,        0,    76614, 7f1d2686b9808de8ecc723b18136d57d
-0,        300,        300,        0,    76614, da7fd4bff4b6db0221c42492876c5c4d
+0,        266,        266,        0,    76614, dd03e2c726b347cc3f99dc6a34c41122
+0,        300,        300,        0,    76614, 4184682a4f11d775e75940fc8bff10ec
avconv version v13_dev0-1417-g3ff8fbb, Copyright (c) 2000-2017 the Libav developers
  built on Dec  7 2017 03:02:59 with clang version 6.0.0 (trunk 319646)
Input #0, matroska,webm, from '/home/mkostylev/src/fate/fate-suite/vp9-test-vectors/vp90-2-03-size-226x226.webm':
  Duration: 00:00:00.33, start: 0.000000, bitrate: N/A
    Stream #0:0(eng): Video: vp9
      yuv420p, 226x226, PAR 1:1 DAR 1:1
      29.97 fps, 1k tbn (default)
    Side data:
      stereo3d: 2D
Stream mapping:
  Stream #0:0 -> #0:0 (vp9 (native) -> rawvideo (native))
Press ctrl-c to stop encoding
Output #0, framemd5, to 'pipe:':
  Metadata:
    encoder         : Lavf58.1.0
    Stream #0:0(eng): Video: rawvideo [I420 / 0x30323449]
      yuv420p, 226x226 [PAR 1:1 DAR 1:1], q=2-31, 200 kb/s, PAR 1:1 DAR 1:1
      1k tbn (default)
    Metadata:
      encoder         : Lavc58.5.0 rawvideo
frame=   10 fps=  0 q=-0.0 Lsize=       1kB time=0.30 bitrate=  21.7kbits/s    
video:748kB audio:0kB other streams:0kB global headers:0kB muxing overhead: unknown
diffstderrvp9-2pass-akiyo1v13_dev0-1415-ge171022
--- /home/mkostylev/src/fate/src/tests/ref/fate/vp9-2pass-akiyo	2017-11-28 18:24:41.271850117 +0300
+++ tests/data/fate/vp9-2pass-akiyo	2017-12-07 03:03:21.027882929 +0300
@@ -13,39 +13,39 @@
 0,        367,        367,        0,   152064, 29bb87bdebd078f8dd953a70def6c4dc
 0,        400,        400,        0,   152064, c57f7bc772f6143a22edaf926f92de5f
 0,        433,        433,        0,   152064, 39f2fc755d4bc2cc5ec077035382be22
-0,        467,        467,        0,   152064, 000ec9c75374f6d74a5e61189e6fd782
-0,        500,        500,        0,   152064, 3027187c9bdb2a755d14513b7e597bb1
-0,        533,        533,        0,   152064, 2b3129659df2b3aa10b9398c50301e00
-0,        567,        567,        0,   152064, e23bcacf1cafca9a7959508b33e63907
-0,        600,        600,        0,   152064, fe0382dd155284998a0d7eb7effb5adf
-0,        633,        633,        0,   152064, e0a487860dd0df3d865971b483fab3e9
-0,        667,        667,        0,   152064, 7ca757c55b0ea4779cdfa3a535f8f234
-0,        700,        700,        0,   152064, 1a276d27f4ce0e2720e25dbed2e524ae
-0,        734,        734,        0,   152064, dd39bc322c8bdce196a9c2129bcb5d6e
-0,        767,        767,        0,   152064, 63e295427977d645462e0fb3277ccb53
-0,        800,        800,        0,   152064, e9a35655c71da22fb0c7865e0bbc91b8
-0,        834,        834,        0,   152064, 5903bcbccabb3366382b37bf08119dde
-0,        867,        867,        0,   152064, 3b6ce09353b07b193914a71ca2334d8c
-0,        900,        900,        0,   152064, cb3731eb5dbe338125c0a7d6b4bf2868
-0,        934,        934,        0,   152064, 0837c62b54912ed06f7f755894ad3f6b
-0,        967,        967,        0,   152064, 7f215dc14d8e280fc18ad3fb3122fa58
-0,       1001,       1001,        0,   152064, 6dafaf5adc45fead74f0153e3764b17d
-0,       1034,       1034,        0,   152064, e19c8274ee6377dbf005f6516a81c413
-0,       1067,       1067,        0,   152064, 358cbf29bd136d2f9dcb60ab82a2e9e5
-0,       1101,       1101,        0,   152064, 2276d4670ff35c3a76c27c3a5810eea3
-0,       1134,       1134,        0,   152064, 636dd3390d4011c377915d7d3acc9ee1
-0,       1167,       1167,        0,   152064, 5e7a1ed17d80168567d61987425f4e60
-0,       1201,       1201,        0,   152064, c10a4830c5f268888789fccd16c0cc0e
-0,       1234,       1234,        0,   152064, 298ef49418d730a031ff23311031c969
-0,       1267,       1267,        0,   152064, 4dd2249e13cda0f99fa46786d345c96a
-0,       1301,       1301,        0,   152064, 24232dbc6e35a069c60422c4c23dfa51
-0,       1334,       1334,        0,   152064, ae8751c5ac168d6aa4499fe69f018ae2
-0,       1368,       1368,        0,   152064, 6a3a7e60a569e7415f2c3a1453e4dc38
-0,       1401,       1401,        0,   152064, 5475af1c118d1b7cc0a357bc434241a8
-0,       1434,       1434,        0,   152064, c6b5ab39e630e66e8f09698fd1dfa160
-0,       1468,       1468,        0,   152064, f1c0310adf115456167e3fa790e43dde
-0,       1501,       1501,        0,   152064, 3028296307b47d10156fc9657693edc3
-0,       1534,       1534,        0,   152064, 0903dabcb8ac707b423b222ac5bb4898
-0,       1568,       1568,        0,   152064, 713cf71b994e2c85ed577062814c5732
-0,       1601,       1601,        0,   152064, 674f56b9cccf5c9d1f88f68c3996a671
-0,       1634,       1634,        0,   152064, f63732c2ff823960d8b62d866dfb5e6a
+0,        467,        467,        0,   152064, a79ec6940ccf82457918fa8a5fd68dda
+0,        500,        500,        0,   152064, a412b257192e0b45ac0ea7f819ba663e
+0,        533,        533,        0,   152064, f5b5f7d7905ee756f6e2c3ac20ac0488
+0,        567,        567,        0,   152064, 092ff1426782792723695734c96bae2e
+0,        600,        600,        0,   152064, 692eeb2f912035762c597b5d05a48532
+0,        633,        633,        0,   152064, 913e1b928c6f508aaf05b4bac7ad39d4
+0,        667,        667,        0,   152064, c65a73522a14d2d421359912ef4b2c9b
+0,        700,        700,        0,   152064, 6e0b49bf66a35f60d84394bfbe4658cf
+0,        734,        734,        0,   152064, 118ceaf26206f29a246e6d0b7209bccd
+0,        767,        767,        0,   152064, 7c765e2c18920c667dfadf579a7ccf57
+0,        800,        800,        0,   152064, ce3b9725787879c11b9d5c40754a818b
+0,        834,        834,        0,   152064, 61f39dad9f5b0f36b00370e274eacc2e
+0,        867,        867,        0,   152064, 69b272dec6e7585d6eaf7e733667cbe1
+0,        900,        900,        0,   152064, 01a87d239f63fb7e9077cc10d39819d1
+0,        934,        934,        0,   152064, a749039f399caa60f67fce6a71a66f68
+0,        967,        967,        0,   152064, 63f9b76e6820c1d413ba2e889f057050
+0,       1001,       1001,        0,   152064, 9840c9676b9755f1d611db4f5014283e
+0,       1034,       1034,        0,   152064, ed1f92ee8cd2d43141527e5c6b5f7d76
+0,       1067,       1067,        0,   152064, 448f9f0659a1f60c2baae99d46fa9625
+0,       1101,       1101,        0,   152064, 29689e35e27162411e4533716dab012f
+0,       1134,       1134,        0,   152064, a3101f31f85a13af48e2b8ca8dc17f59
+0,       1167,       1167,        0,   152064, b863ea4827b9d45e2f11db0675a8bf97
+0,       1201,       1201,        0,   152064, f03674c8a886a26f7e7d75578249bf95
+0,       1234,       1234,        0,   152064, d55afe80bd9ec1920a472d9226e50750
+0,       1267,       1267,        0,   152064, f07f043ddca1218e86f5c5a17976ff69
+0,       1301,       1301,        0,   152064, 95a9c13f74f346952d92c3fbb89764cd
+0,       1334,       1334,        0,   152064, 0f5d05d64f0276e1664b04faa5b7e40e
+0,       1368,       1368,        0,   152064, 4a1f0befb2ac1bbe589c9e7835d95bf5
+0,       1401,       1401,        0,   152064, d016a8d104118b3cac34cffeb7d970c7
+0,       1434,       1434,        0,   152064, b5167475e0098cfb5d35525f8b031c43
+0,       1468,       1468,        0,   152064, 16b4f7782863b652176ac323d1644c46
+0,       1501,       1501,        0,   152064, 90c47e3e0aab4fe1cbe34375d853ef2d
+0,       1534,       1534,        0,   152064, 122e744e615ab12c03afa3be28216528
+0,       1568,       1568,        0,   152064, 64d56d2723d77fa5626477459a7929a7
+0,       1601,       1601,        0,   152064, fc0f9740711168e15a7f59bc1b1f2751
+0,       1634,       1634,        0,   152064, 5ff24fbaa651fe58868934f903bab720
avconv version v13_dev0-1417-g3ff8fbb, Copyright (c) 2000-2017 the Libav developers
  built on Dec  7 2017 03:02:59 with clang version 6.0.0 (trunk 319646)
Input #0, matroska,webm, from '/home/mkostylev/src/fate/fate-suite/vp9-test-vectors/vp90-2-2pass-akiyo.webm':
  Duration: 00:00:01.66, start: 0.000000, bitrate: N/A
    Stream #0:0(eng): Video: vp9
      yuv420p, 352x288, PAR 1:1 DAR 11:9
      29.97 fps, 1k tbn (default)
    Side data:
      stereo3d: 2D
Stream mapping:
  Stream #0:0 -> #0:0 (vp9 (native) -> rawvideo (native))
Press ctrl-c to stop encoding
Output #0, framemd5, to 'pipe:':
  Metadata:
    encoder         : Lavf58.1.0
    Stream #0:0(eng): Video: rawvideo [I420 / 0x30323449]
      yuv420p, 352x288 [PAR 1:1 DAR 11:9], q=2-31, 200 kb/s, PAR 1:1 DAR 11:9
      1k tbn (default)
    Metadata:
      encoder         : Lavc58.5.0 rawvideo
frame=   50 fps=  0 q=-0.0 Lsize=       4kB time=1.63 bitrate=  19.7kbits/s    
video:7425kB audio:0kB other streams:0kB global headers:0kB muxing overhead: unknown
diffstderrvp9-tiling-pedestrian1v13_dev0-1415-ge171022
--- /home/mkostylev/src/fate/src/tests/ref/fate/vp9-tiling-pedestrian	2017-11-28 18:24:41.271850117 +0300
+++ tests/data/fate/vp9-tiling-pedestrian	2017-12-07 03:03:21.063884048 +0300
@@ -1,3 +1,3 @@
 #tb 0: 1/1000
 0,          0,          0,        0,  3110400, 1e6c2e768a5107e57e6d626f0511193a
-0,         40,         40,        0,  3110400, 972d3e2b5ee2e3b0907218a243e4cb7d
+0,         40,         40,        0,  3110400, 8f7050ef4b29b156256cfbe236fdbd80
avconv version v13_dev0-1417-g3ff8fbb, Copyright (c) 2000-2017 the Libav developers
  built on Dec  7 2017 03:02:59 with clang version 6.0.0 (trunk 319646)
Input #0, matroska,webm, from '/home/mkostylev/src/fate/fate-suite/vp9-test-vectors/vp90-2-tiling-pedestrian.webm':
  Duration: 00:00:00.08, start: 0.000000, bitrate: N/A
    Stream #0:0(eng): Video: vp9
      yuv420p, 1920x1080, PAR 1:1 DAR 16:9
      1k tbn (default)
    Side data:
      stereo3d: 2D
Stream mapping:
  Stream #0:0 -> #0:0 (vp9 (native) -> rawvideo (native))
Press ctrl-c to stop encoding
Output #0, framemd5, to 'pipe:':
  Metadata:
    encoder         : Lavf58.1.0
    Stream #0:0(eng): Video: rawvideo [I420 / 0x30323449]
      yuv420p, 1920x1080 [PAR 1:1 DAR 16:9], q=2-31, 200 kb/s, PAR 1:1 DAR 16:9
      1k tbn (default)
    Metadata:
      encoder         : Lavc58.5.0 rawvideo
frame=    2 fps=  0 q=-0.0 Lsize=       0kB time=0.04 bitrate=  34.8kbits/s    
video:6075kB audio:0kB other streams:0kB global headers:0kB muxing overhead: unknown
diffstderrwmapro-2ch1v13_dev0-1415-ge171022
No diff output recorded
avconv version v13_dev0-1417-g3ff8fbb, Copyright (c) 2000-2017 the Libav developers
  built on Dec  7 2017 03:02:59 with clang version 6.0.0 (trunk 319646)
Input #0, asf, from '/home/mkostylev/src/fate/fate-suite/wmapro/Beethovens_9th-1_small.wma':
  Metadata:
    creation_time   : 2009-04-22 19:24:02
    WMFSDKVersion   : 10.00.00.3802
    WMFSDKNeeded    : 0.0.0.0000
    IsVBR           : 1
    ASFLeakyBucketPairs: 
  Duration: 00:01:15.64, start: 0.000000, bitrate: 10 kb/s
    Stream #0:0(swe): Audio: wmapro [b[1][0][0] / 0x0162]
      48000 Hz, stereo, fltp, 287 kb/s
    Metadata:
      IsVBR           : 1
      DeviceConformanceTemplate: M1
      WM/WMADRCPeakReference: 30403
      WM/WMADRCPeakTarget: 30403
      WM/WMADRCAverageReference: 3140
      WM/WMADRCAverageTarget: 3140
Codec AVOption threads () specified for input file #0 (/home/mkostylev/src/fate/fate-suite/wmapro/Beethovens_9th-1_small.wma) has not been used for any stream. The most likely reason is either wrong type (e.g. a video option with no video streams) or that it is a private option of some decoder which was not actually used for any stream.
Codec AVOption thread_type (select multithreading type) specified for input file #0 (/home/mkostylev/src/fate/fate-suite/wmapro/Beethovens_9th-1_small.wma) has not been used for any stream. The most likely reason is either wrong type (e.g. a video option with no video streams) or that it is a private option of some decoder which was not actually used for any stream.
Stream mapping:
  Stream #0:0 -> #0:0 (wmapro (native) -> pcm_s16le (native))
Press ctrl-c to stop encoding
[wmapro @ 0xa9f6320] frame[0] would have to skip 12452 bits
Error while decoding stream #0:0
[wmapro @ 0xa9f6320] Channel transform bit is not implemented. Update your Libav version to the newest one from Git. If the problem still occurs, it means that your file has a feature which has not been implemented.
[wmapro @ 0xa9f6320] If you want to help, upload a sample of this file to ftp://upload.libav.org/incoming/ and contact the libav-devel mailing list.
Error while decoding stream #0:0
[wmapro @ 0xa9f6320] Channel transform bit is not implemented. Update your Libav version to the newest one from Git. If the problem still occurs, it means that your file has a feature which has not been implemented.
[wmapro @ 0xa9f6320] If you want to help, upload a sample of this file to ftp://upload.libav.org/incoming/ and contact the libav-devel mailing list.
Error while decoding stream #0:0
[wmapro @ 0xa9f6320] Channel transform bit is not implemented. Update your Libav version to the newest one from Git. If the problem still occurs, it means that your file has a feature which has not been implemented.
[wmapro @ 0xa9f6320] If you want to help, upload a sample of this file to ftp://upload.libav.org/incoming/ and contact the libav-devel mailing list.
Error while decoding stream #0:0
[wmapro @ 0xa9f6320] Channel transform bit is not implemented. Update your Libav version to the newest one from Git. If the problem still occurs, it means that your file has a feature which has not been implemented.
[wmapro @ 0xa9f6320] If you want to help, upload a sample of this file to ftp://upload.libav.org/incoming/ and contact the libav-devel mailing list.
Error while decoding stream #0:0
[wmapro @ 0xa9f6320] Channel transform bit is not implemented. Update your Libav version to the newest one from Git. If the problem still occurs, it means that your file has a feature which has not been implemented.
[wmapro @ 0xa9f6320] If you want to help, upload a sample of this file to ftp://upload.libav.org/incoming/ and contact the libav-devel mailing list.
Error while decoding stream #0:0
Nothing was written into output file 0 (pipe:), because at least one of its streams received no packets.
size=       0kB time=10000000000.00 bitrate=   0.0kbits/s    
video:0kB audio:0kB other streams:0kB global headers:0kB muxing overhead: unknown
diffstderrwmapro-5.11v13_dev0-1415-ge171022
No diff output recorded
avconv version v13_dev0-1417-g3ff8fbb, Copyright (c) 2000-2017 the Libav developers
  built on Dec  7 2017 03:02:59 with clang version 6.0.0 (trunk 319646)
Input #0, asf, from '/home/mkostylev/src/fate/fate-suite/wmapro/latin_192_mulitchannel_cut.wma':
  Metadata:
    creation_time   : 2009-04-22 19:23:46
    WMFSDKVersion   : 9.00.00.2796
    WMFSDKNeeded    : 0.0.0.0000
    IsVBR           : 1
    ASFLeakyBucketPairs: 
  Duration: 00:01:05.07, start: 0.000000, bitrate: 3 kb/s
    Stream #0:0(eng): Audio: wmapro [b[1][0][0] / 0x0162]
      48000 Hz, 5.1, fltp, 196 kb/s
    Metadata:
      IsVBR           : 1
      DeviceConformanceTemplate: M1
      WM/WMADRCPeakReference: 30587
      WM/WMADRCPeakTarget: 30587
      WM/WMADRCAverageReference: 3801
      WM/WMADRCAverageTarget: 3801
Codec AVOption threads () specified for input file #0 (/home/mkostylev/src/fate/fate-suite/wmapro/latin_192_mulitchannel_cut.wma) has not been used for any stream. The most likely reason is either wrong type (e.g. a video option with no video streams) or that it is a private option of some decoder which was not actually used for any stream.
Codec AVOption thread_type (select multithreading type) specified for input file #0 (/home/mkostylev/src/fate/fate-suite/wmapro/latin_192_mulitchannel_cut.wma) has not been used for any stream. The most likely reason is either wrong type (e.g. a video option with no video streams) or that it is a private option of some decoder which was not actually used for any stream.
Stream mapping:
  Stream #0:0 -> #0:0 (wmapro (native) -> pcm_s16le (native))
Press ctrl-c to stop encoding
[wmapro @ 0x9d1f9a0] broken frame: subframe_len 16
Error while decoding stream #0:0
[wmapro @ 0x9d1f9a0] Unknown channel transform type is not implemented. Update your Libav version to the newest one from Git. If the problem still occurs, it means that your file has a feature which has not been implemented.
[wmapro @ 0x9d1f9a0] If you want to help, upload a sample of this file to ftp://upload.libav.org/incoming/ and contact the libav-devel mailing list.
Error while decoding stream #0:0
[wmapro @ 0x9d1f9a0] Channel transform bit is not implemented. Update your Libav version to the newest one from Git. If the problem still occurs, it means that your file has a feature which has not been implemented.
[wmapro @ 0x9d1f9a0] If you want to help, upload a sample of this file to ftp://upload.libav.org/incoming/ and contact the libav-devel mailing list.
Error while decoding stream #0:0
[wmapro @ 0x9d1f9a0] broken frame: subframe_len 16
Error while decoding stream #0:0
Nothing was written into output file 0 (pipe:), because at least one of its streams received no packets.
size=       0kB time=10000000000.00 bitrate=   0.0kbits/s    
video:0kB audio:0kB other streams:0kB global headers:0kB muxing overhead: unknown
diffstderrwmapro-ism1v13_dev0-1415-ge171022
No diff output recorded
avconv version v13_dev0-1417-g3ff8fbb, Copyright (c) 2000-2017 the Libav developers
  built on Dec  7 2017 03:02:59 with clang version 6.0.0 (trunk 319646)
[mov,mp4,m4a,3gp,3g2,mj2 @ 0x9b53140] Non-increasing DTS in stream 1: packet 2 with DTS 840000, packet 3 with DTS 420000
[mov,mp4,m4a,3gp,3g2,mj2 @ 0x9b53140] Non-increasing DTS in stream 1: packet 4 with DTS 1670000, packet 5 with DTS 1250000
[mov,mp4,m4a,3gp,3g2,mj2 @ 0x9b53140] Non-increasing DTS in stream 1: packet 6 with DTS 2500000, packet 7 with DTS 2090000
[mov,mp4,m4a,3gp,3g2,mj2 @ 0x9b53140] Non-increasing DTS in stream 1: packet 8 with DTS 3340000, packet 9 with DTS 2920000
[mov,mp4,m4a,3gp,3g2,mj2 @ 0x9b53140] Non-increasing DTS in stream 1: packet 10 with DTS 4170000, packet 11 with DTS 3750000
[mov,mp4,m4a,3gp,3g2,mj2 @ 0x9b53140] Non-increasing DTS in stream 1: packet 12 with DTS 5000000, packet 13 with DTS 4590000
[mov,mp4,m4a,3gp,3g2,mj2 @ 0x9b53140] Non-increasing DTS in stream 1: packet 14 with DTS 5840000, packet 15 with DTS 5420000
[mov,mp4,m4a,3gp,3g2,mj2 @ 0x9b53140] Non-increasing DTS in stream 1: packet 16 with DTS 6670000, packet 17 with DTS 6250000
[mov,mp4,m4a,3gp,3g2,mj2 @ 0x9b53140] Non-increasing DTS in stream 1: packet 18 with DTS 7500000, packet 19 with DTS 7090000
Input #0, mov,mp4,m4a,3gp,3g2,mj2, from '/home/mkostylev/src/fate/fate-suite/isom/vc1-wmapro.ism':
  Metadata:
    major_brand     : isml
    minor_version   : 1
    compatible_brands: piffiso2
    creation_time   : 2012-01-06 01:48:59
  Duration: 00:00:05.07, start: 0.041667, bitrate: 310 kb/s
    Stream #0:0(und): Audio: wmapro [b[1][0][0] / 0x0162]
      44100 Hz, stereo, fltp, 113 kb/s (default)
    Metadata:
      creation_time   : 2012-01-06 01:48:59
      handler_name    : Audio
    Stream #0:1(und): Video: vc1 (Advanced) [vc[45]1 / 0x312D6376]
      yuv420p, 240x104 [PAR 156:156 DAR 30:13], 198 kb/s
      10000k tbn (default)
    Metadata:
      creation_time   : 2012-01-06 01:48:59
      handler_name    : Video
Stream mapping:
  Stream #0:0 -> #0:0 (wmapro (native) -> pcm_s16le (native))
Press ctrl-c to stop encoding
[wmapro @ 0x9b560e0] broken frame: subframe_len 64
Error while decoding stream #0:0
[wmapro @ 0x9b560e0] Reserved bit is not implemented. Update your Libav version to the newest one from Git. If the problem still occurs, it means that your file has a feature which has not been implemented.
[wmapro @ 0x9b560e0] If you want to help, upload a sample of this file to ftp://upload.libav.org/incoming/ and contact the libav-devel mailing list.
Error while decoding stream #0:0
[wmapro @ 0x9b560e0] Reserved bit is not implemented. Update your Libav version to the newest one from Git. If the problem still occurs, it means that your file has a feature which has not been implemented.
[wmapro @ 0x9b560e0] If you want to help, upload a sample of this file to ftp://upload.libav.org/incoming/ and contact the libav-devel mailing list.
Error while decoding stream #0:0
[wmapro @ 0x9b560e0] Reserved bit is not implemented. Update your Libav version to the newest one from Git. If the problem still occurs, it means that your file has a feature which has not been implemented.
[wmapro @ 0x9b560e0] If you want to help, upload a sample of this file to ftp://upload.libav.org/incoming/ and contact the libav-devel mailing list.
Error while decoding stream #0:0
[wmapro @ 0x9b560e0] Reserved bit is not implemented. Update your Libav version to the newest one from Git. If the problem still occurs, it means that your file has a feature which has not been implemented.
[wmapro @ 0x9b560e0] If you want to help, upload a sample of this file to ftp://upload.libav.org/incoming/ and contact the libav-devel mailing list.
Error while decoding stream #0:0
[wmapro @ 0x9b560e0] Reserved bit is not implemented. Update your Libav version to the newest one from Git. If the problem still occurs, it means that your file has a feature which has not been implemented.
[wmapro @ 0x9b560e0] If you want to help, upload a sample of this file to ftp://upload.libav.org/incoming/ and contact the libav-devel mailing list.
Error while decoding stream #0:0
[wmapro @ 0x9b560e0] Reserved bit is not implemented. Update your Libav version to the newest one from Git. If the problem still occurs, it means that your file has a feature which has not been implemented.
[wmapro @ 0x9b560e0] If you want to help, upload a sample of this file to ftp://upload.libav.org/incoming/ and contact the libav-devel mailing list.
Error while decoding stream #0:0
[wmapro @ 0x9b560e0] Reserved bit is not implemented. Update your Libav version to the newest one from Git. If the problem still occurs, it means that your file has a feature which has not been implemented.
[wmapro @ 0x9b560e0] If you want to help, upload a sample of this file to ftp://upload.libav.org/incoming/ and contact the libav-devel mailing list.
Error while decoding stream #0:0
[wmapro @ 0x9b560e0] Reserved bit is not implemented. Update your Libav version to the newest one from Git. If the problem still occurs, it means that your file has a feature which has not been implemented.
[wmapro @ 0x9b560e0] If you want to help, upload a sample of this file to ftp://upload.libav.org/incoming/ and contact the libav-devel mailing list.
Error while decoding stream #0:0
[wmapro @ 0x9b560e0] Reserved bit is not implemented. Update your Libav version to the newest one from Git. If the problem still occurs, it means that your file has a feature which has not been implemented.
[wmapro @ 0x9b560e0] If you want to help, upload a sample of this file to ftp://upload.libav.org/incoming/ and contact the libav-devel mailing list.
Error while decoding stream #0:0
[wmapro @ 0x9b560e0] Reserved bit is not implemented. Update your Libav version to the newest one from Git. If the problem still occurs, it means that your file has a feature which has not been implemented.
[wmapro @ 0x9b560e0] If you want to help, upload a sample of this file to ftp://upload.libav.org/incoming/ and contact the libav-devel mailing list.
Error while decoding stream #0:0
[wmapro @ 0x9b560e0] Reserved bit is not implemented. Update your Libav version to the newest one from Git. If the problem still occurs, it means that your file has a feature which has not been implemented.
[wmapro @ 0x9b560e0] If you want to help, upload a sample of this file to ftp://upload.libav.org/incoming/ and contact the libav-devel mailing list.
Error while decoding stream #0:0
[wmapro @ 0x9b560e0] Reserved bit is not implemented. Update your Libav version to the newest one from Git. If the problem still occurs, it means that your file has a feature which has not been implemented.
[wmapro @ 0x9b560e0] If you want to help, upload a sample of this file to ftp://upload.libav.org/incoming/ and contact the libav-devel mailing list.
Error while decoding stream #0:0
[wmapro @ 0x9b560e0] broken frame: subframe_len 16
Error while decoding stream #0:0
[wmapro @ 0x9b560e0] broken frame: subframe_len 32
Error while decoding stream #0:0
[wmapro @ 0x9b560e0] Reserved bit is not implemented. Update your Libav version to the newest one from Git. If the problem still occurs, it means that your file has a feature which has not been implemented.
[wmapro @ 0x9b560e0] If you want to help, upload a sample of this file to ftp://upload.libav.org/incoming/ and contact the libav-devel mailing list.
Error while decoding stream #0:0
Nothing was written into output file 0 (pipe:), because at least one of its streams received no packets.
size=       0kB time=10000000000.00 bitrate=   0.0kbits/s    
video:0kB audio:0kB other streams:0kB global headers:0kB muxing overhead: unknown