x86_32-linux-clang v13_dev0-1218-g95ce02b

Architecturex86
Variantx86_32
CPUgeneric
OSlinux
Ownerkostylev
Compilerclang version 5.0.0 (trunk 308163)
Configuration--prefix=/home/mkostylev/src/fate/x86_32-linux-clang/install --samples=/home/mkostylev/src/fate/fate-suite --enable-gpl --cc='ccache clang -m32' --disable-debug
Comment
Revisionv13_dev0-1218-g95ce02b
Date2017-07-17 12:49:53
Status2061 / 2066
Warnings71
Logscompile configure test
5 failed testsStatusLast good rev
diffstderrlavf-jpg1v13_dev0-1303-g2b50847
--- /home/mkostylev/src/fate/src/tests/ref/lavf/jpg	2014-04-09 00:17:25.947707876 +0400
+++ tests/data/fate/lavf-jpg	2017-07-17 15:49:01.277007625 +0300
@@ -1,3 +1,3 @@
-131878fee153a086d740543fbf2ab359 *./tests/data/images/jpg/02.jpg
-./tests/data/images/jpg/%02d.jpg CRC=0x9d770966
-28406 ./tests/data/images/jpg/02.jpg
+12752f3408a96cde8f06141995831f98 *./tests/data/images/jpg/02.jpg
+./tests/data/images/jpg/%02d.jpg CRC=0x9d9bb9e2
+28097 ./tests/data/images/jpg/02.jpg
avconv version v13_dev0-1218-g95ce02b, Copyright (c) 2000-2017 the Libav developers
  built on Jul 17 2017 15:48:46 with clang version 5.0.0 (trunk 308163)
Input #0, image2, from '/home/mkostylev/src/fate/x86_32-linux-clang/build/tests/vsynth1/%02d.pgm':
  Duration: 00:00:02.00, start: 0.000000, bitrate: N/A
    Stream #0:0: Video: pgmyuv
      yuv420p, 352x288
      25 fps, 25 tbn
Stream mapping:
  Stream #0:0 -> #0:0 (pgmyuv (native) -> mjpeg (native))
Press ctrl-c to stop encoding
Output #0, image2, to '/home/mkostylev/src/fate/x86_32-linux-clang/build/./tests/data/images/jpg/%02d.jpg':
    Stream #0:0: Video: mjpeg
      yuvj420p, pc, 352x288, q=2-31, 200 kb/s
      25 tbn
    Metadata:
      encoder         : mjpeg
    Side data:
      cpb: bitrate max/min/avg: 0/0/200000 buffer size: 0 vbv_delay: -1
frame=   12 fps=  0 q=10.0 Lsize=       0kB time=0.44 bitrate=   0.0kbits/s    
video:325kB audio:0kB other streams:0kB global headers:0kB muxing overhead: unknown
avconv version v13_dev0-1218-g95ce02b, Copyright (c) 2000-2017 the Libav developers
  built on Jul 17 2017 15:48:46 with clang version 5.0.0 (trunk 308163)
[mjpeg @ 0xadc2120] overread 8
Input #0, image2, from '/home/mkostylev/src/fate/x86_32-linux-clang/build/./tests/data/images/jpg/%02d.jpg':
  Duration: 00:00:00.48, start: 0.000000, bitrate: N/A
    Stream #0:0: Video: mjpeg
      yuvj420p, pc, bt470bg/unknown/unknown
      352x288
      25 fps, 25 tbn
Stream mapping:
  Stream #0:0 -> #0:0 (mjpeg (native) -> rawvideo (native))
Press ctrl-c to stop encoding
[mjpeg @ 0xadc2660] overread 8
Error while decoding stream #0:0
[mjpeg @ 0xadc2660] overread 8
[mjpeg @ 0xadc2660] mjpeg: unsupported coding type (c7)
    Last message repeated 1 times
Error while decoding stream #0:0
[mjpeg @ 0xadc2660] overread 8
Error while decoding stream #0:0
[mjpeg @ 0xadc2660] overread 8
Error while decoding stream #0:0
[mjpeg @ 0xadc2660] overread 8
[mjpeg @ 0xadc2660] only 8 bits/component accepted
Error while decoding stream #0:0
[mjpeg @ 0xadc2660] overread 8
Error while decoding stream #0:0
[mjpeg @ 0xadc2660] overread 8
Error while decoding stream #0:0
[mjpeg @ 0xadc2660] overread 8
[mjpeg @ 0xadc2660] only 8 bits/component accepted
Error while decoding stream #0:0
[mjpeg @ 0xadc2660] overread 8
Error while decoding stream #0:0
[mjpeg @ 0xadc2660] overread 8
Error while decoding stream #0:0
[mjpeg @ 0xadc2660] overread 8
Output #0, crc, to '/home/mkostylev/src/fate/x86_32-linux-clang/build/./tests/data/jpg.lavf.crc':
  Metadata:
    encoder         : Lavf58.0.0
    Stream #0:0: Video: rawvideo [I420 / 0x30323449]
      yuvj420p, 352x288, q=2-31, 200 kb/s
      25 tbn
    Metadata:
      encoder         : Lavc58.4.0 rawvideo
[mjpeg @ 0xadc2660] overread 8
[mjpeg @ 0xadc2660] mjpeg: unsupported coding type (c7)
Error while decoding stream #0:0
frame=    1 fps=  0 q=-0.0 Lsize=       0kB time=0.40 bitrate=   0.3kbits/s    
video:148kB audio:0kB other streams:0kB global headers:0kB muxing overhead: unknown
diffstderrvsynth1-ljpeg1v13_dev0-1303-g2b50847
--- /home/mkostylev/src/fate/src/tests/ref/vsynth/vsynth1-ljpeg	2014-04-09 00:17:25.955284111 +0400
+++ tests/data/fate/vsynth1-ljpeg	2017-07-17 15:49:39.504044623 +0300
@@ -1,4 +1,4 @@
-aed2be6710c0dddacfa410dff7ce7e79 *tests/data/fate/vsynth1-ljpeg.avi
-6312924 tests/data/fate/vsynth1-ljpeg.avi
-c5ccac874dbf808e9088bc3107860042 *tests/data/fate/vsynth1-ljpeg.out.rawvideo
-stddev:    0.00 PSNR:999.99 MAXDIFF:    0 bytes:  7603200/  7603200
+c0b86e5ae3e612ae1581310fd024b303 *tests/data/fate/vsynth1-ljpeg.avi
+6276658 tests/data/fate/vsynth1-ljpeg.avi
+83ec9870e2f8ea0056909b681afdf24f *tests/data/fate/vsynth1-ljpeg.out.rawvideo
+stddev:   67.34 PSNR: 11.56 MAXDIFF:  225 bytes:  7603200/  5018112
avconv version v13_dev0-1218-g95ce02b, Copyright (c) 2000-2017 the Libav developers
  built on Jul 17 2017 15:48:46 with clang version 5.0.0 (trunk 308163)
[rawvideo @ 0x92cf380] Estimating duration from bitrate, this may be inaccurate
Input #0, rawvideo, from '/home/mkostylev/src/fate/x86_32-linux-clang/build/tests/data/vsynth1.yuv':
  Duration: N/A, start: 0.000000, bitrate: N/A
    Stream #0:0: Video: rawvideo
      yuv420p, 352x288
      25 fps, 25 tbn
Stream mapping:
  Stream #0:0 -> #0:0 (rawvideo (native) -> ljpeg (native))
Press ctrl-c to stop encoding
Output #0, avi, to '/home/mkostylev/src/fate/x86_32-linux-clang/build/tests/data/fate/vsynth1-ljpeg.avi':
    Stream #0:0: Video: ljpeg [LJPG / 0x47504A4C]
      yuv420p, 352x288, q=2-31, 200 kb/s
      25 fps, 25 tbn
    Metadata:
      encoder         : ljpeg
frame=   50 fps=  0 q=-0.0 Lsize=    6130kB time=1.96 bitrate=25619.0kbits/s    
video:6123kB audio:0kB other streams:0kB global headers:0kB muxing overhead: 0.109669%
avconv version v13_dev0-1218-g95ce02b, Copyright (c) 2000-2017 the Libav developers
  built on Jul 17 2017 15:48:46 with clang version 5.0.0 (trunk 308163)
Input #0, avi, from '/home/mkostylev/src/fate/x86_32-linux-clang/build/tests/data/fate/vsynth1-ljpeg.avi':
  Duration: 00:00:02.00, start: 0.000000, bitrate: 25106 kb/s
    Stream #0:0: Video: mjpeg [LJPG / 0x47504A4C]
      yuv420p, tv, bt470bg/unknown/unknown
      352x288
      25 fps, 25 tbn
Stream mapping:
  Stream #0:0 -> #0:0 (mjpeg (native) -> rawvideo (native))
Press ctrl-c to stop encoding
Output #0, rawvideo, to '/home/mkostylev/src/fate/x86_32-linux-clang/build/tests/data/fate/vsynth1-ljpeg.out.rawvideo':
    Stream #0:0: Video: rawvideo [I420 / 0x30323449]
      yuv420p, 352x288, q=2-31, 200 kb/s
      25 tbn
    Metadata:
      encoder         : rawvideo
Error while decoding stream #0:0
[mjpeg @ 0xaed9020] mjpeg: unsupported coding type (ce)
Error while decoding stream #0:0
[mjpeg @ 0xaed9020] huffman table decode error
Error while decoding stream #0:0
    Last message repeated 1 times
[mjpeg @ 0xaed9020] mjpeg: unsupported coding type (c9)
Error while decoding stream #0:0
    Last message repeated 1 times
[mjpeg @ 0xaed9020] mjpeg: unsupported coding type (cf)
[mjpeg @ 0xaed9020] huffman table decode error
Error while decoding stream #0:0
[mjpeg @ 0xaed9020] dqt: 16-bit precision
Error while decoding stream #0:0
[mjpeg @ 0xaed9020] huffman table decode error
Error while decoding stream #0:0
    Last message repeated 1 times
[mjpeg @ 0xaed9020] mjpeg: unsupported coding type (c9)
[mjpeg @ 0xaed9020] mjpeg: unsupported coding type (c8)
[mjpeg @ 0xaed9020] huffman table decode error
Error while decoding stream #0:0
[mjpeg @ 0xaed9020] [IMGUTILS @ 0xffabbca8] Picture size 61287x14106 is invalid
Error while decoding stream #0:0
[mjpeg @ 0xaed9020] huffman table decode error
Error while decoding stream #0:0
[mjpeg @ 0xaed9020] mjpeg: unsupported coding type (c7)
Error while decoding stream #0:0
    Last message repeated 1 times
[mjpeg @ 0xaed9020] mjpeg: unsupported coding type (cf)
Error while decoding stream #0:0
    Last message repeated 1 times
frame=   33 fps=  0 q=-0.0 Lsize=    4900kB time=1.88 bitrate=21353.7kbits/s    
video:4900kB audio:0kB other streams:0kB global headers:0kB muxing overhead: 0.000000%
diffstderrvsynth1-mjpeg1v13_dev0-1303-g2b50847
--- /home/mkostylev/src/fate/src/tests/ref/vsynth/vsynth1-mjpeg	2014-04-09 00:17:25.955284111 +0400
+++ tests/data/fate/vsynth1-mjpeg	2017-07-17 15:49:39.456045832 +0300
@@ -1,4 +1,4 @@
-b3ff9a5a9699ceddfee9abbf1b06bb00 *tests/data/fate/vsynth1-mjpeg.avi
-1516128 tests/data/fate/vsynth1-mjpeg.avi
-c6ae81b5b896e4d05ff584311aebdb18 *tests/data/fate/vsynth1-mjpeg.out.rawvideo
-stddev:    7.87 PSNR: 30.21 MAXDIFF:   63 bytes:  7603200/  7603200
+2c22b3d74169b99f9864ffd804a01460 *tests/data/fate/vsynth1-mjpeg.avi
+1498810 tests/data/fate/vsynth1-mjpeg.avi
+56929f5f04f46dbcdfebc718e2e1132e *tests/data/fate/vsynth1-mjpeg.out.rawvideo
+stddev:  106.16 PSNR:  7.61 MAXDIFF:  239 bytes:  7603200/  2889216
avconv version v13_dev0-1218-g95ce02b, Copyright (c) 2000-2017 the Libav developers
  built on Jul 17 2017 15:48:46 with clang version 5.0.0 (trunk 308163)
[rawvideo @ 0x9943380] Estimating duration from bitrate, this may be inaccurate
Input #0, rawvideo, from '/home/mkostylev/src/fate/x86_32-linux-clang/build/tests/data/vsynth1.yuv':
  Duration: N/A, start: 0.000000, bitrate: N/A
    Stream #0:0: Video: rawvideo
      yuv420p, 352x288
      25 fps, 25 tbn
Stream mapping:
  Stream #0:0 -> #0:0 (rawvideo (native) -> mjpeg (native))
Press ctrl-c to stop encoding
Output #0, avi, to '/home/mkostylev/src/fate/x86_32-linux-clang/build/tests/data/fate/vsynth1-mjpeg.avi':
    Stream #0:0: Video: mjpeg [MJPG / 0x47504A4D]
      yuvj420p, pc, 352x288, q=2-31, 200 kb/s
      25 fps, 25 tbn
    Metadata:
      encoder         : mjpeg
    Side data:
      cpb: bitrate max/min/avg: 0/0/200000 buffer size: 0 vbv_delay: -1
frame=   50 fps=  0 q=9.0 Lsize=    1464kB time=1.96 bitrate=6117.6kbits/s    
video:1457kB audio:0kB other streams:0kB global headers:0kB muxing overhead: 0.460676%
avconv version v13_dev0-1218-g95ce02b, Copyright (c) 2000-2017 the Libav developers
  built on Jul 17 2017 15:48:46 with clang version 5.0.0 (trunk 308163)
[mjpeg @ 0x9ea3120] overread 8
Input #0, avi, from '/home/mkostylev/src/fate/x86_32-linux-clang/build/tests/data/fate/vsynth1-mjpeg.avi':
  Duration: 00:00:02.00, start: 0.000000, bitrate: 5995 kb/s
    Stream #0:0: Video: mjpeg [MJPG / 0x47504A4D]
      yuvj420p, pc, bt470bg/unknown/unknown
      352x288
      25 fps, 25 tbn
Stream mapping:
  Stream #0:0 -> #0:0 (mjpeg (native) -> rawvideo (native))
Press ctrl-c to stop encoding
[mjpeg @ 0x9ea4020] overread 8
Output #0, rawvideo, to '/home/mkostylev/src/fate/x86_32-linux-clang/build/tests/data/fate/vsynth1-mjpeg.out.rawvideo':
    Stream #0:0: Video: rawvideo [I420 / 0x30323449]
      yuv420p, 352x288, q=2-31, 200 kb/s
      25 tbn
    Metadata:
      encoder         : rawvideo
[mjpeg @ 0x9ea4020] overread 8
[mjpeg @ 0x9ea4020] dqt: 16-bit precision
Error while decoding stream #0:0
[mjpeg @ 0x9ea4020] overread 8
Error while decoding stream #0:0
[mjpeg @ 0x9ea4020] overread 8
Error while decoding stream #0:0
[mjpeg @ 0x9ea4020] overread 8
Error while decoding stream #0:0
[mjpeg @ 0x9ea4020] overread 8
Error while decoding stream #0:0
[mjpeg @ 0x9ea4020] overread 8
Error while decoding stream #0:0
[mjpeg @ 0x9ea4020] overread 8
    Last message repeated 1 times
[mjpeg @ 0x9ea4020] mjpeg: unsupported coding type (cf)
[mjpeg @ 0x9ea4020] overread 8
Error while decoding stream #0:0
[mjpeg @ 0x9ea4020] overread 8
Error while decoding stream #0:0
[mjpeg @ 0x9ea4020] overread 8
[mjpeg @ 0x9ea4020] mjpeg: unsupported coding type (c7)
[mjpeg @ 0x9ea4020] invalid id 133
Error while decoding stream #0:0
[mjpeg @ 0x9ea4020] overread 8
Error while decoding stream #0:0
[mjpeg @ 0x9ea4020] overread 8
[mjpeg @ 0x9ea4020] only 8 bits/component accepted
Error while decoding stream #0:0
[mjpeg @ 0x9ea4020] overread 8
[mjpeg @ 0x9ea4020] dqt: 16-bit precision
Error while decoding stream #0:0
[mjpeg @ 0x9ea4020] overread 8
    Last message repeated 4 times
[mjpeg @ 0x9ea4020] only 8 bits/component accepted
Error while decoding stream #0:0
[mjpeg @ 0x9ea4020] overread 8
    Last message repeated 1 times
[mjpeg @ 0x9ea4020] overread 7
[mjpeg @ 0x9ea4020] overread 8
    Last message repeated 1 times
[mjpeg @ 0x9ea4020] only 8 bits/component accepted
Error while decoding stream #0:0
[mjpeg @ 0x9ea4020] overread 8
    Last message repeated 1 times
Error while decoding stream #0:0
[mjpeg @ 0x9ea4020] overread 8
    Last message repeated 2 times
Error while decoding stream #0:0
[mjpeg @ 0x9ea4020] overread 8
    Last message repeated 1 times
Error while decoding stream #0:0
[mjpeg @ 0x9ea4020] overread 8
[mjpeg @ 0x9ea4020] overread 6
[mjpeg @ 0x9ea4020] mjpeg: unsupported coding type (c9)
    Last message repeated 1 times
Error while decoding stream #0:0
[mjpeg @ 0x9ea4020] overread 8
    Last message repeated 1 times
Error while decoding stream #0:0
[mjpeg @ 0x9ea4020] overread 8
    Last message repeated 1 times
[mjpeg @ 0x9ea4020] only 8 bits/component accepted
Error while decoding stream #0:0
[mjpeg @ 0x9ea4020] overread 8
Error while decoding stream #0:0
[mjpeg @ 0x9ea4020] overread 8
Error while decoding stream #0:0
[mjpeg @ 0x9ea4020] overread 8
[mjpeg @ 0x9ea4020] mjpeg: unsupported coding type (c8)
    Last message repeated 2 times
[mjpeg @ 0x9ea4020] overread 8
Error while decoding stream #0:0
[mjpeg @ 0x9ea4020] overread 8
Error while decoding stream #0:0
[mjpeg @ 0x9ea4020] overread 8
Error while decoding stream #0:0
[mjpeg @ 0x9ea4020] overread 8
Error while decoding stream #0:0
[mjpeg @ 0x9ea4020] overread 8
Error while decoding stream #0:0
[mjpeg @ 0x9ea4020] overread 8
Error while decoding stream #0:0
[mjpeg @ 0x9ea4020] overread 8
[mjpeg @ 0x9ea4020] mjpeg: unsupported coding type (cf)
Error while decoding stream #0:0
[mjpeg @ 0x9ea4020] overread 8
[mjpeg @ 0x9ea4020] only 8 bits/component accepted
Error while decoding stream #0:0
[mjpeg @ 0x9ea4020] overread 8
[mjpeg @ 0x9ea4020] mjpeg: unsupported coding type (c9)
[mjpeg @ 0x9ea4020] mjpeg: unsupported coding type (c7)
    Last message repeated 1 times
[mjpeg @ 0x9ea4020] mjpeg: unsupported coding type (c8)
Error while decoding stream #0:0
frame=   19 fps=  0 q=-0.0 Lsize=    2822kB time=1.60 bitrate=14446.1kbits/s    
video:2822kB audio:0kB other streams:0kB global headers:0kB muxing overhead: 0.000000%
diffstderrvsynth2-ljpeg1v13_dev0-1303-g2b50847
--- /home/mkostylev/src/fate/src/tests/ref/vsynth/vsynth2-ljpeg	2014-11-30 18:33:07.025460808 +0300
+++ tests/data/fate/vsynth2-ljpeg	2017-07-17 15:49:47.363846622 +0300
@@ -1,4 +1,4 @@
-5198a8578e3a4a82a622eaf91ac13548 *tests/data/fate/vsynth2-ljpeg.avi
-4715702 tests/data/fate/vsynth2-ljpeg.avi
-36d7ca943916e1743cefa609eba0205c *tests/data/fate/vsynth2-ljpeg.out.rawvideo
-stddev:    0.00 PSNR:999.99 MAXDIFF:    0 bytes:  7603200/  7603200
+ff1e6e92c5e2f97e122382b49a7c7117 *tests/data/fate/vsynth2-ljpeg.avi
+4713820 tests/data/fate/vsynth2-ljpeg.avi
+a1104917f3f80786d4b8380499588ad6 *tests/data/fate/vsynth2-ljpeg.out.rawvideo
+stddev:   84.57 PSNR:  9.59 MAXDIFF:  233 bytes:  7603200/  7299072
avconv version v13_dev0-1218-g95ce02b, Copyright (c) 2000-2017 the Libav developers
  built on Jul 17 2017 15:48:46 with clang version 5.0.0 (trunk 308163)
[rawvideo @ 0xa120380] Estimating duration from bitrate, this may be inaccurate
Input #0, rawvideo, from '/home/mkostylev/src/fate/x86_32-linux-clang/build/tests/data/vsynth2.yuv':
  Duration: N/A, start: 0.000000, bitrate: N/A
    Stream #0:0: Video: rawvideo
      yuv420p, 352x288
      25 fps, 25 tbn
Stream mapping:
  Stream #0:0 -> #0:0 (rawvideo (native) -> ljpeg (native))
Press ctrl-c to stop encoding
Output #0, avi, to '/home/mkostylev/src/fate/x86_32-linux-clang/build/tests/data/fate/vsynth2-ljpeg.avi':
    Stream #0:0: Video: ljpeg [LJPG / 0x47504A4C]
      yuv420p, 352x288, q=2-31, 200 kb/s
      25 fps, 25 tbn
    Metadata:
      encoder         : ljpeg
frame=   50 fps=  0 q=-0.0 Lsize=    4603kB time=1.96 bitrate=19240.1kbits/s    
video:4597kB audio:0kB other streams:0kB global headers:0kB muxing overhead: 0.146039%
avconv version v13_dev0-1218-g95ce02b, Copyright (c) 2000-2017 the Libav developers
  built on Jul 17 2017 15:48:46 with clang version 5.0.0 (trunk 308163)
Input #0, avi, from '/home/mkostylev/src/fate/x86_32-linux-clang/build/tests/data/fate/vsynth2-ljpeg.avi':
  Duration: 00:00:02.00, start: 0.000000, bitrate: 18855 kb/s
    Stream #0:0: Video: mjpeg [LJPG / 0x47504A4C]
      yuv420p, tv, bt470bg/unknown/unknown
      352x288
      25 fps, 25 tbn
Stream mapping:
  Stream #0:0 -> #0:0 (mjpeg (native) -> rawvideo (native))
Press ctrl-c to stop encoding
Output #0, rawvideo, to '/home/mkostylev/src/fate/x86_32-linux-clang/build/tests/data/fate/vsynth2-ljpeg.out.rawvideo':
    Stream #0:0: Video: rawvideo [I420 / 0x30323449]
      yuv420p, 352x288, q=2-31, 200 kb/s
      25 tbn
    Metadata:
      encoder         : rawvideo
[mjpeg @ 0x9227020] only 8 bits/component accepted
Error while decoding stream #0:0
[mjpeg @ 0x9227020] mjpeg: unsupported coding type (cd)
[mjpeg @ 0x9227020] mjpeg: unsupported coding type (cf)
[mjpeg @ 0x9227020] mjpeg: unsupported coding type (cb)
[mjpeg @ 0x9227020] mjpeg: unsupported coding type (cf)
[mjpeg @ 0x9227020] mjpeg: unsupported coding type (c7)
[mjpeg @ 0x9227020] mjpeg: unsupported coding type (ce)
    Last message repeated 2 times
[mjpeg @ 0x9227020] mjpeg: unsupported coding type (cb)
[mjpeg @ 0x9227020] mjpeg: unsupported coding type (c8)
[mjpeg @ 0x9227020] mjpeg: unsupported coding type (cd)
    Last message repeated 1 times
[mjpeg @ 0x9227020] mjpeg: unsupported coding type (cf)
[mjpeg @ 0x9227020] mjpeg: unsupported coding type (ca)
[mjpeg @ 0x9227020] mjpeg: unsupported coding type (cb)
Error while decoding stream #0:0
[mjpeg @ 0x9227020] mjpeg: unsupported coding type (c7)
[mjpeg @ 0x9227020] mjpeg: unsupported coding type (ca)
[mjpeg @ 0x9227020] mjpeg: unsupported coding type (cb)
[mjpeg @ 0x9227020] mjpeg: unsupported coding type (cd)
[mjpeg @ 0x9227020] mjpeg: unsupported coding type (c9)
[mjpeg @ 0x9227020] mjpeg: unsupported coding type (cf)
[mjpeg @ 0x9227020] mjpeg: unsupported coding type (c9)
[mjpeg @ 0x9227020] mjpeg: unsupported coding type (cf)
frame=   48 fps=  0 q=-0.0 Lsize=    7128kB time=1.96 bitrate=29792.1kbits/s    
video:7128kB audio:0kB other streams:0kB global headers:0kB muxing overhead: 0.000000%
diffstderrvsynth2-mjpeg1v13_dev0-1303-g2b50847
--- /home/mkostylev/src/fate/src/tests/ref/vsynth/vsynth2-mjpeg	2014-11-30 18:33:07.025460808 +0300
+++ tests/data/fate/vsynth2-mjpeg	2017-07-17 15:49:47.231849947 +0300
@@ -1,4 +1,4 @@
-972d25dee3c6fe965304fa34e2f75f8a *tests/data/fate/vsynth2-mjpeg.avi
-830288 tests/data/fate/vsynth2-mjpeg.avi
-5f979b021284f8b2868f558f6cc593fe *tests/data/fate/vsynth2-mjpeg.out.rawvideo
-stddev:    4.87 PSNR: 34.37 MAXDIFF:   55 bytes:  7603200/  7603200
+30df070a17b9a155e5cf94d29450ec14 *tests/data/fate/vsynth2-mjpeg.avi
+827060 tests/data/fate/vsynth2-mjpeg.avi
+90c125c3e2bc2967fffc9573851b2b91 *tests/data/fate/vsynth2-mjpeg.out.rawvideo
+stddev:  140.96 PSNR:  5.15 MAXDIFF:  230 bytes:  7603200/  1368576
avconv version v13_dev0-1218-g95ce02b, Copyright (c) 2000-2017 the Libav developers
  built on Jul 17 2017 15:48:46 with clang version 5.0.0 (trunk 308163)
[rawvideo @ 0x9cfa380] Estimating duration from bitrate, this may be inaccurate
Input #0, rawvideo, from '/home/mkostylev/src/fate/x86_32-linux-clang/build/tests/data/vsynth2.yuv':
  Duration: N/A, start: 0.000000, bitrate: N/A
    Stream #0:0: Video: rawvideo
      yuv420p, 352x288
      25 fps, 25 tbn
Stream mapping:
  Stream #0:0 -> #0:0 (rawvideo (native) -> mjpeg (native))
Press ctrl-c to stop encoding
Output #0, avi, to '/home/mkostylev/src/fate/x86_32-linux-clang/build/tests/data/fate/vsynth2-mjpeg.avi':
    Stream #0:0: Video: mjpeg [MJPG / 0x47504A4D]
      yuvj420p, pc, 352x288, q=2-31, 200 kb/s
      25 fps, 25 tbn
    Metadata:
      encoder         : mjpeg
    Side data:
      cpb: bitrate max/min/avg: 0/0/200000 buffer size: 0 vbv_delay: -1
frame=   50 fps=  0 q=9.0 Lsize=     808kB time=1.96 bitrate=3375.8kbits/s    
video:801kB audio:0kB other streams:0kB global headers:0kB muxing overhead: 0.838594%
avconv version v13_dev0-1218-g95ce02b, Copyright (c) 2000-2017 the Libav developers
  built on Jul 17 2017 15:48:46 with clang version 5.0.0 (trunk 308163)
[mjpeg @ 0x9be8120] overread 8
[mjpeg @ 0x9be8120] decode_sos: nb_components (207) is not implemented. Update your Libav version to the newest one from Git. If the problem still occurs, it means that your file has a feature which has not been implemented.
Input #0, avi, from '/home/mkostylev/src/fate/x86_32-linux-clang/build/tests/data/fate/vsynth2-mjpeg.avi':
  Duration: 00:00:02.00, start: 0.000000, bitrate: 3308 kb/s
    Stream #0:0: Video: mjpeg [MJPG / 0x47504A4D]
      yuvj420p, pc, bt470bg/unknown/unknown
      352x288
      25 fps, 25 tbn
Stream mapping:
  Stream #0:0 -> #0:0 (mjpeg (native) -> rawvideo (native))
Press ctrl-c to stop encoding
[mjpeg @ 0x9be9020] overread 8
[mjpeg @ 0x9be9020] decode_sos: nb_components (207) is not implemented. Update your Libav version to the newest one from Git. If the problem still occurs, it means that your file has a feature which has not been implemented.
Output #0, rawvideo, to '/home/mkostylev/src/fate/x86_32-linux-clang/build/tests/data/fate/vsynth2-mjpeg.out.rawvideo':
    Stream #0:0: Video: rawvideo [I420 / 0x30323449]
      yuv420p, 352x288, q=2-31, 200 kb/s
      25 tbn
    Metadata:
      encoder         : rawvideo
[mjpeg @ 0x9be9020] overread 8
    Last message repeated 1 times
[mjpeg @ 0x9be9020] only 8 bits/component accepted
Error while decoding stream #0:0
[mjpeg @ 0x9be9020] overread 8
[mjpeg @ 0x9be9020] mjpeg: unsupported coding type (cb)
Error while decoding stream #0:0
[mjpeg @ 0x9be9020] overread 8
    Last message repeated 1 times
Error while decoding stream #0:0
[mjpeg @ 0x9be9020] overread 8
    Last message repeated 1 times
Error while decoding stream #0:0
[mjpeg @ 0x9be9020] overread 8
Error while decoding stream #0:0
[mjpeg @ 0x9be9020] overread 8
[mjpeg @ 0x9be9020] mjpeg: unsupported coding type (c7)
[mjpeg @ 0x9be9020] mjpeg: unsupported coding type (cf)
[mjpeg @ 0x9be9020] overread 8
[mjpeg @ 0x9be9020] only 8 bits/component accepted
Error while decoding stream #0:0
[mjpeg @ 0x9be9020] overread 8
Error while decoding stream #0:0
[mjpeg @ 0x9be9020] overread 8
Error while decoding stream #0:0
[mjpeg @ 0x9be9020] overread 8
Error while decoding stream #0:0
[mjpeg @ 0x9be9020] overread 8
Error while decoding stream #0:0
[mjpeg @ 0x9be9020] overread 8
Error while decoding stream #0:0
[mjpeg @ 0x9be9020] overread 8
Error while decoding stream #0:0
[mjpeg @ 0x9be9020] overread 8
[mjpeg @ 0x9be9020] mjpeg: unsupported coding type (cf)
Error while decoding stream #0:0
[mjpeg @ 0x9be9020] overread 8
Error while decoding stream #0:0
[mjpeg @ 0x9be9020] overread 8
Error while decoding stream #0:0
[mjpeg @ 0x9be9020] overread 8
[mjpeg @ 0x9be9020] only 8 bits/component accepted
Error while decoding stream #0:0
[mjpeg @ 0x9be9020] overread 8
[mjpeg @ 0x9be9020] decode_sos: nb_components (211) is not implemented. Update your Libav version to the newest one from Git. If the problem still occurs, it means that your file has a feature which has not been implemented.
Error while decoding stream #0:0
[mjpeg @ 0x9be9020] overread 8
Error while decoding stream #0:0
[mjpeg @ 0x9be9020] overread 8
Error while decoding stream #0:0
[mjpeg @ 0x9be9020] overread 8
[mjpeg @ 0x9be9020] only 8 bits/component accepted
Error while decoding stream #0:0
[mjpeg @ 0x9be9020] overread 8
Error while decoding stream #0:0
[mjpeg @ 0x9be9020] overread 8
Error while decoding stream #0:0
[mjpeg @ 0x9be9020] overread 8
Error while decoding stream #0:0
[mjpeg @ 0x9be9020] overread 8
[mjpeg @ 0x9be9020] mjpeg: unsupported coding type (ce)
Error while decoding stream #0:0
[mjpeg @ 0x9be9020] overread 8
[mjpeg @ 0x9be9020] mjpeg: unsupported coding type (cf)
Error while decoding stream #0:0
[mjpeg @ 0x9be9020] overread 8
[mjpeg @ 0x9be9020] mjpeg: unsupported coding type (cb)
Error while decoding stream #0:0
[mjpeg @ 0x9be9020] overread 8
[mjpeg @ 0x9be9020] mjpeg: unsupported coding type (cb)
[mjpeg @ 0x9be9020] mjpeg: unsupported coding type (c8)
    Last message repeated 1 times
Error while decoding stream #0:0
[mjpeg @ 0x9be9020] overread 8
Error while decoding stream #0:0
[mjpeg @ 0x9be9020] overread 8
Error while decoding stream #0:0
[mjpeg @ 0x9be9020] overread 8
Error while decoding stream #0:0
[mjpeg @ 0x9be9020] overread 8
    Last message repeated 1 times
Error while decoding stream #0:0
[mjpeg @ 0x9be9020] overread 8
Error while decoding stream #0:0
[mjpeg @ 0x9be9020] overread 8
[mjpeg @ 0x9be9020] huffman table decode error
Error while decoding stream #0:0
[mjpeg @ 0x9be9020] overread 8
Error while decoding stream #0:0
[mjpeg @ 0x9be9020] overread 8
Error while decoding stream #0:0
[mjpeg @ 0x9be9020] overread 8
    Last message repeated 1 times
[mjpeg @ 0x9be9020] mjpeg: unsupported coding type (cf)
[mjpeg @ 0x9be9020] overread 8
Error while decoding stream #0:0
[mjpeg @ 0x9be9020] overread 8
[mjpeg @ 0x9be9020] huffman table decode error
Error while decoding stream #0:0
[mjpeg @ 0x9be9020] overread 8
[mjpeg @ 0x9be9020] only 8 bits/component accepted
Error while decoding stream #0:0
[mjpeg @ 0x9be9020] overread 8
    Last message repeated 1 times
[mjpeg @ 0x9be9020] only 8 bits/component accepted
Error while decoding stream #0:0
[mjpeg @ 0x9be9020] overread 8
Error while decoding stream #0:0
[mjpeg @ 0x9be9020] overread 8
Error while decoding stream #0:0
frame=    9 fps=  0 q=-0.0 Lsize=    1336kB time=1.84 bitrate=5950.3kbits/s    
video:1336kB audio:0kB other streams:0kB global headers:0kB muxing overhead: 0.000000%