x86_32-cygwin-gcc-5 v13_dev0-1400-gb72ac6d

Architecturex86
Variantx86_32
CPUgeneric
OScygwin
Ownerkostylev
Compilergcc 5.5.0 (GCC)
Configuration--prefix=/home/mik/src/fate/x86_32-cygwin-gcc-5/install --samples=/home/mik/src/fate/fate-suite --enable-gpl --arch=x86 --cross-prefix=i686-cygwin- --cc='ccache i686-cygwin-gcc-5' --target-os=cygwin --host-cc=i686-cygwin-gcc-5 --disable-debug
Comment
Revisionv13_dev0-1400-gb72ac6d
Date2017-11-13 11:45:41
Status2148 / 2149
Warnings75
Logscompile configure test
1 failed testsStatusLast good rev
diffstderrflac-24-comp-81v13_dev0-650-gcdcfa97
stddev:10465.88 PSNR: 23.98 MAXDIFF:65368 bytes: 11520000/  6094848
avconv version v13_dev0-1400-gb72ac6d, Copyright (c) 2000-2017 the Libav developers
  built on Nov 13 2017 14:39:34 with gcc 5.5.0 (GCC)
Guessed Channel Layout for Input Stream #0.0 : stereo
Input #0, wav, from 'E:/msys/home/mik/src/fate/fate-suite/audio-reference/divertimenti_2ch_96kHz_s24.wav':
  Duration: 00:00:10.00, bitrate: 9216 kb/s
    Stream #0:0: Audio: pcm_s24le [[1][0][0][0] / 0x0001]
      192000 Hz, 2 channels, s32, 9216 kb/s
Codec AVOption threads () specified for input file #0 (E:/msys/home/mik/src/fate/fate-suite/audio-reference/divertimenti_2ch_96kHz_s24.wav) has not been used for any stream. The most likely reason is either wrong type (e.g. a video option with no video streams) or that it is a private option of some decoder which was not actually used for any stream.
Codec AVOption thread_type (select multithreading type) specified for input file #0 (E:/msys/home/mik/src/fate/fate-suite/audio-reference/divertimenti_2ch_96kHz_s24.wav) has not been used for any stream. The most likely reason is either wrong type (e.g. a video option with no video streams) or that it is a private option of some decoder which was not actually used for any stream.
Stream mapping:
  Stream #0:0 -> #0:0 (pcm_s24le (native) -> flac (native))
Press ctrl-c to stop encoding
Output #0, flac, to 'E:/msys/home/mik/src/fate/x86_32-cygwin-gcc-5/build/tests/data/fate/flac-24-comp-8.flac':
  Metadata:
    encoder         : Lavf58.1.0
    Stream #0:0: Audio: flac
      192000 Hz, stereo, s32, 200 kb/s
    Metadata:
      encoder         : Lavc58.5.0 flac
size=    5736kB time=10.00 bitrate=4699.0kbits/s    
video:0kB audio:5728kB other streams:0kB global headers:0kB muxing overhead: 0.141200%
avconv version v13_dev0-1400-gb72ac6d, Copyright (c) 2000-2017 the Libav developers
  built on Nov 13 2017 14:39:34 with gcc 5.5.0 (GCC)
[flac @ 0x80067cc0] sample/frame number mismatch in adjacent frames
Input #0, flac, from 'E:/msys/home/mik/src/fate/x86_32-cygwin-gcc-5/build/tests/data/fate/flac-24-comp-8.flac':
  Metadata:
    ENCODER         : Lavf58.1.0
  Duration: 00:00:10.00, bitrate: 4698 kb/s
    Stream #0:0: Audio: flac
      192000 Hz, stereo, s32
Codec AVOption threads () specified for input file #0 (E:/msys/home/mik/src/fate/x86_32-cygwin-gcc-5/build/tests/data/fate/flac-24-comp-8.flac) has not been used for any stream. The most likely reason is either wrong type (e.g. a video option with no video streams) or that it is a private option of some decoder which was not actually used for any stream.
Codec AVOption thread_type (select multithreading type) specified for input file #0 (E:/msys/home/mik/src/fate/x86_32-cygwin-gcc-5/build/tests/data/fate/flac-24-comp-8.flac) has not been used for any stream. The most likely reason is either wrong type (e.g. a video option with no video streams) or that it is a private option of some decoder which was not actually used for any stream.
Stream mapping:
  Stream #0:0 -> #0:0 (flac (native) -> pcm_s24le (native))
Press ctrl-c to stop encoding
Output #0, wav, to 'pipe:':
  Metadata:
    ISFT            : Lavf58.1.0
    Stream #0:0: Audio: pcm_s24le [[1][0][0][0] / 0x0001]
      192000 Hz, stereo, s32, 9216 kb/s
    Metadata:
      encoder         : Lavc58.5.0 pcm_s24le
[flac @ 0x80081dc0] invalid subframe padding
[flac @ 0x80081dc0] decode_frame() failed
Error while decoding stream #0:0
[NULL @ 0x80067cc0] sample/frame number mismatch in adjacent frames
E:/msys/home/mik/src/fate/x86_32-cygwin-gcc-5/build/tests/data/fate/flac-24-comp-8.flac: Invalid argument
size=    5952kB time=5.38 bitrate=9069.9kbits/s    
video:0kB audio:5952kB other streams:0kB global headers:0kB muxing overhead: 0.001641%