x86_32-cygwin-gcc-5 v13_dev0-1218-g95ce02b

Architecturex86
Variantx86_32
CPUgeneric
OScygwin
Ownerkostylev
Compilergcc 5.4.0 (GCC)
Configuration--prefix=/home/mik/src/fate/x86_32-cygwin-gcc-5/install --samples=/home/mik/src/fate/fate-suite --enable-gpl --arch=x86 --cross-prefix=i686-cygwin- --cc='ccache i686-cygwin-gcc-5' --target-os=cygwin --host-cc=i686-cygwin-gcc-5 --disable-debug
Comment
Revisionv13_dev0-1218-g95ce02b
Date2017-07-17 18:42:11
Status2104 / 2109
Warnings75
Logscompile configure test
5 failed testsStatusLast good rev
diffstderrflac-24-comp-81v13_dev0-650-gcdcfa97
stddev:10465.88 PSNR: 23.98 MAXDIFF:65368 bytes: 11520000/  6094848
avconv version v13_dev0-1218-g95ce02b, Copyright (c) 2000-2017 the Libav developers
  built on Jul 17 2017 21:35:23 with gcc 5.4.0 (GCC)
Guessed Channel Layout for Input Stream #0.0 : stereo
Input #0, wav, from 'E:/msys/home/mik/src/fate/fate-suite/audio-reference/divertimenti_2ch_96kHz_s24.wav':
  Duration: 00:00:10.00, bitrate: 9216 kb/s
    Stream #0:0: Audio: pcm_s24le [[1][0][0][0] / 0x0001]
      192000 Hz, 2 channels, s32, 9216 kb/s
Codec AVOption threads () specified for input file #0 (E:/msys/home/mik/src/fate/fate-suite/audio-reference/divertimenti_2ch_96kHz_s24.wav) has not been used for any stream. The most likely reason is either wrong type (e.g. a video option with no video streams) or that it is a private option of some decoder which was not actually used for any stream.
Codec AVOption thread_type (select multithreading type) specified for input file #0 (E:/msys/home/mik/src/fate/fate-suite/audio-reference/divertimenti_2ch_96kHz_s24.wav) has not been used for any stream. The most likely reason is either wrong type (e.g. a video option with no video streams) or that it is a private option of some decoder which was not actually used for any stream.
Stream mapping:
  Stream #0:0 -> #0:0 (pcm_s24le (native) -> flac (native))
Press ctrl-c to stop encoding
Output #0, flac, to 'E:/msys/home/mik/src/fate/x86_32-cygwin-gcc-5/build/tests/data/fate/flac-24-comp-8.flac':
  Metadata:
    encoder         : Lavf58.0.0
    Stream #0:0: Audio: flac
      192000 Hz, stereo, s32, 200 kb/s
    Metadata:
      encoder         : Lavc58.4.0 flac
size=    5736kB time=10.00 bitrate=4699.0kbits/s    
video:0kB audio:5728kB other streams:0kB global headers:0kB muxing overhead: 0.141200%
avconv version v13_dev0-1218-g95ce02b, Copyright (c) 2000-2017 the Libav developers
  built on Jul 17 2017 21:35:23 with gcc 5.4.0 (GCC)
[flac @ 0x80067cc0] sample/frame number mismatch in adjacent frames
Input #0, flac, from 'E:/msys/home/mik/src/fate/x86_32-cygwin-gcc-5/build/tests/data/fate/flac-24-comp-8.flac':
  Metadata:
    ENCODER         : Lavf58.0.0
  Duration: 00:00:10.00, bitrate: 4698 kb/s
    Stream #0:0: Audio: flac
      192000 Hz, stereo, s32
Codec AVOption threads () specified for input file #0 (E:/msys/home/mik/src/fate/x86_32-cygwin-gcc-5/build/tests/data/fate/flac-24-comp-8.flac) has not been used for any stream. The most likely reason is either wrong type (e.g. a video option with no video streams) or that it is a private option of some decoder which was not actually used for any stream.
Codec AVOption thread_type (select multithreading type) specified for input file #0 (E:/msys/home/mik/src/fate/x86_32-cygwin-gcc-5/build/tests/data/fate/flac-24-comp-8.flac) has not been used for any stream. The most likely reason is either wrong type (e.g. a video option with no video streams) or that it is a private option of some decoder which was not actually used for any stream.
Stream mapping:
  Stream #0:0 -> #0:0 (flac (native) -> pcm_s24le (native))
Press ctrl-c to stop encoding
Output #0, wav, to 'pipe:':
  Metadata:
    ISFT            : Lavf58.0.0
    Stream #0:0: Audio: pcm_s24le [[1][0][0][0] / 0x0001]
      192000 Hz, stereo, s32, 9216 kb/s
    Metadata:
      encoder         : Lavc58.4.0 pcm_s24le
[flac @ 0x80081dc0] invalid subframe padding
[flac @ 0x80081dc0] decode_frame() failed
Error while decoding stream #0:0
[NULL @ 0x80067cc0] sample/frame number mismatch in adjacent frames
E:/msys/home/mik/src/fate/x86_32-cygwin-gcc-5/build/tests/data/fate/flac-24-comp-8.flac: Invalid argument
size=    5952kB time=5.38 bitrate=9069.9kbits/s    
video:0kB audio:5952kB other streams:0kB global headers:0kB muxing overhead: 0.001641%
diffstderrvsynth1-rv101v13_dev0-1300-gac6691a
--- /home/mik/src/fate/src/tests/ref/vsynth/vsynth1-rv10	2016-12-22 15:42:42 +0300
+++ tests/data/fate/vsynth1-rv10	2017-07-17 21:41:27 +0300
@@ -1,4 +1,4 @@
 4d7e82de72a83905cf84b8abc3e70b8f *tests/data/fate/vsynth1-rv10.rm
 653905 tests/data/fate/vsynth1-rv10.rm
-1a1ba9a3a63ec1a1a9585fded0a7c954 *tests/data/fate/vsynth1-rv10.out.rawvideo
-stddev:    8.03 PSNR: 30.03 MAXDIFF:  103 bytes:  7603200/  7603200
+800c0196bd37b9bfb92407d1fc7fe855 *tests/data/fate/vsynth1-rv10.out.rawvideo
+stddev:    7.28 PSNR: 30.88 MAXDIFF:   71 bytes:  7603200/   152064
avconv version v13_dev0-1218-g95ce02b, Copyright (c) 2000-2017 the Libav developers
  built on Jul 17 2017 21:35:23 with gcc 5.4.0 (GCC)
[rawvideo @ 0x8005f200] Estimating duration from bitrate, this may be inaccurate
Input #0, rawvideo, from 'E:/msys/home/mik/src/fate/x86_32-cygwin-gcc-5/build/tests/data/vsynth1.yuv':
  Duration: N/A, start: 0.000000, bitrate: N/A
    Stream #0:0: Video: rawvideo
      yuv420p, 352x288
      25 fps, 25 tbn
Stream mapping:
  Stream #0:0 -> #0:0 (rawvideo (native) -> rv10 (native))
Press ctrl-c to stop encoding
Output #0, rm, to 'E:/msys/home/mik/src/fate/x86_32-cygwin-gcc-5/build/tests/data/fate/vsynth1-rv10.rm':
    Stream #0:0: Video: rv10 [RV10 / 0x30315652]
      yuv420p, 352x288, q=2-31, 200 kb/s
      25 fps, 25 tbn
    Metadata:
      encoder         : rv10
    Side data:
      cpb: bitrate max/min/avg: 0/0/200000 buffer size: 0 vbv_delay: -1
frame=   50 fps=  0 q=10.0 Lsize=     639kB time=1.96 bitrate=2669.0kbits/s    
video:637kB audio:0kB other streams:0kB global headers:0kB muxing overhead: 0.183543%
avconv version v13_dev0-1218-g95ce02b, Copyright (c) 2000-2017 the Libav developers
  built on Jul 17 2017 21:35:23 with gcc 5.4.0 (GCC)
Input #0, rm, from 'E:/msys/home/mik/src/fate/x86_32-cygwin-gcc-5/build/tests/data/fate/vsynth1-rv10.rm':
  Metadata:
    title           : 
    author          : 
    copyright       : 
    comment         : 
  Duration: 00:00:02.00, start: 0.000000, bitrate: 2615 kb/s
    Stream #0:0: Video: rv10 [RV10 / 0x30315652]
      yuv420p, 352x288, 200 kb/s
      25 fps, 1k tbn
Stream mapping:
  Stream #0:0 -> #0:0 (rv10 (native) -> rawvideo (native))
Press ctrl-c to stop encoding
Output #0, rawvideo, to 'E:/msys/home/mik/src/fate/x86_32-cygwin-gcc-5/build/tests/data/fate/vsynth1-rv10.out.rawvideo':
  Metadata:
    title           : 
    author          : 
    copyright       : 
    comment         : 
    Stream #0:0: Video: rawvideo [I420 / 0x30323449]
      yuv420p, 352x288, q=2-31, 200 kb/s
      1k tbn
    Metadata:
      encoder         : rawvideo
E:/msys/home/mik/src/fate/x86_32-cygwin-gcc-5/build/tests/data/fate/vsynth1-rv10.rm: Input/output error
frame=    1 fps=  0 q=-0.0 Lsize=     148kB time=10000000000.00 bitrate=   0.0kbits/s    
video:148kB audio:0kB other streams:0kB global headers:0kB muxing overhead: 0.000000%
diffstderrvsynth1-rv201v13_dev0-1300-gac6691a
--- /home/mik/src/fate/src/tests/ref/vsynth/vsynth1-rv20	2016-12-22 15:42:42 +0300
+++ tests/data/fate/vsynth1-rv20	2017-07-17 21:41:28 +0300
@@ -1,4 +1,4 @@
 81868601e602eee5b6d80f5ece4aaa98 *tests/data/fate/vsynth1-rv20.rm
 646016 tests/data/fate/vsynth1-rv20.rm
-b45fdb0201b06f7649f44050e262c54c *tests/data/fate/vsynth1-rv20.out.rawvideo
-stddev:    8.26 PSNR: 29.79 MAXDIFF:  103 bytes:  7603200/  7603200
+88465177b848352cd6609bf91bfa5333 *tests/data/fate/vsynth1-rv20.out.rawvideo
+stddev:    8.82 PSNR: 29.22 MAXDIFF:   72 bytes:  7603200/   152064
avconv version v13_dev0-1218-g95ce02b, Copyright (c) 2000-2017 the Libav developers
  built on Jul 17 2017 21:35:23 with gcc 5.4.0 (GCC)
[rawvideo @ 0x8005f200] Estimating duration from bitrate, this may be inaccurate
Input #0, rawvideo, from 'E:/msys/home/mik/src/fate/x86_32-cygwin-gcc-5/build/tests/data/vsynth1.yuv':
  Duration: N/A, start: 0.000000, bitrate: N/A
    Stream #0:0: Video: rawvideo
      yuv420p, 352x288
      25 fps, 25 tbn
Stream mapping:
  Stream #0:0 -> #0:0 (rawvideo (native) -> rv20 (native))
Press ctrl-c to stop encoding
Output #0, rm, to 'E:/msys/home/mik/src/fate/x86_32-cygwin-gcc-5/build/tests/data/fate/vsynth1-rv20.rm':
    Stream #0:0: Video: rv20 [RV20 / 0x30325652]
      yuv420p, 352x288, q=2-31, 200 kb/s
      25 fps, 25 tbn
    Metadata:
      encoder         : rv20
    Side data:
      cpb: bitrate max/min/avg: 0/0/200000 buffer size: 0 vbv_delay: -1
frame=   50 fps=  0 q=10.0 Lsize=     631kB time=1.96 bitrate=2636.8kbits/s    
video:630kB audio:0kB other streams:0kB global headers:0kB muxing overhead: 0.185789%
avconv version v13_dev0-1218-g95ce02b, Copyright (c) 2000-2017 the Libav developers
  built on Jul 17 2017 21:35:23 with gcc 5.4.0 (GCC)
Input #0, rm, from 'E:/msys/home/mik/src/fate/x86_32-cygwin-gcc-5/build/tests/data/fate/vsynth1-rv20.rm':
  Metadata:
    title           : 
    author          : 
    copyright       : 
    comment         : 
  Duration: 00:00:02.00, start: 0.000000, bitrate: 2584 kb/s
    Stream #0:0: Video: rv20 [RV20 / 0x30325652]
      yuv420p, 352x288, 200 kb/s
      25 fps, 1k tbn
Stream mapping:
  Stream #0:0 -> #0:0 (rv20 (native) -> rawvideo (native))
Press ctrl-c to stop encoding
Output #0, rawvideo, to 'E:/msys/home/mik/src/fate/x86_32-cygwin-gcc-5/build/tests/data/fate/vsynth1-rv20.out.rawvideo':
  Metadata:
    title           : 
    author          : 
    copyright       : 
    comment         : 
    Stream #0:0: Video: rawvideo [I420 / 0x30323449]
      yuv420p, 352x288, q=2-31, 200 kb/s
      1k tbn
    Metadata:
      encoder         : rawvideo
E:/msys/home/mik/src/fate/x86_32-cygwin-gcc-5/build/tests/data/fate/vsynth1-rv20.rm: Input/output error
frame=    1 fps=  0 q=-0.0 Lsize=     148kB time=10000000000.00 bitrate=   0.0kbits/s    
video:148kB audio:0kB other streams:0kB global headers:0kB muxing overhead: 0.000000%
diffstderrvsynth2-rv101v13_dev0-1300-gac6691a
--- /home/mik/src/fate/src/tests/ref/vsynth/vsynth2-rv10	2016-12-22 15:42:42 +0300
+++ tests/data/fate/vsynth2-rv10	2017-07-17 21:42:03 +0300
@@ -1,4 +1,4 @@
 3b46a4ecefe76e021bb81cc8cbd09fdc *tests/data/fate/vsynth2-rv10.rm
 210685 tests/data/fate/vsynth2-rv10.rm
-4d9c35b109b48f49a62d2a9208e3f0e7 *tests/data/fate/vsynth2-rv10.out.rawvideo
-stddev:    6.12 PSNR: 32.39 MAXDIFF:   83 bytes:  7603200/  7603200
+e2eafc7f308288afde92f2fd79a58331 *tests/data/fate/vsynth2-rv10.out.rawvideo
+stddev:    5.18 PSNR: 33.83 MAXDIFF:   58 bytes:  7603200/   152064
avconv version v13_dev0-1218-g95ce02b, Copyright (c) 2000-2017 the Libav developers
  built on Jul 17 2017 21:35:23 with gcc 5.4.0 (GCC)
[rawvideo @ 0x8005f200] Estimating duration from bitrate, this may be inaccurate
Input #0, rawvideo, from 'E:/msys/home/mik/src/fate/x86_32-cygwin-gcc-5/build/tests/data/vsynth2.yuv':
  Duration: N/A, start: 0.000000, bitrate: N/A
    Stream #0:0: Video: rawvideo
      yuv420p, 352x288
      25 fps, 25 tbn
Stream mapping:
  Stream #0:0 -> #0:0 (rawvideo (native) -> rv10 (native))
Press ctrl-c to stop encoding
Output #0, rm, to 'E:/msys/home/mik/src/fate/x86_32-cygwin-gcc-5/build/tests/data/fate/vsynth2-rv10.rm':
    Stream #0:0: Video: rv10 [RV10 / 0x30315652]
      yuv420p, 352x288, q=2-31, 200 kb/s
      25 fps, 25 tbn
    Metadata:
      encoder         : rv10
    Side data:
      cpb: bitrate max/min/avg: 0/0/200000 buffer size: 0 vbv_delay: -1
frame=   50 fps=  0 q=10.0 Lsize=     206kB time=1.96 bitrate= 859.9kbits/s    
video:205kB audio:0kB other streams:0kB global headers:0kB muxing overhead: 0.564192%
avconv version v13_dev0-1218-g95ce02b, Copyright (c) 2000-2017 the Libav developers
  built on Jul 17 2017 21:35:23 with gcc 5.4.0 (GCC)
Input #0, rm, from 'E:/msys/home/mik/src/fate/x86_32-cygwin-gcc-5/build/tests/data/fate/vsynth2-rv10.rm':
  Metadata:
    title           : 
    author          : 
    copyright       : 
    comment         : 
  Duration: 00:00:02.00, start: 0.000000, bitrate: 842 kb/s
    Stream #0:0: Video: rv10 [RV10 / 0x30315652]
      yuv420p, 352x288, 200 kb/s
      25 fps, 1k tbn
Stream mapping:
  Stream #0:0 -> #0:0 (rv10 (native) -> rawvideo (native))
Press ctrl-c to stop encoding
Output #0, rawvideo, to 'E:/msys/home/mik/src/fate/x86_32-cygwin-gcc-5/build/tests/data/fate/vsynth2-rv10.out.rawvideo':
  Metadata:
    title           : 
    author          : 
    copyright       : 
    comment         : 
    Stream #0:0: Video: rawvideo [I420 / 0x30323449]
      yuv420p, 352x288, q=2-31, 200 kb/s
      1k tbn
    Metadata:
      encoder         : rawvideo
E:/msys/home/mik/src/fate/x86_32-cygwin-gcc-5/build/tests/data/fate/vsynth2-rv10.rm: Input/output error
frame=    1 fps=  0 q=-0.0 Lsize=     148kB time=10000000000.00 bitrate=   0.0kbits/s    
video:148kB audio:0kB other streams:0kB global headers:0kB muxing overhead: 0.000000%
diffstderrvsynth2-rv201v13_dev0-1300-gac6691a
--- /home/mik/src/fate/src/tests/ref/vsynth/vsynth2-rv20	2016-12-22 15:42:42 +0300
+++ tests/data/fate/vsynth2-rv20	2017-07-17 21:42:03 +0300
@@ -1,4 +1,4 @@
 1bfdb1840495e6c2876ddab73d1c98b6 *tests/data/fate/vsynth2-rv20.rm
 210666 tests/data/fate/vsynth2-rv20.rm
-d32edd26c6a04dceb75b19cf837b9d95 *tests/data/fate/vsynth2-rv20.out.rawvideo
-stddev:    6.19 PSNR: 32.28 MAXDIFF:   81 bytes:  7603200/  7603200
+cfcaa2ad1dd50e836b57b4e450091e79 *tests/data/fate/vsynth2-rv20.out.rawvideo
+stddev:    5.61 PSNR: 33.14 MAXDIFF:   58 bytes:  7603200/   152064
avconv version v13_dev0-1218-g95ce02b, Copyright (c) 2000-2017 the Libav developers
  built on Jul 17 2017 21:35:23 with gcc 5.4.0 (GCC)
[rawvideo @ 0x8005f200] Estimating duration from bitrate, this may be inaccurate
Input #0, rawvideo, from 'E:/msys/home/mik/src/fate/x86_32-cygwin-gcc-5/build/tests/data/vsynth2.yuv':
  Duration: N/A, start: 0.000000, bitrate: N/A
    Stream #0:0: Video: rawvideo
      yuv420p, 352x288
      25 fps, 25 tbn
Stream mapping:
  Stream #0:0 -> #0:0 (rawvideo (native) -> rv20 (native))
Press ctrl-c to stop encoding
Output #0, rm, to 'E:/msys/home/mik/src/fate/x86_32-cygwin-gcc-5/build/tests/data/fate/vsynth2-rv20.rm':
    Stream #0:0: Video: rv20 [RV20 / 0x30325652]
      yuv420p, 352x288, q=2-31, 200 kb/s
      25 fps, 25 tbn
    Metadata:
      encoder         : rv20
    Side data:
      cpb: bitrate max/min/avg: 0/0/200000 buffer size: 0 vbv_delay: -1
frame=   50 fps=  0 q=10.0 Lsize=     206kB time=1.96 bitrate= 859.9kbits/s    
video:205kB audio:0kB other streams:0kB global headers:0kB muxing overhead: 0.562323%
avconv version v13_dev0-1218-g95ce02b, Copyright (c) 2000-2017 the Libav developers
  built on Jul 17 2017 21:35:23 with gcc 5.4.0 (GCC)
Input #0, rm, from 'E:/msys/home/mik/src/fate/x86_32-cygwin-gcc-5/build/tests/data/fate/vsynth2-rv20.rm':
  Metadata:
    title           : 
    author          : 
    copyright       : 
    comment         : 
  Duration: 00:00:02.00, start: 0.000000, bitrate: 842 kb/s
    Stream #0:0: Video: rv20 [RV20 / 0x30325652]
      yuv420p, 352x288, 200 kb/s
      25 fps, 1k tbn
Stream mapping:
  Stream #0:0 -> #0:0 (rv20 (native) -> rawvideo (native))
Press ctrl-c to stop encoding
Output #0, rawvideo, to 'E:/msys/home/mik/src/fate/x86_32-cygwin-gcc-5/build/tests/data/fate/vsynth2-rv20.out.rawvideo':
  Metadata:
    title           : 
    author          : 
    copyright       : 
    comment         : 
    Stream #0:0: Video: rawvideo [I420 / 0x30323449]
      yuv420p, 352x288, q=2-31, 200 kb/s
      1k tbn
    Metadata:
      encoder         : rawvideo
E:/msys/home/mik/src/fate/x86_32-cygwin-gcc-5/build/tests/data/fate/vsynth2-rv20.rm: Input/output error
frame=    1 fps=  0 q=-0.0 Lsize=     148kB time=10000000000.00 bitrate=   0.0kbits/s    
video:148kB audio:0kB other streams:0kB global headers:0kB muxing overhead: 0.000000%