sparc64-linux-gcc-4.9 v13_dev0-1185-g857e26b65

Architecturesparc
Variantsparc64
CPUultrasparc
OSlinux
Ownerkostylev
Compilergcc 4.9.4 (GCC)
Configuration--prefix=/home/mik/src/fate/sparc64-linux-gcc-4.9/install --samples=/home/mik/src/fate/fate-suite --enable-gpl --arch=sparc64 --cpu=ultrasparc --cross-prefix=sparc-linux- --cc='sparc-linux-gcc-4.9 -m64' --target-os=linux --sysroot=/opt/sparc-linux/sparc-linux --target-exec='ssh skull' --disable-debug
Comment
Revisionv13_dev0-1185-g857e26b65
Date2017-06-23 09:44:48
Status2108 / 2109
Warnings52
Logscompile configure test
1 failed testsStatusLast good rev
diffstderrhevc-conformance-SLIST_A_Sony_41v13_dev0-1218-g95ce02b35
--- /home/mik/src/fate/src/tests/ref/fate/hevc-conformance-SLIST_A_Sony_4	2014-10-17 18:41:58.183700506 +0400
+++ tests/data/fate/hevc-conformance-SLIST_A_Sony_4	2017-06-23 12:03:47.031783463 +0300
@@ -1,5 +1,5 @@
 #tb 0: 1/25
-0,          0,          0,        1,   599040, 0xbd0eb43e
+0,          0,          0,        1,   599040, 0xcd20d27b
 0,          1,          1,        1,   599040, 0x4c3a98b5
 0,          2,          2,        1,   599040, 0x105410dc
 0,          3,          3,        1,   599040, 0xffaff69c
avconv version v13_dev0-1185-g857e26b65, Copyright (c) 2000-2017 the Libav developers
  built on Jun 23 2017 11:40:27 with gcc 4.9.4 (GCC)
[hevc @ 0x123e280] Estimating duration from bitrate, this may be inaccurate
Input #0, hevc, from '/home/mik/src/fate/fate-suite/hevc-conformance/SLIST_A_Sony_4.bit':
  Duration: N/A, bitrate: N/A
    Stream #0:0: Video: hevc (Main)
      yuv420p, tv, 832x480
      25 fps, 25 tbn
Stream mapping:
  Stream #0:0 -> #0:0 (hevc (native) -> rawvideo (native))
Press ctrl-c to stop encoding
Output #0, framecrc, to 'pipe:':
  Metadata:
    encoder         : Lavf58.0.0
    Stream #0:0: Video: rawvideo [I420 / 0x30323449]
      yuv420p, 832x480, q=2-31, 200 kb/s
      25 tbn
    Metadata:
      encoder         : Lavc58.4.0 rawvideo
frame=   65 fps=  4 q=-0.0 Lsize=       4kB time=2.56 bitrate=  11.8kbits/s    
video:38025kB audio:0kB other streams:0kB global headers:0kB muxing overhead: unknown