sparc64-linux-clang v13_dev0-1401-g5c2a01f06

Architecturesparc
Variantsparc64
CPUgeneric
OSlinux
Ownerkostylev
Compilerclang version 5.0.0 (tags/RELEASE_500/final)
Configuration--prefix=/home/mik/src/fate/sparc64-linux-clang/install --samples=/home/mik/src/fate/fate-suite --enable-gpl --cc='ccache clang -m64' --disable-debug
Comment
Revisionv13_dev0-1401-g5c2a01f06
Date2017-11-14 16:44:03
Status2135 / 2148
Warnings60
Logscompile configure test
13 failed testsStatusLast good rev
diffstderralac-16-level-2BUSv13_dev0-1351-g077011b5a
No diff output recorded
avconv version v13_dev0-1401-g5c2a01f06, Copyright (c) 2000-2017 the Libav developers
  built on Nov 14 2017 19:39:23 with clang version 5.0.0 (tags/RELEASE_500/final)
Guessed Channel Layout for Input Stream #0.0 : stereo
Input #0, wav, from '/home/mik/src/fate/fate-suite/audio-reference/luckynight_2ch_44kHz_s16.wav':
  Duration: 00:00:09.50, bitrate: 1411 kb/s
    Stream #0:0: Audio: pcm_s16le [[1][0][0][0] / 0x0001]
      44100 Hz, 2 channels, s16, 1411 kb/s
Codec AVOption threads () specified for input file #0 (/home/mik/src/fate/fate-suite/audio-reference/luckynight_2ch_44kHz_s16.wav) has not been used for any stream. The most likely reason is either wrong type (e.g. a video option with no video streams) or that it is a private option of some decoder which was not actually used for any stream.
Codec AVOption thread_type (select multithreading type) specified for input file #0 (/home/mik/src/fate/fate-suite/audio-reference/luckynight_2ch_44kHz_s16.wav) has not been used for any stream. The most likely reason is either wrong type (e.g. a video option with no video streams) or that it is a private option of some decoder which was not actually used for any stream.
Stream mapping:
  Stream #0:0 -> #0:0 (pcm_s16le (native) -> alac (native))
Press ctrl-c to stop encoding
Output #0, mov, to '/home/mik/src/fate/sparc64-linux-clang/build/tests/data/fate/alac-16-level-2.mov':
  Metadata:
    encoder         : Lavf58.1.0
    Stream #0:0: Audio: alac [alac / 0x63616C61]
      44100 Hz, stereo, s16p, 200 kb/s
    Metadata:
      encoder         : Lavc58.5.0 alac
Bus error
diffstderralac-16-lpc-ordersBUSv13_dev0-1351-g077011b5a
No diff output recorded
avconv version v13_dev0-1401-g5c2a01f06, Copyright (c) 2000-2017 the Libav developers
  built on Nov 14 2017 19:39:23 with clang version 5.0.0 (tags/RELEASE_500/final)
Guessed Channel Layout for Input Stream #0.0 : stereo
Input #0, wav, from '/home/mik/src/fate/fate-suite/audio-reference/luckynight_2ch_44kHz_s16.wav':
  Duration: 00:00:09.50, bitrate: 1411 kb/s
    Stream #0:0: Audio: pcm_s16le [[1][0][0][0] / 0x0001]
      44100 Hz, 2 channels, s16, 1411 kb/s
Codec AVOption threads () specified for input file #0 (/home/mik/src/fate/fate-suite/audio-reference/luckynight_2ch_44kHz_s16.wav) has not been used for any stream. The most likely reason is either wrong type (e.g. a video option with no video streams) or that it is a private option of some decoder which was not actually used for any stream.
Codec AVOption thread_type (select multithreading type) specified for input file #0 (/home/mik/src/fate/fate-suite/audio-reference/luckynight_2ch_44kHz_s16.wav) has not been used for any stream. The most likely reason is either wrong type (e.g. a video option with no video streams) or that it is a private option of some decoder which was not actually used for any stream.
Stream mapping:
  Stream #0:0 -> #0:0 (pcm_s16le (native) -> alac (native))
Press ctrl-c to stop encoding
Output #0, mov, to '/home/mik/src/fate/sparc64-linux-clang/build/tests/data/fate/alac-16-lpc-orders.mov':
  Metadata:
    encoder         : Lavf58.1.0
    Stream #0:0: Audio: alac [alac / 0x63616C61]
      44100 Hz, stereo, s16p, 200 kb/s
    Metadata:
      encoder         : Lavc58.5.0 alac
Bus error
diffstderralac-24-level-2BUSv13_dev0-1351-g077011b5a
No diff output recorded
avconv version v13_dev0-1401-g5c2a01f06, Copyright (c) 2000-2017 the Libav developers
  built on Nov 14 2017 19:39:23 with clang version 5.0.0 (tags/RELEASE_500/final)
Guessed Channel Layout for Input Stream #0.0 : stereo
Input #0, wav, from '/home/mik/src/fate/fate-suite/audio-reference/divertimenti_2ch_96kHz_s24.wav':
  Duration: 00:00:10.00, bitrate: 9216 kb/s
    Stream #0:0: Audio: pcm_s24le [[1][0][0][0] / 0x0001]
      192000 Hz, 2 channels, s32, 9216 kb/s
Codec AVOption threads () specified for input file #0 (/home/mik/src/fate/fate-suite/audio-reference/divertimenti_2ch_96kHz_s24.wav) has not been used for any stream. The most likely reason is either wrong type (e.g. a video option with no video streams) or that it is a private option of some decoder which was not actually used for any stream.
Codec AVOption thread_type (select multithreading type) specified for input file #0 (/home/mik/src/fate/fate-suite/audio-reference/divertimenti_2ch_96kHz_s24.wav) has not been used for any stream. The most likely reason is either wrong type (e.g. a video option with no video streams) or that it is a private option of some decoder which was not actually used for any stream.
Stream mapping:
  Stream #0:0 -> #0:0 (pcm_s24le (native) -> alac (native))
Press ctrl-c to stop encoding
Output #0, mov, to '/home/mik/src/fate/sparc64-linux-clang/build/tests/data/fate/alac-24-level-2.mov':
  Metadata:
    encoder         : Lavf58.1.0
    Stream #0:0: Audio: alac [alac / 0x63616C61]
      192000 Hz, stereo, s32p, 200 kb/s
    Metadata:
      encoder         : Lavc58.5.0 alac
Bus error
diffstderralac-24-lpc-ordersBUSv13_dev0-1351-g077011b5a
No diff output recorded
avconv version v13_dev0-1401-g5c2a01f06, Copyright (c) 2000-2017 the Libav developers
  built on Nov 14 2017 19:39:23 with clang version 5.0.0 (tags/RELEASE_500/final)
Guessed Channel Layout for Input Stream #0.0 : stereo
Input #0, wav, from '/home/mik/src/fate/fate-suite/audio-reference/divertimenti_2ch_96kHz_s24.wav':
  Duration: 00:00:10.00, bitrate: 9216 kb/s
    Stream #0:0: Audio: pcm_s24le [[1][0][0][0] / 0x0001]
      192000 Hz, 2 channels, s32, 9216 kb/s
Codec AVOption threads () specified for input file #0 (/home/mik/src/fate/fate-suite/audio-reference/divertimenti_2ch_96kHz_s24.wav) has not been used for any stream. The most likely reason is either wrong type (e.g. a video option with no video streams) or that it is a private option of some decoder which was not actually used for any stream.
Codec AVOption thread_type (select multithreading type) specified for input file #0 (/home/mik/src/fate/fate-suite/audio-reference/divertimenti_2ch_96kHz_s24.wav) has not been used for any stream. The most likely reason is either wrong type (e.g. a video option with no video streams) or that it is a private option of some decoder which was not actually used for any stream.
Stream mapping:
  Stream #0:0 -> #0:0 (pcm_s24le (native) -> alac (native))
Press ctrl-c to stop encoding
Output #0, mov, to '/home/mik/src/fate/sparc64-linux-clang/build/tests/data/fate/alac-24-lpc-orders.mov':
  Metadata:
    encoder         : Lavf58.1.0
    Stream #0:0: Audio: alac [alac / 0x63616C61]
      192000 Hz, stereo, s32p, 200 kb/s
    Metadata:
      encoder         : Lavc58.5.0 alac
Bus error
diffstderrbink-video-i1v13_dev0-414-g481ff3c
--- /home/mik/src/fate/src/tests/ref/fate/bink-video-i	2017-07-26 22:58:43.015546229 +0300
+++ tests/data/fate/bink-video-i	2017-11-14 19:42:19.288194557 +0300
@@ -1,32 +0,0 @@
-#tb 0: 1/30
-0,          0,          0,        1,   460800, 0xaef133d9
-0,          1,          1,        1,   460800, 0x2da1248b
-0,          2,          2,        1,   460800, 0x3d7945b4
-0,          3,          3,        1,   460800, 0x44554f62
-0,          4,          4,        1,   460800, 0x1bc0007e
-0,          5,          5,        1,   460800, 0xe9b5c4fa
-0,          6,          6,        1,   460800, 0x41b17af0
-0,          7,          7,        1,   460800, 0x88f5d31c
-0,          8,          8,        1,   460800, 0xdedb6e2d
-0,          9,          9,        1,   460800, 0xd36f0a5e
-0,         10,         10,        1,   460800, 0xb564921c
-0,         11,         11,        1,   460800, 0xd72b1208
-0,         12,         12,        1,   460800, 0x5c87760e
-0,         13,         13,        1,   460800, 0xecb75843
-0,         14,         14,        1,   460800, 0x58deee70
-0,         15,         15,        1,   460800, 0x64b5ae3e
-0,         16,         16,        1,   460800, 0x9269e9e6
-0,         17,         17,        1,   460800, 0x47064d62
-0,         18,         18,        1,   460800, 0x88858604
-0,         19,         19,        1,   460800, 0x129d8834
-0,         20,         20,        1,   460800, 0x046ecae5
-0,         21,         21,        1,   460800, 0x6c74c134
-0,         22,         22,        1,   460800, 0x37d56c01
-0,         23,         23,        1,   460800, 0x4c0a4f15
-0,         24,         24,        1,   460800, 0xe28ef96b
-0,         25,         25,        1,   460800, 0x66c72383
-0,         26,         26,        1,   460800, 0x9487175b
-0,         27,         27,        1,   460800, 0x71034965
-0,         28,         28,        1,   460800, 0x0f99ca96
-0,         29,         29,        1,   460800, 0x8a8c79b2
-0,         30,         30,        1,   460800, 0x34d4926e
avconv version v13_dev0-1401-g5c2a01f06, Copyright (c) 2000-2017 the Libav developers
  built on Nov 14 2017 19:39:23 with clang version 5.0.0 (tags/RELEASE_500/final)
Input #0, bink, from '/home/mik/src/fate/fate-suite/bink/RazOnBull.bik':
  Duration: 00:00:01.03, start: 0.000000, bitrate: 2971 kb/s
    Stream #0:0: Video: binkvideo [BIKi / 0x694B4942]
      yuv420p, 640x480
      30 fps, 30 tbn
    Stream #0:1: Audio: binkaudio_dct
      44100 Hz, stereo, fltp
Stream mapping:
  Stream #0:0 -> #0:0 (binkvideo (native) -> rawvideo (native))
Press ctrl-c to stop encoding
Error while decoding stream #0:0
    Last message repeated 2 times
[binkvideo @ 0x135c8e0] DC value went out of bounds: 33438
Error while decoding stream #0:0
[binkvideo @ 0x135c8e0] DC value went out of bounds: 33426
Error while decoding stream #0:0
    Last message repeated 2 times
[binkvideo @ 0x135c8e0] DC value went out of bounds: -33007
Error while decoding stream #0:0
[binkvideo @ 0x135c8e0] DC value went out of bounds: 39786
Error while decoding stream #0:0
[binkvideo @ 0x135c8e0] DC value went out of bounds: -38183
Error while decoding stream #0:0
[binkvideo @ 0x135c8e0] DC value went out of bounds: -62146
Error while decoding stream #0:0
[binkvideo @ 0x135c8e0] DC value went out of bounds: -40009
Error while decoding stream #0:0
[binkvideo @ 0x135c8e0] DC value went out of bounds: 40832
Error while decoding stream #0:0
[binkvideo @ 0x135c8e0] DC value went out of bounds: -35144
Error while decoding stream #0:0
[binkvideo @ 0x135c8e0] DC value went out of bounds: 35210
Error while decoding stream #0:0
[binkvideo @ 0x135c8e0] DC value went out of bounds: 36247
Error while decoding stream #0:0
[binkvideo @ 0x135c8e0] DC value went out of bounds: -46985
Error while decoding stream #0:0
    Last message repeated 5 times
[binkvideo @ 0x135c8e0] DC value went out of bounds: -35111
Error while decoding stream #0:0
[binkvideo @ 0x135c8e0] DC value went out of bounds: 38411
Error while decoding stream #0:0
[binkvideo @ 0x135c8e0] DC value went out of bounds: 54564
Error while decoding stream #0:0
    Last message repeated 3 times
[binkvideo @ 0x135c8e0] Incorrect 16x16 block type 1
Error while decoding stream #0:0
    Last message repeated 2 times
/home/mik/src/fate/fate-suite/bink/RazOnBull.bik: Input/output error
Video encoding failed
diffstderrflac-16-chmode-indepBUSv13_dev0-1351-g077011b5a
No diff output recorded
avconv version v13_dev0-1401-g5c2a01f06, Copyright (c) 2000-2017 the Libav developers
  built on Nov 14 2017 19:39:23 with clang version 5.0.0 (tags/RELEASE_500/final)
Guessed Channel Layout for Input Stream #0.0 : stereo
Input #0, wav, from '/home/mik/src/fate/fate-suite/audio-reference/luckynight_2ch_44kHz_s16.wav':
  Duration: 00:00:09.50, bitrate: 1411 kb/s
    Stream #0:0: Audio: pcm_s16le [[1][0][0][0] / 0x0001]
      44100 Hz, 2 channels, s16, 1411 kb/s
Codec AVOption threads () specified for input file #0 (/home/mik/src/fate/fate-suite/audio-reference/luckynight_2ch_44kHz_s16.wav) has not been used for any stream. The most likely reason is either wrong type (e.g. a video option with no video streams) or that it is a private option of some decoder which was not actually used for any stream.
Codec AVOption thread_type (select multithreading type) specified for input file #0 (/home/mik/src/fate/fate-suite/audio-reference/luckynight_2ch_44kHz_s16.wav) has not been used for any stream. The most likely reason is either wrong type (e.g. a video option with no video streams) or that it is a private option of some decoder which was not actually used for any stream.
Stream mapping:
  Stream #0:0 -> #0:0 (pcm_s16le (native) -> flac (native))
Press ctrl-c to stop encoding
Output #0, flac, to '/home/mik/src/fate/sparc64-linux-clang/build/tests/data/fate/flac-16-chmode-indep.flac':
  Metadata:
    encoder         : Lavf58.1.0
    Stream #0:0: Audio: flac
      44100 Hz, stereo, s16, 200 kb/s
    Metadata:
      encoder         : Lavc58.5.0 flac
Bus error
diffstderrflac-16-chmode-left_sideBUSv13_dev0-1351-g077011b5a
No diff output recorded
avconv version v13_dev0-1401-g5c2a01f06, Copyright (c) 2000-2017 the Libav developers
  built on Nov 14 2017 19:39:23 with clang version 5.0.0 (tags/RELEASE_500/final)
Guessed Channel Layout for Input Stream #0.0 : stereo
Input #0, wav, from '/home/mik/src/fate/fate-suite/audio-reference/luckynight_2ch_44kHz_s16.wav':
  Duration: 00:00:09.50, bitrate: 1411 kb/s
    Stream #0:0: Audio: pcm_s16le [[1][0][0][0] / 0x0001]
      44100 Hz, 2 channels, s16, 1411 kb/s
Codec AVOption threads () specified for input file #0 (/home/mik/src/fate/fate-suite/audio-reference/luckynight_2ch_44kHz_s16.wav) has not been used for any stream. The most likely reason is either wrong type (e.g. a video option with no video streams) or that it is a private option of some decoder which was not actually used for any stream.
Codec AVOption thread_type (select multithreading type) specified for input file #0 (/home/mik/src/fate/fate-suite/audio-reference/luckynight_2ch_44kHz_s16.wav) has not been used for any stream. The most likely reason is either wrong type (e.g. a video option with no video streams) or that it is a private option of some decoder which was not actually used for any stream.
Stream mapping:
  Stream #0:0 -> #0:0 (pcm_s16le (native) -> flac (native))
Press ctrl-c to stop encoding
Output #0, flac, to '/home/mik/src/fate/sparc64-linux-clang/build/tests/data/fate/flac-16-chmode-left_side.flac':
  Metadata:
    encoder         : Lavf58.1.0
    Stream #0:0: Audio: flac
      44100 Hz, stereo, s16, 200 kb/s
    Metadata:
      encoder         : Lavc58.5.0 flac
Bus error
diffstderrflac-16-chmode-mid_sideBUSv13_dev0-1351-g077011b5a
No diff output recorded
avconv version v13_dev0-1401-g5c2a01f06, Copyright (c) 2000-2017 the Libav developers
  built on Nov 14 2017 19:39:23 with clang version 5.0.0 (tags/RELEASE_500/final)
Guessed Channel Layout for Input Stream #0.0 : stereo
Input #0, wav, from '/home/mik/src/fate/fate-suite/audio-reference/luckynight_2ch_44kHz_s16.wav':
  Duration: 00:00:09.50, bitrate: 1411 kb/s
    Stream #0:0: Audio: pcm_s16le [[1][0][0][0] / 0x0001]
      44100 Hz, 2 channels, s16, 1411 kb/s
Codec AVOption threads () specified for input file #0 (/home/mik/src/fate/fate-suite/audio-reference/luckynight_2ch_44kHz_s16.wav) has not been used for any stream. The most likely reason is either wrong type (e.g. a video option with no video streams) or that it is a private option of some decoder which was not actually used for any stream.
Codec AVOption thread_type (select multithreading type) specified for input file #0 (/home/mik/src/fate/fate-suite/audio-reference/luckynight_2ch_44kHz_s16.wav) has not been used for any stream. The most likely reason is either wrong type (e.g. a video option with no video streams) or that it is a private option of some decoder which was not actually used for any stream.
Stream mapping:
  Stream #0:0 -> #0:0 (pcm_s16le (native) -> flac (native))
Press ctrl-c to stop encoding
Output #0, flac, to '/home/mik/src/fate/sparc64-linux-clang/build/tests/data/fate/flac-16-chmode-mid_side.flac':
  Metadata:
    encoder         : Lavf58.1.0
    Stream #0:0: Audio: flac
      44100 Hz, stereo, s16, 200 kb/s
    Metadata:
      encoder         : Lavc58.5.0 flac
Bus error
diffstderrflac-16-chmode-right_sideBUSv13_dev0-1351-g077011b5a
No diff output recorded
avconv version v13_dev0-1401-g5c2a01f06, Copyright (c) 2000-2017 the Libav developers
  built on Nov 14 2017 19:39:23 with clang version 5.0.0 (tags/RELEASE_500/final)
Guessed Channel Layout for Input Stream #0.0 : stereo
Input #0, wav, from '/home/mik/src/fate/fate-suite/audio-reference/luckynight_2ch_44kHz_s16.wav':
  Duration: 00:00:09.50, bitrate: 1411 kb/s
    Stream #0:0: Audio: pcm_s16le [[1][0][0][0] / 0x0001]
      44100 Hz, 2 channels, s16, 1411 kb/s
Codec AVOption threads () specified for input file #0 (/home/mik/src/fate/fate-suite/audio-reference/luckynight_2ch_44kHz_s16.wav) has not been used for any stream. The most likely reason is either wrong type (e.g. a video option with no video streams) or that it is a private option of some decoder which was not actually used for any stream.
Codec AVOption thread_type (select multithreading type) specified for input file #0 (/home/mik/src/fate/fate-suite/audio-reference/luckynight_2ch_44kHz_s16.wav) has not been used for any stream. The most likely reason is either wrong type (e.g. a video option with no video streams) or that it is a private option of some decoder which was not actually used for any stream.
Stream mapping:
  Stream #0:0 -> #0:0 (pcm_s16le (native) -> flac (native))
Press ctrl-c to stop encoding
Output #0, flac, to '/home/mik/src/fate/sparc64-linux-clang/build/tests/data/fate/flac-16-chmode-right_side.flac':
  Metadata:
    encoder         : Lavf58.1.0
    Stream #0:0: Audio: flac
      44100 Hz, stereo, s16, 200 kb/s
    Metadata:
      encoder         : Lavc58.5.0 flac
Bus error
diffstderrflac-16-lpc-choleskyBUSv13_dev0-1351-g077011b5a
No diff output recorded
avconv version v13_dev0-1401-g5c2a01f06, Copyright (c) 2000-2017 the Libav developers
  built on Nov 14 2017 19:39:23 with clang version 5.0.0 (tags/RELEASE_500/final)
Guessed Channel Layout for Input Stream #0.0 : stereo
Input #0, wav, from '/home/mik/src/fate/fate-suite/audio-reference/luckynight_2ch_44kHz_s16.wav':
  Duration: 00:00:09.50, bitrate: 1411 kb/s
    Stream #0:0: Audio: pcm_s16le [[1][0][0][0] / 0x0001]
      44100 Hz, 2 channels, s16, 1411 kb/s
Codec AVOption threads () specified for input file #0 (/home/mik/src/fate/fate-suite/audio-reference/luckynight_2ch_44kHz_s16.wav) has not been used for any stream. The most likely reason is either wrong type (e.g. a video option with no video streams) or that it is a private option of some decoder which was not actually used for any stream.
Codec AVOption thread_type (select multithreading type) specified for input file #0 (/home/mik/src/fate/fate-suite/audio-reference/luckynight_2ch_44kHz_s16.wav) has not been used for any stream. The most likely reason is either wrong type (e.g. a video option with no video streams) or that it is a private option of some decoder which was not actually used for any stream.
Stream mapping:
  Stream #0:0 -> #0:0 (pcm_s16le (native) -> flac (native))
Press ctrl-c to stop encoding
Output #0, flac, to '/home/mik/src/fate/sparc64-linux-clang/build/tests/data/fate/flac-16-lpc-cholesky.flac':
  Metadata:
    encoder         : Lavf58.1.0
    Stream #0:0: Audio: flac
      44100 Hz, stereo, s16, 200 kb/s
    Metadata:
      encoder         : Lavc58.5.0 flac
Bus error
diffstderrflac-16-lpc-levinsonBUSv13_dev0-1351-g077011b5a
No diff output recorded
avconv version v13_dev0-1401-g5c2a01f06, Copyright (c) 2000-2017 the Libav developers
  built on Nov 14 2017 19:39:23 with clang version 5.0.0 (tags/RELEASE_500/final)
Guessed Channel Layout for Input Stream #0.0 : stereo
Input #0, wav, from '/home/mik/src/fate/fate-suite/audio-reference/luckynight_2ch_44kHz_s16.wav':
  Duration: 00:00:09.50, bitrate: 1411 kb/s
    Stream #0:0: Audio: pcm_s16le [[1][0][0][0] / 0x0001]
      44100 Hz, 2 channels, s16, 1411 kb/s
Codec AVOption threads () specified for input file #0 (/home/mik/src/fate/fate-suite/audio-reference/luckynight_2ch_44kHz_s16.wav) has not been used for any stream. The most likely reason is either wrong type (e.g. a video option with no video streams) or that it is a private option of some decoder which was not actually used for any stream.
Codec AVOption thread_type (select multithreading type) specified for input file #0 (/home/mik/src/fate/fate-suite/audio-reference/luckynight_2ch_44kHz_s16.wav) has not been used for any stream. The most likely reason is either wrong type (e.g. a video option with no video streams) or that it is a private option of some decoder which was not actually used for any stream.
Stream mapping:
  Stream #0:0 -> #0:0 (pcm_s16le (native) -> flac (native))
Press ctrl-c to stop encoding
Output #0, flac, to '/home/mik/src/fate/sparc64-linux-clang/build/tests/data/fate/flac-16-lpc-levinson.flac':
  Metadata:
    encoder         : Lavf58.1.0
    Stream #0:0: Audio: flac
      44100 Hz, stereo, s16, 200 kb/s
    Metadata:
      encoder         : Lavc58.5.0 flac
Bus error
diffstderrflac-24-comp-8BUSv13_dev0-1351-g077011b5a
No diff output recorded
avconv version v13_dev0-1401-g5c2a01f06, Copyright (c) 2000-2017 the Libav developers
  built on Nov 14 2017 19:39:23 with clang version 5.0.0 (tags/RELEASE_500/final)
Guessed Channel Layout for Input Stream #0.0 : stereo
Input #0, wav, from '/home/mik/src/fate/fate-suite/audio-reference/divertimenti_2ch_96kHz_s24.wav':
  Duration: 00:00:10.00, bitrate: 9216 kb/s
    Stream #0:0: Audio: pcm_s24le [[1][0][0][0] / 0x0001]
      192000 Hz, 2 channels, s32, 9216 kb/s
Codec AVOption threads () specified for input file #0 (/home/mik/src/fate/fate-suite/audio-reference/divertimenti_2ch_96kHz_s24.wav) has not been used for any stream. The most likely reason is either wrong type (e.g. a video option with no video streams) or that it is a private option of some decoder which was not actually used for any stream.
Codec AVOption thread_type (select multithreading type) specified for input file #0 (/home/mik/src/fate/fate-suite/audio-reference/divertimenti_2ch_96kHz_s24.wav) has not been used for any stream. The most likely reason is either wrong type (e.g. a video option with no video streams) or that it is a private option of some decoder which was not actually used for any stream.
Stream mapping:
  Stream #0:0 -> #0:0 (pcm_s24le (native) -> flac (native))
Press ctrl-c to stop encoding
Output #0, flac, to '/home/mik/src/fate/sparc64-linux-clang/build/tests/data/fate/flac-24-comp-8.flac':
  Metadata:
    encoder         : Lavf58.1.0
    Stream #0:0: Audio: flac
      192000 Hz, stereo, s32, 200 kb/s
    Metadata:
      encoder         : Lavc58.5.0 flac
Bus error
diffstderrlavf-oggBUSv13_dev0-1351-g077011b5a
--- /home/mik/src/fate/src/tests/ref/lavf/ogg	2017-07-26 22:58:43.171552739 +0300
+++ tests/data/fate/lavf-ogg	2017-11-14 19:42:50.249493017 +0300
@@ -1,3 +0,0 @@
-8ca901bc8d24b80ebe79e387e454d1e9 *./tests/data/lavf/lavf.ogg
-13476 ./tests/data/lavf/lavf.ogg
-./tests/data/lavf/lavf.ogg CRC=0x3a1da17e
avconv version v13_dev0-1401-g5c2a01f06, Copyright (c) 2000-2017 the Libav developers
  built on Nov 14 2017 19:39:23 with clang version 5.0.0 (tags/RELEASE_500/final)
[s16le @ 0x1358ec0] Estimating duration from bitrate, this may be inaccurate
Guessed Channel Layout for Input Stream #0.0 : mono
Input #0, s16le, from '/home/mik/src/fate/sparc64-linux-clang/build/./tests/data/asynth1.sw':
  Duration: N/A, start: 0.000000, bitrate: N/A
    Stream #0:0: Audio: pcm_s16le
      44100 Hz, 1 channels, s16, 705 kb/s
Codec AVOption threads () specified for input file #0 (/home/mik/src/fate/sparc64-linux-clang/build/./tests/data/asynth1.sw) has not been used for any stream. The most likely reason is either wrong type (e.g. a video option with no video streams) or that it is a private option of some decoder which was not actually used for any stream.
Codec AVOption idct (select IDCT implementation) specified for input file #0 (/home/mik/src/fate/sparc64-linux-clang/build/./tests/data/asynth1.sw) has not been used for any stream. The most likely reason is either wrong type (e.g. a video option with no video streams) or that it is a private option of some decoder which was not actually used for any stream.
Codec AVOption dct (DCT algorithm) specified for output file #0 (/home/mik/src/fate/sparc64-linux-clang/build/./tests/data/lavf/lavf.ogg) has not been used for any stream. The most likely reason is either wrong type (e.g. a video option with no video streams) or that it is a private option of some encoder which was not actually used for any stream.
Codec AVOption idct (select IDCT implementation) specified for output file #0 (/home/mik/src/fate/sparc64-linux-clang/build/./tests/data/lavf/lavf.ogg) has not been used for any stream. The most likely reason is either wrong type (e.g. a video option with no video streams) or that it is a private option of some encoder which was not actually used for any stream.
Codec AVOption threads () specified for output file #0 (/home/mik/src/fate/sparc64-linux-clang/build/./tests/data/lavf/lavf.ogg) has not been used for any stream. The most likely reason is either wrong type (e.g. a video option with no video streams) or that it is a private option of some encoder which was not actually used for any stream.
Stream mapping:
  Stream #0:0 -> #0:0 (pcm_s16le (native) -> flac (native))
Press ctrl-c to stop encoding
Output #0, ogg, to '/home/mik/src/fate/sparc64-linux-clang/build/./tests/data/lavf/lavf.ogg':
    Stream #0:0: Audio: flac
      44100 Hz, mono, s16, 200 kb/s
    Metadata:
      encoder         : flac
Bus error