sparc64-linux-clang v13_dev0-1057-g37f573543

Architecturesparc
Variantsparc64
CPUultrasparc
OSlinux
Ownerkostylev
Compilerclang version 3.7.1 (tags/RELEASE_371/final)
Configuration--prefix=/home/mik/src/fate/sparc64-linux-clang/install --samples=/home/mik/src/fate/fate-suite --enable-gpl --arch=sparc --cpu=ultrasparc --cross-prefix=sparc-linux- --cc='sparc-linux-clang-3.7 -gcc-toolchain /opt/sparc-linux -m64' --target-os=linux --sysroot=/opt/sparc-linux/sparc-linux --target-exec='ssh skull' --disable-debug
Comment
Revisionv13_dev0-1057-g37f573543
Date2017-04-19 10:15:15
Status2108 / 2109
Warnings67
Logscompile configure test
1 failed testsStatusLast good rev
diffstderrbink-video-i1v13_dev0-414-g481ff3c
--- /home/mik/src/fate/src/tests/ref/fate/bink-video-i	2014-10-17 18:41:58.087699532 +0400
+++ tests/data/fate/bink-video-i	2017-04-19 12:49:07.148627139 +0300
@@ -1,32 +0,0 @@
-#tb 0: 1/30
-0,          0,          0,        1,   460800, 0xaef133d9
-0,          1,          1,        1,   460800, 0x2da1248b
-0,          2,          2,        1,   460800, 0x3d7945b4
-0,          3,          3,        1,   460800, 0x44554f62
-0,          4,          4,        1,   460800, 0x1bc0007e
-0,          5,          5,        1,   460800, 0xe9b5c4fa
-0,          6,          6,        1,   460800, 0x41b17af0
-0,          7,          7,        1,   460800, 0x88f5d31c
-0,          8,          8,        1,   460800, 0xdedb6e2d
-0,          9,          9,        1,   460800, 0xd36f0a5e
-0,         10,         10,        1,   460800, 0xb564921c
-0,         11,         11,        1,   460800, 0xd72b1208
-0,         12,         12,        1,   460800, 0x5c87760e
-0,         13,         13,        1,   460800, 0xecb75843
-0,         14,         14,        1,   460800, 0x58deee70
-0,         15,         15,        1,   460800, 0x64b5ae3e
-0,         16,         16,        1,   460800, 0x9269e9e6
-0,         17,         17,        1,   460800, 0x47064d62
-0,         18,         18,        1,   460800, 0x88858604
-0,         19,         19,        1,   460800, 0x129d8834
-0,         20,         20,        1,   460800, 0x046ecae5
-0,         21,         21,        1,   460800, 0x6c74c134
-0,         22,         22,        1,   460800, 0x37d56c01
-0,         23,         23,        1,   460800, 0x4c0a4f15
-0,         24,         24,        1,   460800, 0xe28ef96b
-0,         25,         25,        1,   460800, 0x66c72383
-0,         26,         26,        1,   460800, 0x9487175b
-0,         27,         27,        1,   460800, 0x71034965
-0,         28,         28,        1,   460800, 0x0f99ca96
-0,         29,         29,        1,   460800, 0x8a8c79b2
-0,         30,         30,        1,   460800, 0x34d4926e
avconv version v13_dev0-1057-g37f573543, Copyright (c) 2000-2017 the Libav developers
  built on Apr 19 2017 11:56:21 with clang version 3.7.1 (tags/RELEASE_371/final)
Input #0, bink, from '/home/mik/src/fate/fate-suite/bink/RazOnBull.bik':
  Duration: 00:00:01.03, start: 0.000000, bitrate: 2971 kb/s
    Stream #0:0: Video: binkvideo [BIKi / 0x694B4942]
      yuv420p, 640x480
      30 fps, 30 tbn
    Stream #0:1: Audio: binkaudio_dct
      44100 Hz, stereo, fltp
Stream mapping:
  Stream #0:0 -> #0:0 (binkvideo (native) -> rawvideo (native))
Press ctrl-c to stop encoding
Error while decoding stream #0:0
    Last message repeated 2 times
[binkvideo @ 0x11f68e0] DC value went out of bounds: 33438
Error while decoding stream #0:0
[binkvideo @ 0x11f68e0] DC value went out of bounds: 33426
Error while decoding stream #0:0
    Last message repeated 2 times
[binkvideo @ 0x11f68e0] DC value went out of bounds: -33007
Error while decoding stream #0:0
[binkvideo @ 0x11f68e0] DC value went out of bounds: 39786
Error while decoding stream #0:0
[binkvideo @ 0x11f68e0] DC value went out of bounds: -38183
Error while decoding stream #0:0
[binkvideo @ 0x11f68e0] DC value went out of bounds: -62146
Error while decoding stream #0:0
[binkvideo @ 0x11f68e0] DC value went out of bounds: -40009
Error while decoding stream #0:0
[binkvideo @ 0x11f68e0] DC value went out of bounds: 40832
Error while decoding stream #0:0
[binkvideo @ 0x11f68e0] DC value went out of bounds: -35144
Error while decoding stream #0:0
[binkvideo @ 0x11f68e0] DC value went out of bounds: 35210
Error while decoding stream #0:0
[binkvideo @ 0x11f68e0] DC value went out of bounds: 36247
Error while decoding stream #0:0
[binkvideo @ 0x11f68e0] DC value went out of bounds: -46985
Error while decoding stream #0:0
    Last message repeated 5 times
[binkvideo @ 0x11f68e0] DC value went out of bounds: -35111
Error while decoding stream #0:0
[binkvideo @ 0x11f68e0] DC value went out of bounds: 38411
Error while decoding stream #0:0
[binkvideo @ 0x11f68e0] DC value went out of bounds: 54564
Error while decoding stream #0:0
    Last message repeated 3 times
[binkvideo @ 0x11f68e0] Incorrect 16x16 block type 1
Error while decoding stream #0:0
    Last message repeated 2 times
/home/mik/src/fate/fate-suite/bink/RazOnBull.bik: Input/output error
Video encoding failed