sparc-solaris-suncc v13_dev0-1216-g0f5ad12

Architecturesparc
Variantsparc
CPUultrasparc
OSsunos
Ownerkostylev
CompilerSun C 5.12 SunOS_sparc 2011/11/16
Configuration--prefix=/home/mik/src/fate/sparc-solaris-suncc/install --samples=/home/mik/src/fate/fate-suite --enable-gpl --cpu=ultrasparc --cc='ccache suncc' --disable-debug
Comment
Revisionv13_dev0-1216-g0f5ad12
Date2017-07-09 23:52:01
Status2071 / 2098
Warnings1597
Logscompile configure test
27 failed testsStatusLast good rev
diffstderrfilter-yadif-mode01n / a
--- /home/mik/src/fate/src/tests/ref/fate/filter-yadif-mode0	2013-05-08 00:35:53.880890694 +0400
+++ tests/data/fate/filter-yadif-mode0	2017-07-10 01:45:55.669646349 +0300
@@ -1,32 +0,0 @@
-#tb 0: 1/180000
-0,      64800,      64800,        0,   622080, 0x6331caee
-0,      72000,      72000,        0,   622080, 0xa459e690
-0,      79200,      79200,        0,   622080, 0x6429c648
-0,      86400,      86400,        0,   622080, 0xa49891ca
-0,      93600,      93600,        0,   622080, 0x2a887404
-0,     100800,     100800,        0,   622080, 0xe8d49705
-0,     108000,     108000,        0,   622080, 0x1b627835
-0,     115200,     115200,        0,   622080, 0x686858fd
-0,     122400,     122400,        0,   622080, 0x2675174f
-0,     129600,     129600,        0,   622080, 0x78470e7f
-0,     136800,     136800,        0,   622080, 0xffb366ec
-0,     144000,     144000,        0,   622080, 0xd575da72
-0,     151200,     151200,        0,   622080, 0x5fb297f7
-0,     158400,     158400,        0,   622080, 0xbac77ca0
-0,     165600,     165600,        0,   622080, 0x3276ed72
-0,     172800,     172800,        0,   622080, 0x264092b2
-0,     180000,     180000,        0,   622080, 0x20ba1094
-0,     187200,     187200,        0,   622080, 0x76cc3139
-0,     194400,     194400,        0,   622080, 0x469a4902
-0,     201600,     201600,        0,   622080, 0x0ed7b8f5
-0,     208800,     208800,        0,   622080, 0xdc51aeac
-0,     216000,     216000,        0,   622080, 0xee06aa36
-0,     223200,     223200,        0,   622080, 0x7372405f
-0,     230400,     230400,        0,   622080, 0x9e0ee776
-0,     237600,     237600,        0,   622080, 0x39e6d8c9
-0,     244800,     244800,        0,   622080, 0x51d9ac9a
-0,     252000,     252000,        0,   622080, 0x2b63441d
-0,     259200,     259200,        0,   622080, 0x58afbd5e
-0,     266400,     266400,        0,   622080, 0xb972f716
-0,     273600,     273600,        0,   622080, 0x6a6df129
-0,     280800,     280800,        0,   622080, 0x28b1373d
avconv version v13_dev0-1216-g0f5ad12, Copyright (c) 2000-2017 the Libav developers
  built on Jul 10 2017 01:33:39 with Sun C 5.12 SunOS_sparc 2011/11/16
[mpeg2video @ 117db40] Invalid frame dimensions 0x0.
    Last message repeated 8 times
[mpegts @ 1169500] Non-increasing DTS in stream 0: packet 12 with DTS 2065846349, packet 13 with DTS 2065846349
[mpegts @ 1169500] PES packet size mismatch
    Last message repeated 1 times
Input #0, mpegts, from '/home/mik/src/fate/fate-suite/mpeg2/mpeg2_field_encoding.ts':
  Duration: 00:00:01.58, start: 22953.408322, bitrate: 4050 kb/s
  Program 1 
    Stream #0:0[0x1023]: Video: mpeg2video (4:2:2) [[2][0][0][0] / 0x0002]
      yuv420p, tv, 720x576 [PAR 49:33 DAR 245:132], 3364 kb/s
      24.08 fps, 90k tbn
Stream mapping:
  Stream #0:0 -> #0:0 (mpeg2video (native) -> rawvideo (native))
Press ctrl-c to stop encoding
[mpeg2video @ 117e400] Invalid frame dimensions 0x0.
Error while decoding stream #0:0
[mpeg2video @ 117e400] Invalid frame dimensions 0x0.
Error while decoding stream #0:0
[mpeg2video @ 117e400] Invalid frame dimensions 0x0.
Error while decoding stream #0:0
[mpeg2video @ 117e400] Invalid frame dimensions 0x0.
Error while decoding stream #0:0
[mpeg2video @ 117e400] Invalid frame dimensions 0x0.
Error while decoding stream #0:0
[mpeg2video @ 117e400] Invalid frame dimensions 0x0.
Error while decoding stream #0:0
[mpeg2video @ 117e400] Invalid frame dimensions 0x0.
Error while decoding stream #0:0
[mpeg2video @ 117e400] Invalid frame dimensions 0x0.
Error while decoding stream #0:0
[mpeg2video @ 117e400] Invalid frame dimensions 0x0.
Error while decoding stream #0:0
[mpegts @ 1169500] PES packet size mismatch
Video encoding failed
diffstderrfilter-yadif-mode11n / a
--- /home/mik/src/fate/src/tests/ref/fate/filter-yadif-mode1	2013-05-08 00:35:53.881740504 +0400
+++ tests/data/fate/filter-yadif-mode1	2017-07-10 01:45:56.215668949 +0300
@@ -1,63 +0,0 @@
-#tb 0: 1/180000
-0,      64800,      64800,        0,   622080, 0x6331caee
-0,      68400,      68400,        0,   622080, 0x625da883
-0,      72000,      72000,        0,   622080, 0xa459e690
-0,      75600,      75600,        0,   622080, 0xce5d891e
-0,      79200,      79200,        0,   622080, 0x6429c648
-0,      82800,      82800,        0,   622080, 0x608cc0ba
-0,      86400,      86400,        0,   622080, 0xa49891ca
-0,      90000,      90000,        0,   622080, 0x9721987f
-0,      93600,      93600,        0,   622080, 0x2a887404
-0,      97200,      97200,        0,   622080, 0x60d71d47
-0,     100800,     100800,        0,   622080, 0xe8d49705
-0,     104400,     104400,        0,   622080, 0x821e13cb
-0,     108000,     108000,        0,   622080, 0x1b627835
-0,     111600,     111600,        0,   622080, 0x1806c5f4
-0,     115200,     115200,        0,   622080, 0x686858fd
-0,     118800,     118800,        0,   622080, 0xab865773
-0,     122400,     122400,        0,   622080, 0x2675174f
-0,     126000,     126000,        0,   622080, 0x43a61a14
-0,     129600,     129600,        0,   622080, 0x78470e7f
-0,     133200,     133200,        0,   622080, 0xeb877bc6
-0,     136800,     136800,        0,   622080, 0xffb366ec
-0,     140400,     140400,        0,   622080, 0xda0906e7
-0,     144000,     144000,        0,   622080, 0xd575da72
-0,     147600,     147600,        0,   622080, 0x23ae25a4
-0,     151200,     151200,        0,   622080, 0x5fb297f7
-0,     154800,     154800,        0,   622080, 0x99b32978
-0,     158400,     158400,        0,   622080, 0xbac77ca0
-0,     162000,     162000,        0,   622080, 0xc1cdcbf9
-0,     165600,     165600,        0,   622080, 0x3276ed72
-0,     169200,     169200,        0,   622080, 0x4061f5ab
-0,     172800,     172800,        0,   622080, 0x264092b2
-0,     176400,     176400,        0,   622080, 0xa4e2039e
-0,     180000,     180000,        0,   622080, 0x20ba1094
-0,     183600,     183600,        0,   622080, 0x984e906e
-0,     187200,     187200,        0,   622080, 0x76cc3139
-0,     190800,     190800,        0,   622080, 0xf70e2cf6
-0,     194400,     194400,        0,   622080, 0x469a4902
-0,     198000,     198000,        0,   622080, 0x235312e6
-0,     201600,     201600,        0,   622080, 0x0ed7b8f5
-0,     205200,     205200,        0,   622080, 0xd0269cc3
-0,     208800,     208800,        0,   622080, 0xdc51aeac
-0,     212400,     212400,        0,   622080, 0x1aa5f76e
-0,     216000,     216000,        0,   622080, 0xee06aa36
-0,     219600,     219600,        0,   622080, 0xa7103230
-0,     223200,     223200,        0,   622080, 0x7372405f
-0,     226800,     226800,        0,   622080, 0x8d7a44b5
-0,     230400,     230400,        0,   622080, 0x9e0ee776
-0,     234000,     234000,        0,   622080, 0xd41e8560
-0,     237600,     237600,        0,   622080, 0x39e6d8c9
-0,     241200,     241200,        0,   622080, 0x7a23d70c
-0,     244800,     244800,        0,   622080, 0x51d9ac9a
-0,     248400,     248400,        0,   622080, 0x8eacf7f2
-0,     252000,     252000,        0,   622080, 0x2b63441d
-0,     255600,     255600,        0,   622080, 0x9f71b742
-0,     259200,     259200,        0,   622080, 0x58afbd5e
-0,     262800,     262800,        0,   622080, 0x4d645292
-0,     266400,     266400,        0,   622080, 0xb972f716
-0,     270000,     270000,        0,   622080, 0xbb5d01a2
-0,     273600,     273600,        0,   622080, 0x6a6df129
-0,     277200,     277200,        0,   622080, 0x9e45371e
-0,     280800,     280800,        0,   622080, 0x28b1373d
-0,     284400,     284400,        0,   622080, 0xa1cdb1f2
avconv version v13_dev0-1216-g0f5ad12, Copyright (c) 2000-2017 the Libav developers
  built on Jul 10 2017 01:33:39 with Sun C 5.12 SunOS_sparc 2011/11/16
[mpeg2video @ 117db40] Invalid frame dimensions 0x0.
    Last message repeated 8 times
[mpegts @ 1169500] Non-increasing DTS in stream 0: packet 12 with DTS 2065846349, packet 13 with DTS 2065846349
[mpegts @ 1169500] PES packet size mismatch
    Last message repeated 1 times
Input #0, mpegts, from '/home/mik/src/fate/fate-suite/mpeg2/mpeg2_field_encoding.ts':
  Duration: 00:00:01.58, start: 22953.408322, bitrate: 4050 kb/s
  Program 1 
    Stream #0:0[0x1023]: Video: mpeg2video (4:2:2) [[2][0][0][0] / 0x0002]
      yuv420p, tv, 720x576 [PAR 49:33 DAR 245:132], 3364 kb/s
      24.08 fps, 90k tbn
Stream mapping:
  Stream #0:0 -> #0:0 (mpeg2video (native) -> rawvideo (native))
Press ctrl-c to stop encoding
[mpeg2video @ 117e400] Invalid frame dimensions 0x0.
Error while decoding stream #0:0
[mpeg2video @ 117e400] Invalid frame dimensions 0x0.
Error while decoding stream #0:0
[mpeg2video @ 117e400] Invalid frame dimensions 0x0.
Error while decoding stream #0:0
[mpeg2video @ 117e400] Invalid frame dimensions 0x0.
Error while decoding stream #0:0
[mpeg2video @ 117e400] Invalid frame dimensions 0x0.
Error while decoding stream #0:0
[mpeg2video @ 117e400] Invalid frame dimensions 0x0.
Error while decoding stream #0:0
[mpeg2video @ 117e400] Invalid frame dimensions 0x0.
Error while decoding stream #0:0
[mpeg2video @ 117e400] Invalid frame dimensions 0x0.
Error while decoding stream #0:0
[mpeg2video @ 117e400] Invalid frame dimensions 0x0.
Error while decoding stream #0:0
[mpegts @ 1169500] PES packet size mismatch
Video encoding failed
diffstderrlavf-gxf1n / a
--- /home/mik/src/fate/src/tests/ref/lavf/gxf	2014-06-10 00:18:15.785886704 +0400
+++ tests/data/fate/lavf-gxf	2017-07-10 01:40:30.162087122 +0300
@@ -1,3 +1,2 @@
 a1cf0a335ad64ec526bb69bbca0656c2 *./tests/data/lavf/lavf.gxf
 796428 ./tests/data/lavf/lavf.gxf
-./tests/data/lavf/lavf.gxf CRC=0xd04c769f
avconv version v13_dev0-1216-g0f5ad12, Copyright (c) 2000-2017 the Libav developers
  built on Jul 10 2017 01:33:39 with Sun C 5.12 SunOS_sparc 2011/11/16
Input #0, image2, from '/home/mik/src/fate/sparc-solaris-suncc/build/tests/vsynth1/%02d.pgm':
  Duration: 00:00:02.00, start: 0.000000, bitrate: N/A
    Stream #0:0: Video: pgmyuv
      yuv420p, 352x288
      25 fps, 25 tbn
[s16le @ 116fd40] Estimating duration from bitrate, this may be inaccurate
Guessed Channel Layout for Input Stream #1.0 : mono
Input #1, s16le, from '/home/mik/src/fate/sparc-solaris-suncc/build/./tests/data/asynth1.sw':
  Duration: N/A, start: 0.000000, bitrate: N/A
    Stream #1:0: Audio: pcm_s16le
      48000 Hz, 1 channels, s16, 768 kb/s
Codec AVOption threads () specified for input file #1 (/home/mik/src/fate/sparc-solaris-suncc/build/./tests/data/asynth1.sw) has not been used for any stream. The most likely reason is either wrong type (e.g. a video option with no video streams) or that it is a private option of some decoder which was not actually used for any stream.
Codec AVOption idct (select IDCT implementation) specified for input file #1 (/home/mik/src/fate/sparc-solaris-suncc/build/./tests/data/asynth1.sw) has not been used for any stream. The most likely reason is either wrong type (e.g. a video option with no video streams) or that it is a private option of some decoder which was not actually used for any stream.
Stream mapping:
  Stream #0:0 -> #0:0 (pgmyuv (native) -> mpeg2video (native))
  Stream #1:0 -> #0:1 (pcm_s16le (native) -> pcm_s16le (native))
Press ctrl-c to stop encoding
Output #0, gxf, to '/home/mik/src/fate/sparc-solaris-suncc/build/./tests/data/lavf/lavf.gxf':
    Stream #0:0: Video: mpeg2video (Main)
      yuv420p, 720x576, q=2-31, 200 kb/s
      25 fps, 50 tbn
    Metadata:
      encoder         : mpeg2video
    Side data:
      cpb: bitrate max/min/avg: 0/0/200000 buffer size: 0 vbv_delay: -1
    Stream #0:1: Audio: pcm_s16le
      48000 Hz, mono, s16, 768 kb/s
    Metadata:
      encoder         : pcm_s16le
frame=   25 fps=  2 q=10.0 Lsize=     778kB time=0.92 bitrate=6925.5kbits/s    
video:644kB audio:94kB other streams:0kB global headers:0kB muxing overhead: 5.424037%
avconv version v13_dev0-1216-g0f5ad12, Copyright (c) 2000-2017 the Libav developers
  built on Jul 10 2017 01:33:39 with Sun C 5.12 SunOS_sparc 2011/11/16
[gxf @ 1169580] Could not find codec parameters (Data: [0][0][0][0] / 0x0000)
Input #0, gxf, from '/home/mik/src/fate/sparc-solaris-suncc/build/./tests/data/lavf/lavf.gxf':
  Duration: 00:00:01.00, start: 0.000000, bitrate: 6371 kb/s
    Stream #0:0: Video: mpeg2video (4:2:2)
      yuv420p, tv, 720x576 [PAR 1:1 DAR 5:4], 104857 kb/s
      25 fps, 50 tbn
    Stream #0:1: Audio: pcm_s16le
      48000 Hz, mono, s16, 768 kb/s
    Stream #0:2: Data: [0][0][0][0] / 0x0000
Stream mapping:
  Stream #0:0 -> #0:0 (mpeg2video (native) -> rawvideo (native))
  Stream #0:1 -> #0:1 (pcm_s16le (native) -> pcm_s16le (native))
Press ctrl-c to stop encoding
/home/mik/src/fate/sparc-solaris-suncc/build/./tests/data/lavf/lavf.gxf: I/O error
Video encoding failed
diffstderrlavf-mpg1n / a
--- /home/mik/src/fate/src/tests/ref/lavf/mpg	2013-05-08 00:35:54.428978221 +0400
+++ tests/data/fate/lavf-mpg	2017-07-10 01:40:33.597598229 +0300
@@ -1,3 +1,2 @@
 7df31ba8a5909e3c88b1d1a3f93c4ec2 *./tests/data/lavf/lavf.mpg
 372736 ./tests/data/lavf/lavf.mpg
-./tests/data/lavf/lavf.mpg CRC=0xdd24439e
avconv version v13_dev0-1216-g0f5ad12, Copyright (c) 2000-2017 the Libav developers
  built on Jul 10 2017 01:33:39 with Sun C 5.12 SunOS_sparc 2011/11/16
Input #0, image2, from '/home/mik/src/fate/sparc-solaris-suncc/build/tests/vsynth1/%02d.pgm':
  Duration: 00:00:02.00, start: 0.000000, bitrate: N/A
    Stream #0:0: Video: pgmyuv
      yuv420p, 352x288
      25 fps, 25 tbn
[s16le @ 116fd40] Estimating duration from bitrate, this may be inaccurate
Guessed Channel Layout for Input Stream #1.0 : mono
Input #1, s16le, from '/home/mik/src/fate/sparc-solaris-suncc/build/./tests/data/asynth1.sw':
  Duration: N/A, start: 0.000000, bitrate: N/A
    Stream #1:0: Audio: pcm_s16le
      44100 Hz, 1 channels, s16, 705 kb/s
Codec AVOption threads () specified for input file #1 (/home/mik/src/fate/sparc-solaris-suncc/build/./tests/data/asynth1.sw) has not been used for any stream. The most likely reason is either wrong type (e.g. a video option with no video streams) or that it is a private option of some decoder which was not actually used for any stream.
Codec AVOption idct (select IDCT implementation) specified for input file #1 (/home/mik/src/fate/sparc-solaris-suncc/build/./tests/data/asynth1.sw) has not been used for any stream. The most likely reason is either wrong type (e.g. a video option with no video streams) or that it is a private option of some decoder which was not actually used for any stream.
Stream mapping:
  Stream #0:0 -> #0:0 (pgmyuv (native) -> mpeg1video (native))
  Stream #1:0 -> #0:1 (pcm_s16le (native) -> mp2 (native))
Press ctrl-c to stop encoding
[mpeg @ 11c0880] VBV buffer size not set, muxing may fail
Output #0, mpeg, to '/home/mik/src/fate/sparc-solaris-suncc/build/./tests/data/lavf/lavf.mpg':
    Stream #0:0: Video: mpeg1video
      yuv420p, 352x288, q=2-31, 200 kb/s
      25 fps, 90k tbn
    Metadata:
      encoder         : mpeg1video
    Side data:
      cpb: bitrate max/min/avg: 0/0/200000 buffer size: 0 vbv_delay: -1
    Stream #0:1: Audio: mp2
      44100 Hz, mono, s16, 64 kb/s
    Metadata:
      encoder         : mp2
frame=   25 fps= 14 q=10.0 Lsize=     364kB time=0.92 bitrate=3241.2kbits/s    
video:351kB audio:8kB other streams:0kB global headers:0kB muxing overhead: 1.346994%
avconv version v13_dev0-1216-g0f5ad12, Copyright (c) 2000-2017 the Libav developers
  built on Jul 10 2017 01:33:39 with Sun C 5.12 SunOS_sparc 2011/11/16
Input #0, mpeg, from '/home/mik/src/fate/sparc-solaris-suncc/build/./tests/data/lavf/lavf.mpg':
  Duration: 00:00:00.97, start: 1.029089, bitrate: 3071 kb/s
    Stream #0:0[0x1e0]: Video: mpeg1video
      yuv420p, tv, 352x288 [PAR 1:1 DAR 11:9], 104857 kb/s
      25 fps, 90k tbn
    Stream #0:1[0x1c0]: Audio: mp2
      44100 Hz, mono, s16p, 64 kb/s
Stream mapping:
  Stream #0:0 -> #0:0 (mpeg1video (native) -> rawvideo (native))
  Stream #0:1 -> #0:1 (mp2 (native) -> pcm_s16le (native))
Press ctrl-c to stop encoding
Video encoding failed
diffstderrlavf-mxf1n / a
--- /home/mik/src/fate/src/tests/ref/lavf/mxf	2014-06-10 00:18:15.787853377 +0400
+++ tests/data/fate/lavf-mxf	2017-07-10 01:40:38.542177140 +0300
@@ -1,3 +1,2 @@
 051b982c1b5799eb107339735a090c70 *./tests/data/lavf/lavf.mxf
 525881 ./tests/data/lavf/lavf.mxf
-./tests/data/lavf/lavf.mxf CRC=0x773f059a
avconv version v13_dev0-1216-g0f5ad12, Copyright (c) 2000-2017 the Libav developers
  built on Jul 10 2017 01:33:39 with Sun C 5.12 SunOS_sparc 2011/11/16
Input #0, image2, from '/home/mik/src/fate/sparc-solaris-suncc/build/tests/vsynth1/%02d.pgm':
  Duration: 00:00:02.00, start: 0.000000, bitrate: N/A
    Stream #0:0: Video: pgmyuv
      yuv420p, 352x288
      25 fps, 25 tbn
[s16le @ 116fd40] Estimating duration from bitrate, this may be inaccurate
Guessed Channel Layout for Input Stream #1.0 : mono
Input #1, s16le, from '/home/mik/src/fate/sparc-solaris-suncc/build/./tests/data/asynth1.sw':
  Duration: N/A, start: 0.000000, bitrate: N/A
    Stream #1:0: Audio: pcm_s16le
      48000 Hz, 1 channels, s16, 768 kb/s
Codec AVOption threads () specified for input file #1 (/home/mik/src/fate/sparc-solaris-suncc/build/./tests/data/asynth1.sw) has not been used for any stream. The most likely reason is either wrong type (e.g. a video option with no video streams) or that it is a private option of some decoder which was not actually used for any stream.
Codec AVOption idct (select IDCT implementation) specified for input file #1 (/home/mik/src/fate/sparc-solaris-suncc/build/./tests/data/asynth1.sw) has not been used for any stream. The most likely reason is either wrong type (e.g. a video option with no video streams) or that it is a private option of some decoder which was not actually used for any stream.
Stream mapping:
  Stream #0:0 -> #0:0 (pgmyuv (native) -> mpeg2video (native))
  Stream #1:0 -> #0:1 (pcm_s16le (native) -> pcm_s16le (native))
Press ctrl-c to stop encoding
Output #0, mxf, to '/home/mik/src/fate/sparc-solaris-suncc/build/./tests/data/lavf/lavf.mxf':
    Stream #0:0: Video: mpeg2video (Main)
      yuv420p, 352x288, q=2-31, 200 kb/s
      25 tbn
    Metadata:
      encoder         : mpeg2video
    Side data:
      cpb: bitrate max/min/avg: 0/0/200000 buffer size: 0 vbv_delay: -1
    Stream #0:1: Audio: pcm_s16le
      48000 Hz, mono, s16, 768 kb/s
    Metadata:
      encoder         : pcm_s16le
frame=   25 fps=  9 q=10.0 Lsize=     514kB time=0.92 bitrate=4572.9kbits/s    
video:386kB audio:94kB other streams:0kB global headers:0kB muxing overhead: 7.040198%
avconv version v13_dev0-1216-g0f5ad12, Copyright (c) 2000-2017 the Libav developers
  built on Jul 10 2017 01:33:39 with Sun C 5.12 SunOS_sparc 2011/11/16
Guessed Channel Layout for Input Stream #0.1 : mono
Input #0, mxf, from '/home/mik/src/fate/sparc-solaris-suncc/build/./tests/data/lavf/lavf.mxf':
  Metadata:
    uid             : adab4424-2f25-4dc7-92ff-29bd000b0000
    generation_uid  : adab4424-2f25-4dc7-92ff-29bd000b0001
    company_name    : Libav
    product_name    : OP1a Muxer
    product_version : 0.0.0
    product_uid     : adab4424-2f25-4dc7-92ff-29bd000b0002
    modification_date: 0000-01-01 00:00:00
  Duration: 00:00:01.00, start: 0.000000, bitrate: 4207 kb/s
    Stream #0:0: Video: mpeg2video (4:2:2)
      yuv420p, tv, 352x288 [PAR 1:1 DAR 11:9], 104857 kb/s
      25 fps, 25 tbn
    Stream #0:1: Audio: pcm_s16le
      48000 Hz, 1 channels, s16, 768 kb/s
Stream mapping:
  Stream #0:0 -> #0:0 (mpeg2video (native) -> rawvideo (native))
  Stream #0:1 -> #0:1 (pcm_s16le (native) -> pcm_s16le (native))
Press ctrl-c to stop encoding
Video encoding failed
diffstderrlavf-mxf_d101n / a
--- /home/mik/src/fate/src/tests/ref/lavf/mxf_d10	2016-02-24 10:21:18.208360407 +0300
+++ tests/data/fate/lavf-mxf_d10	2017-07-10 01:40:55.233290243 +0300
@@ -1,3 +1,2 @@
 96f933913835a439dd97144303dc8929 *./tests/data/lavf/lavf.mxf_d10
 5330989 ./tests/data/lavf/lavf.mxf_d10
-./tests/data/lavf/lavf.mxf_d10 CRC=0x4474d480
avconv version v13_dev0-1216-g0f5ad12, Copyright (c) 2000-2017 the Libav developers
  built on Jul 10 2017 01:33:39 with Sun C 5.12 SunOS_sparc 2011/11/16
Input #0, image2, from '/home/mik/src/fate/sparc-solaris-suncc/build/tests/vsynth1/%02d.pgm':
  Duration: 00:00:02.00, start: 0.000000, bitrate: N/A
    Stream #0:0: Video: pgmyuv
      yuv420p, 352x288
      25 fps, 25 tbn
[s16le @ 1170000] Estimating duration from bitrate, this may be inaccurate
Guessed Channel Layout for Input Stream #1.0 : stereo
Input #1, s16le, from '/home/mik/src/fate/sparc-solaris-suncc/build/./tests/data/asynth1.sw':
  Duration: N/A, start: 0.000000, bitrate: N/A
    Stream #1:0: Audio: pcm_s16le
      48000 Hz, 2 channels, s16, 1536 kb/s
Codec AVOption threads () specified for input file #1 (/home/mik/src/fate/sparc-solaris-suncc/build/./tests/data/asynth1.sw) has not been used for any stream. The most likely reason is either wrong type (e.g. a video option with no video streams) or that it is a private option of some decoder which was not actually used for any stream.
Codec AVOption idct (select IDCT implementation) specified for input file #1 (/home/mik/src/fate/sparc-solaris-suncc/build/./tests/data/asynth1.sw) has not been used for any stream. The most likely reason is either wrong type (e.g. a video option with no video streams) or that it is a private option of some decoder which was not actually used for any stream.
Stream mapping:
  Stream #0:0 -> #0:0 (pgmyuv (native) -> mpeg2video (native))
  Stream #1:0 -> #0:1 (pcm_s16le (native) -> pcm_s16le (native))
Press ctrl-c to stop encoding
opts ':576' 
Output #0, mxf_d10, to '/home/mik/src/fate/sparc-solaris-suncc/build/./tests/data/lavf/lavf.mxf_d10':
    Stream #0:0: Video: mpeg2video (4:2:2)
      yuv422p, 720x608, q=2-31, 30000 kb/s
      25 fps, 25 tbn
    Metadata:
      encoder         : mpeg2video
    Side data:
      cpb: bitrate max/min/avg: 30000000/30000000/30000000 buffer size: 1200000 vbv_delay: -1
    Stream #0:1: Audio: pcm_s16le
      48000 Hz, stereo, s16, 1536 kb/s
    Metadata:
      encoder         : pcm_s16le
frame=   25 fps=  1 q=1.0 Lsize=    5206kB time=0.96 bitrate=44424.9kbits/s    
video:3662kB audio:188kB other streams:0kB global headers:0kB muxing overhead: 35.235641%
avconv version v13_dev0-1216-g0f5ad12, Copyright (c) 2000-2017 the Libav developers
  built on Jul 10 2017 01:33:39 with Sun C 5.12 SunOS_sparc 2011/11/16
[mxf @ 1169580] Field dominance 0 support is not implemented. Update your Libav version to the newest one from Git. If the problem still occurs, it means that your file has a feature which has not been implemented.
[mxf @ 1169580] If you want to help, upload a sample of this file to ftp://upload.libav.org/incoming/ and contact the libav-devel mailing list.
[mxf @ 1169580] Could not find codec parameters (Video: mpeg1video
      none, tv, 720x608, 30000 kb/s)
Guessed Channel Layout for Input Stream #0.1 : stereo
Input #0, mxf, from '/home/mik/src/fate/sparc-solaris-suncc/build/./tests/data/lavf/lavf.mxf_d10':
  Metadata:
    uid             : adab4424-2f25-4dc7-92ff-29bd000b0000
    generation_uid  : adab4424-2f25-4dc7-92ff-29bd000b0001
    company_name    : Libav
    product_name    : OP1a Muxer
    product_version : 0.0.0
    product_uid     : adab4424-2f25-4dc7-92ff-29bd000b0002
    modification_date: 0000-01-01 00:00:00
  Duration: 00:00:01.00, start: 0.000000, bitrate: 42647 kb/s
    Stream #0:0: Video: mpeg1video
      none, tv, 720x608, 30000 kb/s
      25 fps, 25 tbn
    Stream #0:1: Audio: pcm_s16le
      48000 Hz, 2 channels, s16, 1536 kb/s
Stream mapping:
  Stream #0:0 -> #0:0 (mpeg1video (native) -> rawvideo (native))
  Stream #0:1 -> #0:1 (pcm_s16le (native) -> pcm_s16le (native))
Press ctrl-c to stop encoding
Video encoding failed
diffstderrlavf-ts1n / a
--- /home/mik/src/fate/src/tests/ref/lavf/ts	2016-05-22 19:51:21.296085223 +0300
+++ tests/data/fate/lavf-ts	2017-07-10 01:41:09.432557251 +0300
@@ -1,3 +1,2 @@
 f74d6f4d4073f4242cec3d5fee099779 *./tests/data/lavf/lavf.ts
 406456 ./tests/data/lavf/lavf.ts
-./tests/data/lavf/lavf.ts CRC=0xb4ca6cdc
avconv version v13_dev0-1216-g0f5ad12, Copyright (c) 2000-2017 the Libav developers
  built on Jul 10 2017 01:33:39 with Sun C 5.12 SunOS_sparc 2011/11/16
Input #0, image2, from '/home/mik/src/fate/sparc-solaris-suncc/build/tests/vsynth1/%02d.pgm':
  Duration: 00:00:02.00, start: 0.000000, bitrate: N/A
    Stream #0:0: Video: pgmyuv
      yuv420p, 352x288
      25 fps, 25 tbn
[s16le @ 116fd40] Estimating duration from bitrate, this may be inaccurate
Guessed Channel Layout for Input Stream #1.0 : mono
Input #1, s16le, from '/home/mik/src/fate/sparc-solaris-suncc/build/./tests/data/asynth1.sw':
  Duration: N/A, start: 0.000000, bitrate: N/A
    Stream #1:0: Audio: pcm_s16le
      44100 Hz, 1 channels, s16, 705 kb/s
Codec AVOption threads () specified for input file #1 (/home/mik/src/fate/sparc-solaris-suncc/build/./tests/data/asynth1.sw) has not been used for any stream. The most likely reason is either wrong type (e.g. a video option with no video streams) or that it is a private option of some decoder which was not actually used for any stream.
Codec AVOption idct (select IDCT implementation) specified for input file #1 (/home/mik/src/fate/sparc-solaris-suncc/build/./tests/data/asynth1.sw) has not been used for any stream. The most likely reason is either wrong type (e.g. a video option with no video streams) or that it is a private option of some decoder which was not actually used for any stream.
Stream mapping:
  Stream #0:0 -> #0:0 (pgmyuv (native) -> mpeg2video (native))
  Stream #1:0 -> #0:1 (pcm_s16le (native) -> mp2 (native))
Press ctrl-c to stop encoding
Output #0, mpegts, to '/home/mik/src/fate/sparc-solaris-suncc/build/./tests/data/lavf/lavf.ts':
    Stream #0:0: Video: mpeg2video (Main)
      yuv420p, 352x288, q=2-31, 200 kb/s
      90k tbn
    Metadata:
      encoder         : mpeg2video
    Side data:
      cpb: bitrate max/min/avg: 0/0/200000 buffer size: 0 vbv_delay: -1
    Stream #0:1: Audio: mp2
      44100 Hz, mono, s16, 64 kb/s
    Metadata:
      encoder         : mp2
frame=   25 fps= 12 q=10.0 Lsize=     397kB time=0.92 bitrate=3534.4kbits/s    
video:357kB audio:8kB other streams:0kB global headers:0kB muxing overhead: 8.685049%
avconv version v13_dev0-1216-g0f5ad12, Copyright (c) 2000-2017 the Libav developers
  built on Jul 10 2017 01:33:39 with Sun C 5.12 SunOS_sparc 2011/11/16
Guessed Channel Layout for Input Stream #0.1 : mono
Input #0, mpegts, from '/home/mik/src/fate/sparc-solaris-suncc/build/./tests/data/lavf/lavf.ts':
  Duration: 00:00:00.97, start: 1.429089, bitrate: 3349 kb/s
  Program 1 
    Metadata:
      service_name    : Service01
      service_provider: Libav
    Stream #0:0[0x100]: Video: mpeg2video (4:2:2) [[2][0][0][0] / 0x0002]
      yuv420p, tv, 352x288 [PAR 1:1 DAR 11:9], 104857 kb/s
      25 fps, 90k tbn
    Stream #0:1[0x101]: Audio: mp2 [[3][0][0][0] / 0x0003]
      44100 Hz, 1 channels, s16p, 64 kb/s
Stream mapping:
  Stream #0:0 -> #0:0 (mpeg2video (native) -> rawvideo (native))
  Stream #0:1 -> #0:1 (mp2 (native) -> pcm_s16le (native))
Press ctrl-c to stop encoding
Video encoding failed
diffstderrmpeg2-field-enc1n / a
--- /home/mik/src/fate/src/tests/ref/fate/mpeg2-field-enc	2013-05-08 00:35:54.201439712 +0400
+++ tests/data/fate/mpeg2-field-enc	2017-07-10 02:30:10.548308123 +0300
@@ -1,31 +0,0 @@
-#tb 0: 1/90000
-0,      32400,      32400,        0,   622080, 0xb3b66c5c
-0,      36000,      36000,        0,   622080, 0x088ec02b
-0,      39600,      39600,        0,   622080, 0x7a36db21
-0,      43200,      43200,        0,   622080, 0x541b286f
-0,      46800,      46800,        0,   622080, 0xb6c3e590
-0,      50400,      50400,        0,   622080, 0x39dbed51
-0,      54000,      54000,        0,   622080, 0x973dc728
-0,      57600,      57600,        0,   622080, 0xd7a4f804
-0,      61200,      61200,        0,   622080, 0xa2484762
-0,      64800,      64800,        0,   622080, 0x0cd268d1
-0,      68400,      68400,        0,   622080, 0x72eb663d
-0,      72000,      72000,        0,   622080, 0x8fdbac59
-0,      75600,      75600,        0,   622080, 0xa6f4feb9
-0,      79200,      79200,        0,   622080, 0xadb828c6
-0,      82800,      82800,        0,   622080, 0xea630a63
-0,      86400,      86400,        0,   622080, 0xa901d925
-0,      90000,      90000,        0,   622080, 0xac5e7087
-0,      93600,      93600,        0,   622080, 0x10274a2b
-0,      97200,      97200,        0,   622080, 0x143d541c
-0,     100800,     100800,        0,   622080, 0xee94c93a
-0,     104400,     104400,        0,   622080, 0xca030208
-0,     108000,     108000,        0,   622080, 0x26f30ead
-0,     111600,     111600,        0,   622080, 0xfc22f32c
-0,     115200,     115200,        0,   622080, 0x940a5ff8
-0,     118800,     118800,        0,   622080, 0x2164f805
-0,     122400,     122400,        0,   622080, 0xa76f5aba
-0,     126000,     126000,        0,   622080, 0x8c311471
-0,     129600,     129600,        0,   622080, 0xa45e1d95
-0,     133200,     133200,        0,   622080, 0x6cc61d6c
-0,     136800,     136800,        0,   622080, 0x6983b417
avconv version v13_dev0-1216-g0f5ad12, Copyright (c) 2000-2017 the Libav developers
  built on Jul 10 2017 01:33:39 with Sun C 5.12 SunOS_sparc 2011/11/16
[mpeg2video @ 117db40] Invalid frame dimensions 0x0.
    Last message repeated 8 times
[mpegts @ 1169500] Non-increasing DTS in stream 0: packet 12 with DTS 2065846349, packet 13 with DTS 2065846349
[mpegts @ 1169500] PES packet size mismatch
    Last message repeated 1 times
Input #0, mpegts, from '/home/mik/src/fate/fate-suite/mpeg2/mpeg2_field_encoding.ts':
  Duration: 00:00:01.58, start: 22953.408322, bitrate: 4050 kb/s
  Program 1 
    Stream #0:0[0x1023]: Video: mpeg2video (4:2:2) [[2][0][0][0] / 0x0002]
      yuv420p, tv, 720x576 [PAR 49:33 DAR 245:132], 3364 kb/s
      24.08 fps, 90k tbn
Stream mapping:
  Stream #0:0 -> #0:0 (mpeg2video (native) -> rawvideo (native))
Press ctrl-c to stop encoding
[mpeg2video @ 117e400] Invalid frame dimensions 0x0.
Error while decoding stream #0:0
[mpeg2video @ 117e400] Invalid frame dimensions 0x0.
Error while decoding stream #0:0
[mpeg2video @ 117e400] Invalid frame dimensions 0x0.
Error while decoding stream #0:0
[mpeg2video @ 117e400] Invalid frame dimensions 0x0.
Error while decoding stream #0:0
[mpeg2video @ 117e400] Invalid frame dimensions 0x0.
Error while decoding stream #0:0
[mpeg2video @ 117e400] Invalid frame dimensions 0x0.
Error while decoding stream #0:0
[mpeg2video @ 117e400] Invalid frame dimensions 0x0.
Error while decoding stream #0:0
[mpeg2video @ 117e400] Invalid frame dimensions 0x0.
Error while decoding stream #0:0
[mpeg2video @ 117e400] Invalid frame dimensions 0x0.
Error while decoding stream #0:0
[mpegts @ 1169500] PES packet size mismatch
Video encoding failed
diffstderrvsynth1-mpeg11n / a
--- /home/mik/src/fate/src/tests/ref/vsynth/vsynth1-mpeg1	2013-05-08 00:35:54.572481773 +0400
+++ tests/data/fate/vsynth1-mpeg1	2017-07-10 02:37:27.978458388 +0300
@@ -1,4 +1,2 @@
 1428744c6d5835f27506e69be4f837f4 *tests/data/fate/vsynth1-mpeg1.mpeg1video
 712006 tests/data/fate/vsynth1-mpeg1.mpeg1video
-58f0c332bf689117b57fa629a2bc0d2b *tests/data/fate/vsynth1-mpeg1.out.rawvideo
-stddev:    7.62 PSNR: 30.48 MAXDIFF:   84 bytes:  7603200/  7603200
avconv version v13_dev0-1216-g0f5ad12, Copyright (c) 2000-2017 the Libav developers
  built on Jul 10 2017 01:33:39 with Sun C 5.12 SunOS_sparc 2011/11/16
[rawvideo @ 1169680] Estimating duration from bitrate, this may be inaccurate
Input #0, rawvideo, from '/home/mik/src/fate/sparc-solaris-suncc/build/tests/data/vsynth1.yuv':
  Duration: N/A, start: 0.000000, bitrate: N/A
    Stream #0:0: Video: rawvideo
      yuv420p, 352x288
      25 fps, 25 tbn
Stream mapping:
  Stream #0:0 -> #0:0 (rawvideo (native) -> mpeg1video (native))
Press ctrl-c to stop encoding
Output #0, mpeg1video, to '/home/mik/src/fate/sparc-solaris-suncc/build/tests/data/fate/vsynth1-mpeg1.mpeg1video':
    Stream #0:0: Video: mpeg1video
      yuv420p, 352x288, q=2-31, 200 kb/s
      25 tbn
    Metadata:
      encoder         : mpeg1video
    Side data:
      cpb: bitrate max/min/avg: 0/0/200000 buffer size: 0 vbv_delay: -1
frame=   50 fps= 14 q=10.0 Lsize=     695kB time=1.92 bitrate=2966.7kbits/s    
video:695kB audio:0kB other streams:0kB global headers:0kB muxing overhead: 0.000000%
avconv version v13_dev0-1216-g0f5ad12, Copyright (c) 2000-2017 the Libav developers
  built on Jul 10 2017 01:33:39 with Sun C 5.12 SunOS_sparc 2011/11/16
[mpegvideo @ 1169680] Estimating duration from bitrate, this may be inaccurate
Input #0, mpegvideo, from '/home/mik/src/fate/sparc-solaris-suncc/build/tests/data/fate/vsynth1-mpeg1.mpeg1video':
  Duration: 00:00:00.04, bitrate: 142401 kb/s
    Stream #0:0: Video: mpeg1video
      yuv420p, tv, 352x288 [PAR 1:1 DAR 11:9], 104857 kb/s
      25 fps, 25 tbn
Stream mapping:
  Stream #0:0 -> #0:0 (mpeg1video (native) -> rawvideo (native))
Press ctrl-c to stop encoding
Video encoding failed
diffstderrvsynth1-mpeg1b1n / a
--- /home/mik/src/fate/src/tests/ref/vsynth/vsynth1-mpeg1b	2013-05-08 00:35:54.573300273 +0400
+++ tests/data/fate/vsynth1-mpeg1b	2017-07-10 02:37:35.478748602 +0300
@@ -1,4 +1,2 @@
 777639666b449ab0a7ef260511e40532 *tests/data/fate/vsynth1-mpeg1b.mpeg1video
 1030337 tests/data/fate/vsynth1-mpeg1b.mpeg1video
-91a7fce732b34748e7bf753ebabe2483 *tests/data/fate/vsynth1-mpeg1b.out.rawvideo
-stddev:    6.30 PSNR: 32.13 MAXDIFF:   75 bytes:  7603200/  7603200
avconv version v13_dev0-1216-g0f5ad12, Copyright (c) 2000-2017 the Libav developers
  built on Jul 10 2017 01:33:39 with Sun C 5.12 SunOS_sparc 2011/11/16
[rawvideo @ 1169680] Estimating duration from bitrate, this may be inaccurate
Input #0, rawvideo, from '/home/mik/src/fate/sparc-solaris-suncc/build/tests/data/vsynth1.yuv':
  Duration: N/A, start: 0.000000, bitrate: N/A
    Stream #0:0: Video: rawvideo
      yuv420p, 352x288
      25 fps, 25 tbn
Stream mapping:
  Stream #0:0 -> #0:0 (rawvideo (native) -> mpeg1video (native))
Press ctrl-c to stop encoding
Output #0, mpeg1video, to '/home/mik/src/fate/sparc-solaris-suncc/build/tests/data/fate/vsynth1-mpeg1b.mpeg1video':
    Stream #0:0: Video: mpeg1video
      yuv420p, 352x288, q=2-31, 200 kb/s
      25 tbn
    Metadata:
      encoder         : mpeg1video
    Side data:
      cpb: bitrate max/min/avg: 0/0/200000 buffer size: 0 vbv_delay: -1
frame=   50 fps=  8 q=8.0 Lsize=    1006kB time=1.92 bitrate=4293.1kbits/s    
video:1006kB audio:0kB other streams:0kB global headers:0kB muxing overhead: 0.000000%
avconv version v13_dev0-1216-g0f5ad12, Copyright (c) 2000-2017 the Libav developers
  built on Jul 10 2017 01:33:39 with Sun C 5.12 SunOS_sparc 2011/11/16
[mpegvideo @ 1169680] Estimating duration from bitrate, this may be inaccurate
Input #0, mpegvideo, from '/home/mik/src/fate/sparc-solaris-suncc/build/tests/data/fate/vsynth1-mpeg1b.mpeg1video':
  Duration: 00:00:00.08, bitrate: 103033 kb/s
    Stream #0:0: Video: mpeg1video
      yuv420p, tv, 352x288 [PAR 1:1 DAR 11:9], 104857 kb/s
      25 fps, 25 tbn
Stream mapping:
  Stream #0:0 -> #0:0 (mpeg1video (native) -> rawvideo (native))
Press ctrl-c to stop encoding
Video encoding failed
diffstderrvsynth1-mpeg21n / a
--- /home/mik/src/fate/src/tests/ref/vsynth/vsynth1-mpeg2	2014-06-10 00:18:15.812721349 +0400
+++ tests/data/fate/vsynth1-mpeg2	2017-07-10 02:37:39.863180903 +0300
@@ -1,4 +1,2 @@
 50c344f0e0e3c65001a68b2c899a283f *tests/data/fate/vsynth1-mpeg2.mpeg2video
 728104 tests/data/fate/vsynth1-mpeg2.mpeg2video
-b41ca49c1a02e66ce64d262e2cdaec15 *tests/data/fate/vsynth1-mpeg2.out.rawvideo
-stddev:    7.65 PSNR: 30.45 MAXDIFF:   84 bytes:  7603200/  7603200
avconv version v13_dev0-1216-g0f5ad12, Copyright (c) 2000-2017 the Libav developers
  built on Jul 10 2017 01:33:39 with Sun C 5.12 SunOS_sparc 2011/11/16
[rawvideo @ 1169680] Estimating duration from bitrate, this may be inaccurate
Input #0, rawvideo, from '/home/mik/src/fate/sparc-solaris-suncc/build/tests/data/vsynth1.yuv':
  Duration: N/A, start: 0.000000, bitrate: N/A
    Stream #0:0: Video: rawvideo
      yuv420p, 352x288
      25 fps, 25 tbn
Stream mapping:
  Stream #0:0 -> #0:0 (rawvideo (native) -> mpeg2video (native))
Press ctrl-c to stop encoding
Output #0, mpeg2video, to '/home/mik/src/fate/sparc-solaris-suncc/build/tests/data/fate/vsynth1-mpeg2.mpeg2video':
    Stream #0:0: Video: mpeg2video (Main)
      yuv420p, 352x288, q=2-31, 200 kb/s
      25 tbn
    Metadata:
      encoder         : mpeg2video
    Side data:
      cpb: bitrate max/min/avg: 0/0/200000 buffer size: 0 vbv_delay: -1
frame=   50 fps= 14 q=10.0 Lsize=     711kB time=1.92 bitrate=3033.8kbits/s    
video:711kB audio:0kB other streams:0kB global headers:0kB muxing overhead: 0.000000%
avconv version v13_dev0-1216-g0f5ad12, Copyright (c) 2000-2017 the Libav developers
  built on Jul 10 2017 01:33:39 with Sun C 5.12 SunOS_sparc 2011/11/16
[mpegvideo @ 1169680] Estimating duration from bitrate, this may be inaccurate
Input #0, mpegvideo, from '/home/mik/src/fate/sparc-solaris-suncc/build/tests/data/fate/vsynth1-mpeg2.mpeg2video':
  Duration: 00:00:00.04, bitrate: 145620 kb/s
    Stream #0:0: Video: mpeg2video (4:2:2)
      yuv420p, tv, 352x288 [PAR 1:1 DAR 11:9], 104857 kb/s
      25 fps, 25 tbn
Stream mapping:
  Stream #0:0 -> #0:0 (mpeg2video (native) -> rawvideo (native))
Press ctrl-c to stop encoding
Video encoding failed
diffstderrvsynth1-mpeg2-4221n / a
--- /home/mik/src/fate/src/tests/ref/vsynth/vsynth1-mpeg2-422	2014-06-10 00:18:15.814647111 +0400
+++ tests/data/fate/vsynth1-mpeg2-422	2017-07-10 02:38:18.515992241 +0300
@@ -1,4 +1,2 @@
 c2124749526d2d4d41398d52557fad1b *tests/data/fate/vsynth1-mpeg2-422.mpeg2video
 728260 tests/data/fate/vsynth1-mpeg2-422.mpeg2video
-eb7fe83ce09af2d79ec16577c9d44e3c *tests/data/fate/vsynth1-mpeg2-422.out.rawvideo
-stddev:   10.29 PSNR: 27.88 MAXDIFF:  168 bytes:  7603200/  7603200
avconv version v13_dev0-1216-g0f5ad12, Copyright (c) 2000-2017 the Libav developers
  built on Jul 10 2017 01:33:39 with Sun C 5.12 SunOS_sparc 2011/11/16
[rawvideo @ 1169680] Estimating duration from bitrate, this may be inaccurate
Input #0, rawvideo, from '/home/mik/src/fate/sparc-solaris-suncc/build/tests/data/vsynth1.yuv':
  Duration: N/A, start: 0.000000, bitrate: N/A
    Stream #0:0: Video: rawvideo
      yuv420p, 352x288
      25 fps, 25 tbn
Stream mapping:
  Stream #0:0 -> #0:0 (rawvideo (native) -> mpeg2video (native))
Press ctrl-c to stop encoding
Output #0, mpeg2video, to '/home/mik/src/fate/sparc-solaris-suncc/build/tests/data/fate/vsynth1-mpeg2-422.mpeg2video':
    Stream #0:0: Video: mpeg2video (4:2:2)
      yuv422p, 352x288, q=2-31, 1000 kb/s
      25 tbn
    Metadata:
      encoder         : mpeg2video
    Side data:
      cpb: bitrate max/min/avg: 0/0/1000000 buffer size: 0 vbv_delay: -1
frame=   50 fps=  1 q=30.1 Lsize=     711kB time=1.92 bitrate=3034.4kbits/s    
video:711kB audio:0kB other streams:0kB global headers:0kB muxing overhead: 0.000000%
avconv version v13_dev0-1216-g0f5ad12, Copyright (c) 2000-2017 the Libav developers
  built on Jul 10 2017 01:33:39 with Sun C 5.12 SunOS_sparc 2011/11/16
[mpegvideo @ 1169680] Estimating duration from bitrate, this may be inaccurate
Input #0, mpegvideo, from '/home/mik/src/fate/sparc-solaris-suncc/build/tests/data/fate/vsynth1-mpeg2-422.mpeg2video':
  Duration: 00:00:00.04, bitrate: 145652 kb/s
    Stream #0:0: Video: mpeg2video (4:2:2)
      yuv420p, tv, 352x288 [PAR 1:1 DAR 11:9], 104857 kb/s
      25 fps, 25 tbn
Stream mapping:
  Stream #0:0 -> #0:0 (mpeg2video (native) -> rawvideo (native))
Press ctrl-c to stop encoding
Video encoding failed
diffstderrvsynth1-mpeg2-idct-int1n / a
--- /home/mik/src/fate/src/tests/ref/vsynth/vsynth1-mpeg2-idct-int	2014-06-10 00:18:15.816724340 +0400
+++ tests/data/fate/vsynth1-mpeg2-idct-int	2017-07-10 02:37:44.642247619 +0300
@@ -1,4 +1,2 @@
 d0cc23c61c4afcfdf0fea53b31c6df38 *tests/data/fate/vsynth1-mpeg2-idct-int.mpeg2video
 725728 tests/data/fate/vsynth1-mpeg2-idct-int.mpeg2video
-8130f71a467315c9e7bd1a25a01dbb23 *tests/data/fate/vsynth1-mpeg2-idct-int.out.rawvideo
-stddev:    7.65 PSNR: 30.45 MAXDIFF:   80 bytes:  7603200/  7603200
avconv version v13_dev0-1216-g0f5ad12, Copyright (c) 2000-2017 the Libav developers
  built on Jul 10 2017 01:33:39 with Sun C 5.12 SunOS_sparc 2011/11/16
[rawvideo @ 1169680] Estimating duration from bitrate, this may be inaccurate
Input #0, rawvideo, from '/home/mik/src/fate/sparc-solaris-suncc/build/tests/data/vsynth1.yuv':
  Duration: N/A, start: 0.000000, bitrate: N/A
    Stream #0:0: Video: rawvideo
      yuv420p, 352x288
      25 fps, 25 tbn
Stream mapping:
  Stream #0:0 -> #0:0 (rawvideo (native) -> mpeg2video (native))
Press ctrl-c to stop encoding
Output #0, mpeg2video, to '/home/mik/src/fate/sparc-solaris-suncc/build/tests/data/fate/vsynth1-mpeg2-idct-int.mpeg2video':
    Stream #0:0: Video: mpeg2video (Main)
      yuv420p, 352x288, q=2-31, 200 kb/s
      25 tbn
    Metadata:
      encoder         : mpeg2video
    Side data:
      cpb: bitrate max/min/avg: 0/0/200000 buffer size: 0 vbv_delay: -1
frame=   50 fps= 13 q=10.0 Lsize=     709kB time=1.92 bitrate=3023.9kbits/s    
video:709kB audio:0kB other streams:0kB global headers:0kB muxing overhead: 0.000000%
avconv version v13_dev0-1216-g0f5ad12, Copyright (c) 2000-2017 the Libav developers
  built on Jul 10 2017 01:33:39 with Sun C 5.12 SunOS_sparc 2011/11/16
[mpegvideo @ 1169680] Estimating duration from bitrate, this may be inaccurate
Input #0, mpegvideo, from '/home/mik/src/fate/sparc-solaris-suncc/build/tests/data/fate/vsynth1-mpeg2-idct-int.mpeg2video':
  Duration: 00:00:00.04, bitrate: 145145 kb/s
    Stream #0:0: Video: mpeg2video (4:2:2)
      yuv420p, tv, 352x288 [PAR 1:1 DAR 11:9], 104857 kb/s
      25 fps, 25 tbn
Stream mapping:
  Stream #0:0 -> #0:0 (mpeg2video (native) -> rawvideo (native))
Press ctrl-c to stop encoding
Video encoding failed
diffstderrvsynth1-mpeg2-ilace1n / a
--- /home/mik/src/fate/src/tests/ref/vsynth/vsynth1-mpeg2-ilace	2014-06-10 00:18:15.818625491 +0400
+++ tests/data/fate/vsynth1-mpeg2-ilace	2017-07-10 02:37:51.256402087 +0300
@@ -1,4 +1,2 @@
 c8e27cddb2da4d76816c258b6e3d1fab *tests/data/fate/vsynth1-mpeg2-ilace.mpeg2video
 737533 tests/data/fate/vsynth1-mpeg2-ilace.mpeg2video
-97615390fdd69abfcbc7e02df863a7d2 *tests/data/fate/vsynth1-mpeg2-ilace.out.rawvideo
-stddev:    7.67 PSNR: 30.43 MAXDIFF:   84 bytes:  7603200/  7603200
avconv version v13_dev0-1216-g0f5ad12, Copyright (c) 2000-2017 the Libav developers
  built on Jul 10 2017 01:33:39 with Sun C 5.12 SunOS_sparc 2011/11/16
[rawvideo @ 1169680] Estimating duration from bitrate, this may be inaccurate
Input #0, rawvideo, from '/home/mik/src/fate/sparc-solaris-suncc/build/tests/data/vsynth1.yuv':
  Duration: N/A, start: 0.000000, bitrate: N/A
    Stream #0:0: Video: rawvideo
      yuv420p, 352x288
      25 fps, 25 tbn
Stream mapping:
  Stream #0:0 -> #0:0 (rawvideo (native) -> mpeg2video (native))
Press ctrl-c to stop encoding
Output #0, mpeg2video, to '/home/mik/src/fate/sparc-solaris-suncc/build/tests/data/fate/vsynth1-mpeg2-ilace.mpeg2video':
    Stream #0:0: Video: mpeg2video (Main)
      yuv420p, 352x288, q=2-31, 200 kb/s
      25 tbn
    Metadata:
      encoder         : mpeg2video
    Side data:
      cpb: bitrate max/min/avg: 0/0/200000 buffer size: 0 vbv_delay: -1
frame=   50 fps=  9 q=10.0 Lsize=     720kB time=1.92 bitrate=3073.1kbits/s    
video:720kB audio:0kB other streams:0kB global headers:0kB muxing overhead: 0.000000%
avconv version v13_dev0-1216-g0f5ad12, Copyright (c) 2000-2017 the Libav developers
  built on Jul 10 2017 01:33:39 with Sun C 5.12 SunOS_sparc 2011/11/16
[mpegvideo @ 1169680] Estimating duration from bitrate, this may be inaccurate
Input #0, mpegvideo, from '/home/mik/src/fate/sparc-solaris-suncc/build/tests/data/fate/vsynth1-mpeg2-ilace.mpeg2video':
  Duration: 00:00:00.04, bitrate: 147506 kb/s
    Stream #0:0: Video: mpeg2video (4:2:2)
      yuv420p, tv, 352x288 [PAR 1:1 DAR 11:9], 104857 kb/s
      25 fps, 25 tbn
Stream mapping:
  Stream #0:0 -> #0:0 (mpeg2video (native) -> rawvideo (native))
Press ctrl-c to stop encoding
Video encoding failed
diffstderrvsynth1-mpeg2-ivlc-qprd1n / a
--- /home/mik/src/fate/src/tests/ref/vsynth/vsynth1-mpeg2-ivlc-qprd	2014-06-10 00:18:15.820871547 +0400
+++ tests/data/fate/vsynth1-mpeg2-ivlc-qprd	2017-07-10 02:38:22.449312315 +0300
@@ -1,4 +1,2 @@
 ba08be2c6209f6b88be97e6fe74911db *tests/data/fate/vsynth1-mpeg2-ivlc-qprd.mpeg2video
 783612 tests/data/fate/vsynth1-mpeg2-ivlc-qprd.mpeg2video
-98eb9da15f880978e7f2ee1e7ce476ef *tests/data/fate/vsynth1-mpeg2-ivlc-qprd.out.rawvideo
-stddev:   10.07 PSNR: 28.06 MAXDIFF:  165 bytes:  7603200/  7603200
avconv version v13_dev0-1216-g0f5ad12, Copyright (c) 2000-2017 the Libav developers
  built on Jul 10 2017 01:33:39 with Sun C 5.12 SunOS_sparc 2011/11/16
[rawvideo @ 1169680] Estimating duration from bitrate, this may be inaccurate
Input #0, rawvideo, from '/home/mik/src/fate/sparc-solaris-suncc/build/tests/data/vsynth1.yuv':
  Duration: N/A, start: 0.000000, bitrate: N/A
    Stream #0:0: Video: rawvideo
      yuv420p, 352x288
      25 fps, 25 tbn
Stream mapping:
  Stream #0:0 -> #0:0 (rawvideo (native) -> mpeg2video (native))
Press ctrl-c to stop encoding
Output #0, mpeg2video, to '/home/mik/src/fate/sparc-solaris-suncc/build/tests/data/fate/vsynth1-mpeg2-ivlc-qprd.mpeg2video':
    Stream #0:0: Video: mpeg2video (Main)
      yuv420p, 352x288, q=2-31, 500 kb/s
      25 tbn
    Metadata:
      encoder         : mpeg2video
    Side data:
      cpb: bitrate max/min/avg: 0/0/500000 buffer size: 0 vbv_delay: -1
frame=   50 fps=  2 q=30.2 Lsize=     765kB time=1.92 bitrate=3265.1kbits/s    
video:765kB audio:0kB other streams:0kB global headers:0kB muxing overhead: 0.000000%
avconv version v13_dev0-1216-g0f5ad12, Copyright (c) 2000-2017 the Libav developers
  built on Jul 10 2017 01:33:39 with Sun C 5.12 SunOS_sparc 2011/11/16
[mpegvideo @ 1169680] Estimating duration from bitrate, this may be inaccurate
Input #0, mpegvideo, from '/home/mik/src/fate/sparc-solaris-suncc/build/tests/data/fate/vsynth1-mpeg2-ivlc-qprd.mpeg2video':
  Duration: 00:00:00.04, bitrate: 156722 kb/s
    Stream #0:0: Video: mpeg2video (4:2:2)
      yuv420p, tv, 352x288 [PAR 1:1 DAR 11:9], 104857 kb/s
      25 fps, 25 tbn
Stream mapping:
  Stream #0:0 -> #0:0 (mpeg2video (native) -> rawvideo (native))
Press ctrl-c to stop encoding
Video encoding failed
diffstderrvsynth1-mpeg2-thread1n / a
--- /home/mik/src/fate/src/tests/ref/vsynth/vsynth1-mpeg2-thread	2014-06-10 00:18:15.822760020 +0400
+++ tests/data/fate/vsynth1-mpeg2-thread	2017-07-10 02:38:28.651524243 +0300
@@ -1,4 +1,2 @@
 c17bee51286e13b0c95a504391632087 *tests/data/fate/vsynth1-mpeg2-thread.mpeg2video
 801373 tests/data/fate/vsynth1-mpeg2-thread.mpeg2video
-d1658911ca83f5616c1d32abc40750de *tests/data/fate/vsynth1-mpeg2-thread.out.rawvideo
-stddev:    7.63 PSNR: 30.48 MAXDIFF:  110 bytes:  7603200/  7603200
avconv version v13_dev0-1216-g0f5ad12, Copyright (c) 2000-2017 the Libav developers
  built on Jul 10 2017 01:33:39 with Sun C 5.12 SunOS_sparc 2011/11/16
[rawvideo @ 1169680] Estimating duration from bitrate, this may be inaccurate
Input #0, rawvideo, from '/home/mik/src/fate/sparc-solaris-suncc/build/tests/data/vsynth1.yuv':
  Duration: N/A, start: 0.000000, bitrate: N/A
    Stream #0:0: Video: rawvideo
      yuv420p, 352x288
      25 fps, 25 tbn
Stream mapping:
  Stream #0:0 -> #0:0 (rawvideo (native) -> mpeg2video (native))
Press ctrl-c to stop encoding
Output #0, mpeg2video, to '/home/mik/src/fate/sparc-solaris-suncc/build/tests/data/fate/vsynth1-mpeg2-thread.mpeg2video':
    Stream #0:0: Video: mpeg2video (Main)
      yuv420p, 352x288, q=2-31, 200 kb/s
      25 tbn
    Metadata:
      encoder         : mpeg2video
    Side data:
      cpb: bitrate max/min/avg: 0/0/200000 buffer size: 0 vbv_delay: -1
frame=   50 fps=  5 q=10.0 Lsize=     783kB time=1.92 bitrate=3339.1kbits/s    
video:783kB audio:0kB other streams:0kB global headers:0kB muxing overhead: 0.000000%
avconv version v13_dev0-1216-g0f5ad12, Copyright (c) 2000-2017 the Libav developers
  built on Jul 10 2017 01:33:39 with Sun C 5.12 SunOS_sparc 2011/11/16
[mpegvideo @ 1169680] Estimating duration from bitrate, this may be inaccurate
Input #0, mpegvideo, from '/home/mik/src/fate/sparc-solaris-suncc/build/tests/data/fate/vsynth1-mpeg2-thread.mpeg2video':
  Duration: 00:00:00.08, bitrate: 80137 kb/s
    Stream #0:0: Video: mpeg2video (4:2:2)
      yuv420p, tv, 352x288 [PAR 1:1 DAR 11:9], 104857 kb/s
      25 fps, 25 tbn
Stream mapping:
  Stream #0:0 -> #0:0 (mpeg2video (native) -> rawvideo (native))
Press ctrl-c to stop encoding
Video encoding failed
diffstderrvsynth1-mpeg2-thread-ivlc1n / a
--- /home/mik/src/fate/src/tests/ref/vsynth/vsynth1-mpeg2-thread-ivlc	2014-06-10 00:18:15.824492416 +0400
+++ tests/data/fate/vsynth1-mpeg2-thread-ivlc	2017-07-10 02:38:33.335747728 +0300
@@ -1,4 +1,2 @@
 9f3991d18d5dc5240ca61b158ce76521 *tests/data/fate/vsynth1-mpeg2-thread-ivlc.mpeg2video
 791833 tests/data/fate/vsynth1-mpeg2-thread-ivlc.mpeg2video
-d1658911ca83f5616c1d32abc40750de *tests/data/fate/vsynth1-mpeg2-thread-ivlc.out.rawvideo
-stddev:    7.63 PSNR: 30.48 MAXDIFF:  110 bytes:  7603200/  7603200
avconv version v13_dev0-1216-g0f5ad12, Copyright (c) 2000-2017 the Libav developers
  built on Jul 10 2017 01:33:39 with Sun C 5.12 SunOS_sparc 2011/11/16
[rawvideo @ 1169680] Estimating duration from bitrate, this may be inaccurate
Input #0, rawvideo, from '/home/mik/src/fate/sparc-solaris-suncc/build/tests/data/vsynth1.yuv':
  Duration: N/A, start: 0.000000, bitrate: N/A
    Stream #0:0: Video: rawvideo
      yuv420p, 352x288
      25 fps, 25 tbn
Stream mapping:
  Stream #0:0 -> #0:0 (rawvideo (native) -> mpeg2video (native))
Press ctrl-c to stop encoding
Output #0, mpeg2video, to '/home/mik/src/fate/sparc-solaris-suncc/build/tests/data/fate/vsynth1-mpeg2-thread-ivlc.mpeg2video':
    Stream #0:0: Video: mpeg2video (Main)
      yuv420p, 352x288, q=2-31, 200 kb/s
      25 tbn
    Metadata:
      encoder         : mpeg2video
    Side data:
      cpb: bitrate max/min/avg: 0/0/200000 buffer size: 0 vbv_delay: -1
frame=   50 fps=  5 q=10.0 Lsize=     773kB time=1.92 bitrate=3299.3kbits/s    
video:773kB audio:0kB other streams:0kB global headers:0kB muxing overhead: 0.000000%
avconv version v13_dev0-1216-g0f5ad12, Copyright (c) 2000-2017 the Libav developers
  built on Jul 10 2017 01:33:39 with Sun C 5.12 SunOS_sparc 2011/11/16
[mpegvideo @ 1169680] Estimating duration from bitrate, this may be inaccurate
Input #0, mpegvideo, from '/home/mik/src/fate/sparc-solaris-suncc/build/tests/data/fate/vsynth1-mpeg2-thread-ivlc.mpeg2video':
  Duration: 00:00:00.08, bitrate: 79183 kb/s
    Stream #0:0: Video: mpeg2video (4:2:2)
      yuv420p, tv, 352x288 [PAR 1:1 DAR 11:9], 104857 kb/s
      25 fps, 25 tbn
Stream mapping:
  Stream #0:0 -> #0:0 (mpeg2video (native) -> rawvideo (native))
Press ctrl-c to stop encoding
Video encoding failed
diffstderrvsynth2-mpeg11n / a
--- /home/mik/src/fate/src/tests/ref/vsynth/vsynth2-mpeg1	2014-12-09 13:18:17.616822115 +0300
+++ tests/data/fate/vsynth2-mpeg1	2017-07-10 02:46:56.011876982 +0300
@@ -1,4 +1,2 @@
 9daec4f4e4b6fb8960c3509c84eae0c7 *tests/data/fate/vsynth2-mpeg1.mpeg1video
 262171 tests/data/fate/vsynth2-mpeg1.mpeg1video
-33916bea6d2bc5db93aaf38ee706ba46 *tests/data/fate/vsynth2-mpeg1.out.rawvideo
-stddev:    5.54 PSNR: 33.26 MAXDIFF:   77 bytes:  7603200/  7603200
avconv version v13_dev0-1216-g0f5ad12, Copyright (c) 2000-2017 the Libav developers
  built on Jul 10 2017 01:33:39 with Sun C 5.12 SunOS_sparc 2011/11/16
[rawvideo @ 1169680] Estimating duration from bitrate, this may be inaccurate
Input #0, rawvideo, from '/home/mik/src/fate/sparc-solaris-suncc/build/tests/data/vsynth2.yuv':
  Duration: N/A, start: 0.000000, bitrate: N/A
    Stream #0:0: Video: rawvideo
      yuv420p, 352x288
      25 fps, 25 tbn
Stream mapping:
  Stream #0:0 -> #0:0 (rawvideo (native) -> mpeg1video (native))
Press ctrl-c to stop encoding
Output #0, mpeg1video, to '/home/mik/src/fate/sparc-solaris-suncc/build/tests/data/fate/vsynth2-mpeg1.mpeg1video':
    Stream #0:0: Video: mpeg1video
      yuv420p, 352x288, q=2-31, 200 kb/s
      25 tbn
    Metadata:
      encoder         : mpeg1video
    Side data:
      cpb: bitrate max/min/avg: 0/0/200000 buffer size: 0 vbv_delay: -1
frame=   50 fps= 18 q=10.0 Lsize=     256kB time=1.92 bitrate=1092.4kbits/s    
video:256kB audio:0kB other streams:0kB global headers:0kB muxing overhead: 0.000000%
avconv version v13_dev0-1216-g0f5ad12, Copyright (c) 2000-2017 the Libav developers
  built on Jul 10 2017 01:33:39 with Sun C 5.12 SunOS_sparc 2011/11/16
[mpegvideo @ 1169680] Estimating duration from bitrate, this may be inaccurate
Input #0, mpegvideo, from '/home/mik/src/fate/sparc-solaris-suncc/build/tests/data/fate/vsynth2-mpeg1.mpeg1video':
  Duration: 00:00:00.04, bitrate: 52434 kb/s
    Stream #0:0: Video: mpeg1video
      yuv420p, tv, 352x288 [PAR 1:1 DAR 11:9], 104857 kb/s
      25 fps, 25 tbn
Stream mapping:
  Stream #0:0 -> #0:0 (mpeg1video (native) -> rawvideo (native))
Press ctrl-c to stop encoding
Video encoding failed
diffstderrvsynth2-mpeg1b1n / a
--- /home/mik/src/fate/src/tests/ref/vsynth/vsynth2-mpeg1b	2014-12-09 13:18:17.617994561 +0300
+++ tests/data/fate/vsynth2-mpeg1b	2017-07-10 02:47:02.446894953 +0300
@@ -1,4 +1,2 @@
 30d6d3f9b7b4234e74d3ed22c012ab31 *tests/data/fate/vsynth2-mpeg1b.mpeg1video
 298135 tests/data/fate/vsynth2-mpeg1b.mpeg1video
-bbac65e2e1fd7e14d83f50072e188852 *tests/data/fate/vsynth2-mpeg1b.out.rawvideo
-stddev:    4.60 PSNR: 34.87 MAXDIFF:   77 bytes:  7603200/  7603200
avconv version v13_dev0-1216-g0f5ad12, Copyright (c) 2000-2017 the Libav developers
  built on Jul 10 2017 01:33:39 with Sun C 5.12 SunOS_sparc 2011/11/16
[rawvideo @ 1169680] Estimating duration from bitrate, this may be inaccurate
Input #0, rawvideo, from '/home/mik/src/fate/sparc-solaris-suncc/build/tests/data/vsynth2.yuv':
  Duration: N/A, start: 0.000000, bitrate: N/A
    Stream #0:0: Video: rawvideo
      yuv420p, 352x288
      25 fps, 25 tbn
Stream mapping:
  Stream #0:0 -> #0:0 (rawvideo (native) -> mpeg1video (native))
Press ctrl-c to stop encoding
Output #0, mpeg1video, to '/home/mik/src/fate/sparc-solaris-suncc/build/tests/data/fate/vsynth2-mpeg1b.mpeg1video':
    Stream #0:0: Video: mpeg1video
      yuv420p, 352x288, q=2-31, 200 kb/s
      25 tbn
    Metadata:
      encoder         : mpeg1video
    Side data:
      cpb: bitrate max/min/avg: 0/0/200000 buffer size: 0 vbv_delay: -1
frame=   50 fps=  9 q=8.0 Lsize=     291kB time=1.92 bitrate=1242.2kbits/s    
video:291kB audio:0kB other streams:0kB global headers:0kB muxing overhead: 0.000000%
avconv version v13_dev0-1216-g0f5ad12, Copyright (c) 2000-2017 the Libav developers
  built on Jul 10 2017 01:33:39 with Sun C 5.12 SunOS_sparc 2011/11/16
[mpegvideo @ 1169680] Estimating duration from bitrate, this may be inaccurate
Input #0, mpegvideo, from '/home/mik/src/fate/sparc-solaris-suncc/build/tests/data/fate/vsynth2-mpeg1b.mpeg1video':
  Duration: 00:00:00.04, bitrate: 59627 kb/s
    Stream #0:0: Video: mpeg1video
      yuv420p, tv, 352x288 [PAR 1:1 DAR 11:9], 104857 kb/s
      25 fps, 25 tbn
Stream mapping:
  Stream #0:0 -> #0:0 (mpeg1video (native) -> rawvideo (native))
Press ctrl-c to stop encoding
Video encoding failed
diffstderrvsynth2-mpeg21n / a
--- /home/mik/src/fate/src/tests/ref/vsynth/vsynth2-mpeg2	2014-12-09 13:18:17.619332979 +0300
+++ tests/data/fate/vsynth2-mpeg2	2017-07-10 02:47:06.079561399 +0300
@@ -1,4 +1,2 @@
 48d5feed5d7866457216577a75b60d59 *tests/data/fate/vsynth2-mpeg2.mpeg2video
 268229 tests/data/fate/vsynth2-mpeg2.mpeg2video
-5887392ff0a05babc480e9f29a1797a3 *tests/data/fate/vsynth2-mpeg2.out.rawvideo
-stddev:    5.55 PSNR: 33.23 MAXDIFF:   77 bytes:  7603200/  7603200
avconv version v13_dev0-1216-g0f5ad12, Copyright (c) 2000-2017 the Libav developers
  built on Jul 10 2017 01:33:39 with Sun C 5.12 SunOS_sparc 2011/11/16
[rawvideo @ 1169680] Estimating duration from bitrate, this may be inaccurate
Input #0, rawvideo, from '/home/mik/src/fate/sparc-solaris-suncc/build/tests/data/vsynth2.yuv':
  Duration: N/A, start: 0.000000, bitrate: N/A
    Stream #0:0: Video: rawvideo
      yuv420p, 352x288
      25 fps, 25 tbn
Stream mapping:
  Stream #0:0 -> #0:0 (rawvideo (native) -> mpeg2video (native))
Press ctrl-c to stop encoding
Output #0, mpeg2video, to '/home/mik/src/fate/sparc-solaris-suncc/build/tests/data/fate/vsynth2-mpeg2.mpeg2video':
    Stream #0:0: Video: mpeg2video (Main)
      yuv420p, 352x288, q=2-31, 200 kb/s
      25 tbn
    Metadata:
      encoder         : mpeg2video
    Side data:
      cpb: bitrate max/min/avg: 0/0/200000 buffer size: 0 vbv_delay: -1
frame=   50 fps= 18 q=10.0 Lsize=     262kB time=1.92 bitrate=1117.6kbits/s    
video:262kB audio:0kB other streams:0kB global headers:0kB muxing overhead: 0.000000%
avconv version v13_dev0-1216-g0f5ad12, Copyright (c) 2000-2017 the Libav developers
  built on Jul 10 2017 01:33:39 with Sun C 5.12 SunOS_sparc 2011/11/16
[mpegvideo @ 1169680] Estimating duration from bitrate, this may be inaccurate
Input #0, mpegvideo, from '/home/mik/src/fate/sparc-solaris-suncc/build/tests/data/fate/vsynth2-mpeg2.mpeg2video':
  Duration: 00:00:00.04, bitrate: 53645 kb/s
    Stream #0:0: Video: mpeg2video (4:2:2)
      yuv420p, tv, 352x288 [PAR 1:1 DAR 11:9], 104857 kb/s
      25 fps, 25 tbn
Stream mapping:
  Stream #0:0 -> #0:0 (mpeg2video (native) -> rawvideo (native))
Press ctrl-c to stop encoding
Video encoding failed
diffstderrvsynth2-mpeg2-4221n / a
--- /home/mik/src/fate/src/tests/ref/vsynth/vsynth2-mpeg2-422	2014-12-09 13:18:17.620713553 +0300
+++ tests/data/fate/vsynth2-mpeg2-422	2017-07-10 02:47:41.033297308 +0300
@@ -1,4 +1,2 @@
 392cd150d65892060374ef0ca98b53c3 *tests/data/fate/vsynth2-mpeg2-422.mpeg2video
 379371 tests/data/fate/vsynth2-mpeg2-422.mpeg2video
-fa9fda9c92a455b39ae7e516b7de6919 *tests/data/fate/vsynth2-mpeg2-422.out.rawvideo
-stddev:    4.16 PSNR: 35.73 MAXDIFF:   70 bytes:  7603200/  7603200
avconv version v13_dev0-1216-g0f5ad12, Copyright (c) 2000-2017 the Libav developers
  built on Jul 10 2017 01:33:39 with Sun C 5.12 SunOS_sparc 2011/11/16
[rawvideo @ 1169680] Estimating duration from bitrate, this may be inaccurate
Input #0, rawvideo, from '/home/mik/src/fate/sparc-solaris-suncc/build/tests/data/vsynth2.yuv':
  Duration: N/A, start: 0.000000, bitrate: N/A
    Stream #0:0: Video: rawvideo
      yuv420p, 352x288
      25 fps, 25 tbn
Stream mapping:
  Stream #0:0 -> #0:0 (rawvideo (native) -> mpeg2video (native))
Press ctrl-c to stop encoding
Output #0, mpeg2video, to '/home/mik/src/fate/sparc-solaris-suncc/build/tests/data/fate/vsynth2-mpeg2-422.mpeg2video':
    Stream #0:0: Video: mpeg2video (4:2:2)
      yuv422p, 352x288, q=2-31, 1000 kb/s
      25 tbn
    Metadata:
      encoder         : mpeg2video
    Side data:
      cpb: bitrate max/min/avg: 0/0/1000000 buffer size: 0 vbv_delay: -1
frame=   50 fps=  1 q=8.0 Lsize=     370kB time=1.92 bitrate=1580.7kbits/s    
video:370kB audio:0kB other streams:0kB global headers:0kB muxing overhead: 0.000000%
avconv version v13_dev0-1216-g0f5ad12, Copyright (c) 2000-2017 the Libav developers
  built on Jul 10 2017 01:33:39 with Sun C 5.12 SunOS_sparc 2011/11/16
[mpegvideo @ 1169680] Estimating duration from bitrate, this may be inaccurate
Input #0, mpegvideo, from '/home/mik/src/fate/sparc-solaris-suncc/build/tests/data/fate/vsynth2-mpeg2-422.mpeg2video':
  Duration: 00:00:00.04, bitrate: 75874 kb/s
    Stream #0:0: Video: mpeg2video (4:2:2)
      yuv420p, tv, 352x288 [PAR 1:1 DAR 11:9], 104857 kb/s
      25 fps, 25 tbn
Stream mapping:
  Stream #0:0 -> #0:0 (mpeg2video (native) -> rawvideo (native))
Press ctrl-c to stop encoding
Video encoding failed
diffstderrvsynth2-mpeg2-idct-int1n / a
--- /home/mik/src/fate/src/tests/ref/vsynth/vsynth2-mpeg2-idct-int	2014-12-09 13:18:17.622056477 +0300
+++ tests/data/fate/vsynth2-mpeg2-idct-int	2017-07-10 02:47:09.832515764 +0300
@@ -1,4 +1,2 @@
 4fa4ce9e167fb1816522126d36acfd3c *tests/data/fate/vsynth2-mpeg2-idct-int.mpeg2video
 267430 tests/data/fate/vsynth2-mpeg2-idct-int.mpeg2video
-b750f48d58f157da94613fe92012e7a5 *tests/data/fate/vsynth2-mpeg2-idct-int.out.rawvideo
-stddev:    5.56 PSNR: 33.22 MAXDIFF:   77 bytes:  7603200/  7603200
avconv version v13_dev0-1216-g0f5ad12, Copyright (c) 2000-2017 the Libav developers
  built on Jul 10 2017 01:33:39 with Sun C 5.12 SunOS_sparc 2011/11/16
[rawvideo @ 1169680] Estimating duration from bitrate, this may be inaccurate
Input #0, rawvideo, from '/home/mik/src/fate/sparc-solaris-suncc/build/tests/data/vsynth2.yuv':
  Duration: N/A, start: 0.000000, bitrate: N/A
    Stream #0:0: Video: rawvideo
      yuv420p, 352x288
      25 fps, 25 tbn
Stream mapping:
  Stream #0:0 -> #0:0 (rawvideo (native) -> mpeg2video (native))
Press ctrl-c to stop encoding
Output #0, mpeg2video, to '/home/mik/src/fate/sparc-solaris-suncc/build/tests/data/fate/vsynth2-mpeg2-idct-int.mpeg2video':
    Stream #0:0: Video: mpeg2video (Main)
      yuv420p, 352x288, q=2-31, 200 kb/s
      25 tbn
    Metadata:
      encoder         : mpeg2video
    Side data:
      cpb: bitrate max/min/avg: 0/0/200000 buffer size: 0 vbv_delay: -1
frame=   50 fps= 17 q=10.0 Lsize=     261kB time=1.92 bitrate=1114.3kbits/s    
video:261kB audio:0kB other streams:0kB global headers:0kB muxing overhead: 0.000000%
avconv version v13_dev0-1216-g0f5ad12, Copyright (c) 2000-2017 the Libav developers
  built on Jul 10 2017 01:33:39 with Sun C 5.12 SunOS_sparc 2011/11/16
[mpegvideo @ 1169680] Estimating duration from bitrate, this may be inaccurate
Input #0, mpegvideo, from '/home/mik/src/fate/sparc-solaris-suncc/build/tests/data/fate/vsynth2-mpeg2-idct-int.mpeg2video':
  Duration: 00:00:00.04, bitrate: 53486 kb/s
    Stream #0:0: Video: mpeg2video (4:2:2)
      yuv420p, tv, 352x288 [PAR 1:1 DAR 11:9], 104857 kb/s
      25 fps, 25 tbn
Stream mapping:
  Stream #0:0 -> #0:0 (mpeg2video (native) -> rawvideo (native))
Press ctrl-c to stop encoding
Video encoding failed
diffstderrvsynth2-mpeg2-ilace1n / a
--- /home/mik/src/fate/src/tests/ref/vsynth/vsynth2-mpeg2-ilace	2014-12-09 13:18:17.623448837 +0300
+++ tests/data/fate/vsynth2-mpeg2-ilace	2017-07-10 02:47:15.428646774 +0300
@@ -1,4 +1,2 @@
 be3bd3d5393320419e82afaaea6c6fb6 *tests/data/fate/vsynth2-mpeg2-ilace.mpeg2video
 275014 tests/data/fate/vsynth2-mpeg2-ilace.mpeg2video
-fe069b1be5c6aa5808c0840008485912 *tests/data/fate/vsynth2-mpeg2-ilace.out.rawvideo
-stddev:    5.57 PSNR: 33.20 MAXDIFF:   77 bytes:  7603200/  7603200
avconv version v13_dev0-1216-g0f5ad12, Copyright (c) 2000-2017 the Libav developers
  built on Jul 10 2017 01:33:39 with Sun C 5.12 SunOS_sparc 2011/11/16
[rawvideo @ 1169680] Estimating duration from bitrate, this may be inaccurate
Input #0, rawvideo, from '/home/mik/src/fate/sparc-solaris-suncc/build/tests/data/vsynth2.yuv':
  Duration: N/A, start: 0.000000, bitrate: N/A
    Stream #0:0: Video: rawvideo
      yuv420p, 352x288
      25 fps, 25 tbn
Stream mapping:
  Stream #0:0 -> #0:0 (rawvideo (native) -> mpeg2video (native))
Press ctrl-c to stop encoding
Output #0, mpeg2video, to '/home/mik/src/fate/sparc-solaris-suncc/build/tests/data/fate/vsynth2-mpeg2-ilace.mpeg2video':
    Stream #0:0: Video: mpeg2video (Main)
      yuv420p, 352x288, q=2-31, 200 kb/s
      25 tbn
    Metadata:
      encoder         : mpeg2video
    Side data:
      cpb: bitrate max/min/avg: 0/0/200000 buffer size: 0 vbv_delay: -1
frame=   50 fps= 11 q=10.0 Lsize=     269kB time=1.92 bitrate=1145.9kbits/s    
video:269kB audio:0kB other streams:0kB global headers:0kB muxing overhead: 0.000000%
avconv version v13_dev0-1216-g0f5ad12, Copyright (c) 2000-2017 the Libav developers
  built on Jul 10 2017 01:33:39 with Sun C 5.12 SunOS_sparc 2011/11/16
[mpegvideo @ 1169680] Estimating duration from bitrate, this may be inaccurate
Input #0, mpegvideo, from '/home/mik/src/fate/sparc-solaris-suncc/build/tests/data/fate/vsynth2-mpeg2-ilace.mpeg2video':
  Duration: 00:00:00.04, bitrate: 55002 kb/s
    Stream #0:0: Video: mpeg2video (4:2:2)
      yuv420p, tv, 352x288 [PAR 1:1 DAR 11:9], 104857 kb/s
      25 fps, 25 tbn
Stream mapping:
  Stream #0:0 -> #0:0 (mpeg2video (native) -> rawvideo (native))
Press ctrl-c to stop encoding
Video encoding failed
diffstderrvsynth2-mpeg2-ivlc-qprd1n / a
--- /home/mik/src/fate/src/tests/ref/vsynth/vsynth2-mpeg2-ivlc-qprd	2014-12-09 13:18:17.624644258 +0300
+++ tests/data/fate/vsynth2-mpeg2-ivlc-qprd	2017-07-10 02:47:35.435503624 +0300
@@ -1,4 +1,2 @@
 5e938746a4b50f496db6faa10cbe98d6 *tests/data/fate/vsynth2-mpeg2-ivlc-qprd.mpeg2video
 269774 tests/data/fate/vsynth2-mpeg2-ivlc-qprd.mpeg2video
-91316e6e990ee20b4a8de33f9e6adc56 *tests/data/fate/vsynth2-mpeg2-ivlc-qprd.out.rawvideo
-stddev:    5.54 PSNR: 33.25 MAXDIFF:   94 bytes:  7603200/  7603200
avconv version v13_dev0-1216-g0f5ad12, Copyright (c) 2000-2017 the Libav developers
  built on Jul 10 2017 01:33:39 with Sun C 5.12 SunOS_sparc 2011/11/16
[rawvideo @ 1169680] Estimating duration from bitrate, this may be inaccurate
Input #0, rawvideo, from '/home/mik/src/fate/sparc-solaris-suncc/build/tests/data/vsynth2.yuv':
  Duration: N/A, start: 0.000000, bitrate: N/A
    Stream #0:0: Video: rawvideo
      yuv420p, 352x288
      25 fps, 25 tbn
Stream mapping:
  Stream #0:0 -> #0:0 (rawvideo (native) -> mpeg2video (native))
Press ctrl-c to stop encoding
Output #0, mpeg2video, to '/home/mik/src/fate/sparc-solaris-suncc/build/tests/data/fate/vsynth2-mpeg2-ivlc-qprd.mpeg2video':
    Stream #0:0: Video: mpeg2video (Main)
      yuv420p, 352x288, q=2-31, 500 kb/s
      25 tbn
    Metadata:
      encoder         : mpeg2video
    Side data:
      cpb: bitrate max/min/avg: 0/0/500000 buffer size: 0 vbv_delay: -1
frame=   50 fps=  3 q=13.9 Lsize=     263kB time=1.92 bitrate=1124.1kbits/s    
video:263kB audio:0kB other streams:0kB global headers:0kB muxing overhead: 0.000000%
avconv version v13_dev0-1216-g0f5ad12, Copyright (c) 2000-2017 the Libav developers
  built on Jul 10 2017 01:33:39 with Sun C 5.12 SunOS_sparc 2011/11/16
[mpegvideo @ 1169680] Estimating duration from bitrate, this may be inaccurate
Input #0, mpegvideo, from '/home/mik/src/fate/sparc-solaris-suncc/build/tests/data/fate/vsynth2-mpeg2-ivlc-qprd.mpeg2video':
  Duration: 00:00:00.04, bitrate: 53954 kb/s
    Stream #0:0: Video: mpeg2video (4:2:2)
      yuv420p, tv, 352x288 [PAR 1:1 DAR 11:9], 104857 kb/s
      25 fps, 25 tbn
Stream mapping:
  Stream #0:0 -> #0:0 (mpeg2video (native) -> rawvideo (native))
Press ctrl-c to stop encoding
Video encoding failed
diffstderrvsynth2-mpeg2-thread1n / a
--- /home/mik/src/fate/src/tests/ref/vsynth/vsynth2-mpeg2-thread	2014-12-09 13:18:17.625916948 +0300
+++ tests/data/fate/vsynth2-mpeg2-thread	2017-07-10 02:47:45.131472879 +0300
@@ -1,4 +1,2 @@
 722c04a6a442e0ae716e879dff4b6639 *tests/data/fate/vsynth2-mpeg2-thread.mpeg2video
 230678 tests/data/fate/vsynth2-mpeg2-thread.mpeg2video
-f35531461e7b31bfba66802954329f2e *tests/data/fate/vsynth2-mpeg2-thread.out.rawvideo
-stddev:    5.31 PSNR: 33.62 MAXDIFF:   73 bytes:  7603200/  7603200
avconv version v13_dev0-1216-g0f5ad12, Copyright (c) 2000-2017 the Libav developers
  built on Jul 10 2017 01:33:39 with Sun C 5.12 SunOS_sparc 2011/11/16
[rawvideo @ 1169680] Estimating duration from bitrate, this may be inaccurate
Input #0, rawvideo, from '/home/mik/src/fate/sparc-solaris-suncc/build/tests/data/vsynth2.yuv':
  Duration: N/A, start: 0.000000, bitrate: N/A
    Stream #0:0: Video: rawvideo
      yuv420p, 352x288
      25 fps, 25 tbn
Stream mapping:
  Stream #0:0 -> #0:0 (rawvideo (native) -> mpeg2video (native))
Press ctrl-c to stop encoding
Output #0, mpeg2video, to '/home/mik/src/fate/sparc-solaris-suncc/build/tests/data/fate/vsynth2-mpeg2-thread.mpeg2video':
    Stream #0:0: Video: mpeg2video (Main)
      yuv420p, 352x288, q=2-31, 200 kb/s
      25 tbn
    Metadata:
      encoder         : mpeg2video
    Side data:
      cpb: bitrate max/min/avg: 0/0/200000 buffer size: 0 vbv_delay: -1
frame=   50 fps=  6 q=10.0 Lsize=     225kB time=1.92 bitrate= 961.2kbits/s    
video:225kB audio:0kB other streams:0kB global headers:0kB muxing overhead: 0.000000%
avconv version v13_dev0-1216-g0f5ad12, Copyright (c) 2000-2017 the Libav developers
  built on Jul 10 2017 01:33:39 with Sun C 5.12 SunOS_sparc 2011/11/16
[mpegvideo @ 1169680] Estimating duration from bitrate, this may be inaccurate
Input #0, mpegvideo, from '/home/mik/src/fate/sparc-solaris-suncc/build/tests/data/fate/vsynth2-mpeg2-thread.mpeg2video':
  Duration: 00:00:00.00, bitrate: 2147483 kb/s
    Stream #0:0: Video: mpeg2video (4:2:2)
      yuv420p, tv, 352x288 [PAR 1:1 DAR 11:9], 104857 kb/s
      25 fps, 25 tbn
Stream mapping:
  Stream #0:0 -> #0:0 (mpeg2video (native) -> rawvideo (native))
Press ctrl-c to stop encoding
Video encoding failed
diffstderrvsynth2-mpeg2-thread-ivlc1n / a
--- /home/mik/src/fate/src/tests/ref/vsynth/vsynth2-mpeg2-thread-ivlc	2014-12-09 13:18:17.627123711 +0300
+++ tests/data/fate/vsynth2-mpeg2-thread-ivlc	2017-07-10 02:47:50.324670320 +0300
@@ -1,4 +1,2 @@
 32abf166f7a6fdb8e4b46795a60761cc *tests/data/fate/vsynth2-mpeg2-thread-ivlc.mpeg2video
 227906 tests/data/fate/vsynth2-mpeg2-thread-ivlc.mpeg2video
-f35531461e7b31bfba66802954329f2e *tests/data/fate/vsynth2-mpeg2-thread-ivlc.out.rawvideo
-stddev:    5.31 PSNR: 33.62 MAXDIFF:   73 bytes:  7603200/  7603200
avconv version v13_dev0-1216-g0f5ad12, Copyright (c) 2000-2017 the Libav developers
  built on Jul 10 2017 01:33:39 with Sun C 5.12 SunOS_sparc 2011/11/16
[rawvideo @ 1169680] Estimating duration from bitrate, this may be inaccurate
Input #0, rawvideo, from '/home/mik/src/fate/sparc-solaris-suncc/build/tests/data/vsynth2.yuv':
  Duration: N/A, start: 0.000000, bitrate: N/A
    Stream #0:0: Video: rawvideo
      yuv420p, 352x288
      25 fps, 25 tbn
Stream mapping:
  Stream #0:0 -> #0:0 (rawvideo (native) -> mpeg2video (native))
Press ctrl-c to stop encoding
Output #0, mpeg2video, to '/home/mik/src/fate/sparc-solaris-suncc/build/tests/data/fate/vsynth2-mpeg2-thread-ivlc.mpeg2video':
    Stream #0:0: Video: mpeg2video (Main)
      yuv420p, 352x288, q=2-31, 200 kb/s
      25 tbn
    Metadata:
      encoder         : mpeg2video
    Side data:
      cpb: bitrate max/min/avg: 0/0/200000 buffer size: 0 vbv_delay: -1
frame=   50 fps=  6 q=10.0 Lsize=     223kB time=1.92 bitrate= 949.6kbits/s    
video:223kB audio:0kB other streams:0kB global headers:0kB muxing overhead: 0.000000%
avconv version v13_dev0-1216-g0f5ad12, Copyright (c) 2000-2017 the Libav developers
  built on Jul 10 2017 01:33:39 with Sun C 5.12 SunOS_sparc 2011/11/16
[mpegvideo @ 1169680] Estimating duration from bitrate, this may be inaccurate
Input #0, mpegvideo, from '/home/mik/src/fate/sparc-solaris-suncc/build/tests/data/fate/vsynth2-mpeg2-thread-ivlc.mpeg2video':
  Duration: 00:00:00.00, bitrate: 2147483 kb/s
    Stream #0:0: Video: mpeg2video (4:2:2)
      yuv420p, tv, 352x288 [PAR 1:1 DAR 11:9], 104857 kb/s
      25 fps, 25 tbn
Stream mapping:
  Stream #0:0 -> #0:0 (mpeg2video (native) -> rawvideo (native))
Press ctrl-c to stop encoding
Video encoding failed
diffstderrwtv-demux1n / a
--- /home/mik/src/fate/src/tests/ref/fate/wtv-demux	2016-10-17 13:21:21.020486520 +0300
+++ tests/data/fate/wtv-demux	2017-07-10 02:24:47.188403240 +0300
@@ -40,23 +40,23 @@
 1,    8639998,    8639998,   240000,      576, 0x78151c22
 0,    8686442,    8686442,   400000,     7228, 0x1b141fa3
 1,    8879998,    8879998,   240000,      576, 0x31771239
-0,    9086331,    9086331,   400000,     7492, 0x1a47f3e4
+0,    9086331,    9086331,   800000,     7492, 0x1a47f3e4
 1,    9119998,    9119998,   240000,      576, 0x3ce4097c
 1,    9359998,    9359998,   240000,      576, 0x180e15f4
-0,    9486442,   10686331,   400000,    25068, 0xcb70a744
+0,    9486442,   10686331,   800000,    25068, 0xcb70a744
 1,    9599998,    9599998,   240000,      576, 0x30db0604
 1,    9839998,    9839998,   240000,      576, 0x9b290284
-0,    9886442,    9886442,   400000,     7212, 0x0ab9f558
+0,    9886442,    9886442,   800000,     7212, 0x0ab9f558
 1,   10079998,   10079998,   240000,      576, 0xcf340753
-0,   10286442,   10286442,   400000,     7612, 0xa93054f0
+0,   10286442,   10286442,   800000,     7612, 0xa93054f0
 1,   10319998,   10319998,   240000,      576, 0xdaa41457
 1,   10559998,   10559998,   240000,      576, 0x34d310a2
-0,   10686331,   11886331,   400000,    22868, 0xa77db64a
+0,   10686331,   11886331,   800000,    22868, 0xa77db64a
 1,   10799998,   10799998,   240000,      576, 0x58b31010
 1,   11039998,   11039998,   240000,      576, 0x19610f54
-0,   11086442,   11086442,   400000,     6260, 0x6cf76411
+0,   11086442,   11086442,   800000,     6260, 0x6cf76411
 1,   11279998,   11279998,   240000,      576, 0x17762352
-0,   11486331,   11486331,   400000,     6156, 0xe168394b
+0,   11486331,   11486331,   800000,     6156, 0xe168394b
 1,   11519998,   11519998,   240000,      576, 0x1fea1448
 1,   11759998,   11759998,   240000,      576, 0x55840a01
 0,   11886331,   13086442,   449438,    23364, 0x53164f1e
avconv version v13_dev0-1216-g0f5ad12, Copyright (c) 2000-2017 the Libav developers
  built on Jul 10 2017 01:33:39 with Sun C 5.12 SunOS_sparc 2011/11/16
[mpeg2video @ 116ce40] Invalid frame dimensions 0x0.
    Last message repeated 2 times
[wtv @ 1169500] Non-increasing DTS in stream 2: packet 2 with DTS 3568216841, packet 3 with DTS 3567416841
[mpeg2video @ 116ce40] Invalid frame dimensions 0x0.
    Last message repeated 2 times
[wtv @ 1169500] Non-increasing DTS in stream 2: packet 5 with DTS 3569416841, packet 6 with DTS 3568616841
[mpeg2video @ 116ce40] Invalid frame dimensions 0x0.
    Last message repeated 2 times
[wtv @ 1169500] Non-increasing DTS in stream 2: packet 8 with DTS 3570616952, packet 9 with DTS 3569816952
[mpeg2video @ 116ce40] Invalid frame dimensions 0x0.
    Last message repeated 1 times
[wtv @ 1169500] Non-increasing DTS in stream 2: packet 10 with DTS 3570216841, packet 11 with DTS 3570216841
Guessed Channel Layout for Input Stream #0.1 : stereo
Guessed Channel Layout for Input Stream #0.3 : mono
Input #0, wtv, from '/home/mik/src/fate/fate-suite/wtv/law-and-order-partial.wtv':
  Metadata:
    Title           : Law and Order: SVU
    WM/SubTitle     : Shaken
    WM/SubTitleDescription: Drama series about an elite force based in New York which investigates sexually oriented crimes. The discovery of a beaten infant leads Stabler and Cragen on a search for the attacker who may be a paedophile.
    genre           : Drama;Crime
    WM/MediaCredits : Christopher Meloni/Mariska Hargitay/Dann Florek/Richard Belzer/Michelle Hurd;;;
    WM/OriginalReleaseTime: 0
    service_provider: Five
    service_name    : five
    WM/MediaOriginalChannel: 5
    WM/MediaOriginalChannelSubNumber: 0
    WM/MediaOriginalBroadcastDateTime: 2004-06-27T23:00:00Z
    WM/WMRVSeriesUID: !Generated!a70ec2152ad04098a2668161d6147588
    WM/WMRVServiceID: !Generated!c6a6de64cdd14d8b99e7824edab37f3e
    WM/WMRVProgramID: !MCProgram!5113703
    WM/MediaOriginalRunTime: 16246076191
    WM/WMRVEncodeTime: 2008-08-12 22:36:55
    WM/MediaIsStereo: false
    WM/VideoClosedCaptioning: false
    WM/MediaIsRepeat: true
    WM/MediaIsLive  : false
    WM/MediaIsTape  : false
    WM/MediaIsDelay : false
    WM/MediaIsSubtitled: true
    WM/MediaIsMovie : false
    WM/MediaIsPremiere: false
    WM/MediaIsFinale: false
    WM/MediaIsSAP   : false
    WM/MediaIsSport : false
    WM/WMRVRequestID: 0
    WM/WMRVScheduleItemID: 0
    WM/WMRVQuality  : 3
    WM/WMRVOriginalSoftPrePadding: 2454
    WM/WMRVOriginalSoftPostPadding: 240
    WM/WMRVActualSoftPrePadding: 0
    WM/WMRVHardPrePadding: 4294965082
    WM/Provider     : MediaCenterDefault
    WM/MediaClassPrimaryID: db9830bd-3ab3-4fab-8a371a995f7ff74
    WM/MediaClassSecondaryID: ba7f258a-62f7-47a9-b21f4651c42a000
    WM/WMRVEndTime  : 2008-08-12 23:04:00
    WM/WMRVExpirationDate: 2038-01-19 03:14:07
    WM/WMRVBitrate  : 8.073216
    WM/WMRVKeepUntil: 4294967295
    WM/WMRVHardPostPadding: 0
    WM/WMRVActualSoftPostPadding: 240
    WM/WMRVContentProtectedPercent: 0
    WM/WMRVInBandRatingSystem: 255
    WM/WMRVInBandRatingLevel: 255
    WM/WMRVInBandRatingAttributes: 0
    WM/WMRVWatched  : false
    WM/WMRVATSCContent: false
    WM/WMRVDTVContent: true
    WM/WMRVHDContent: false
    WM/WMRVContentProtected: true
    WM/MediaThumbTimeStamp: 0
    WM/MediaThumbWidth: 0
    WM/MediaThumbHeight: 0
    WM/MediaThumbStride: 0
    WM/MediaThumbRet: 0
    WM/MediaThumbType: 0
    WM/MediaThumbRatingSystem: 255
    WM/MediaThumbRatingLevel: 255
    WM/MediaThumbRatingAttributes: 0
    WM/MediaThumbAspectRatioX: 4
    WM/MediaThumbAspectRatioY: 3
  Duration: 00:02:35.46, start: 356.233051, bitrate: 53 kb/s
    Stream #0:0[0x62](eng): Subtitle: dvb_subtitle
    Stream #0:1[0x63](eng): Audio: mp2 [P[0][0][0] / 0x0050]
      48000 Hz, 2 channels, s16p, 256 kb/s
    Stream #0:2[0x64]: Video: mpeg1video
      yuv420p, tv, 720x576 [PAR 64:45 DAR 16:9], 15000 kb/s
      22.25 fps, 10000k tbn
    Stream #0:3[0x65](eng): Audio: mp2 [P[0][0][0] / 0x0050]
      48000 Hz, 1 channels, s16p, 256 kb/s (hearing impaired)
    Stream #0:4[0xffffffff]: Attachment: mjpeg
    Metadata:
      title           : TV Thumbnail
Output #0, framecrc, to 'pipe:':
  Metadata:
    Title           : Law and Order: SVU
    WM/SubTitle     : Shaken
    WM/SubTitleDescription: Drama series about an elite force based in New York which investigates sexually oriented crimes. The discovery of a beaten infant leads Stabler and Cragen on a search for the attacker who may be a paedophile.
    genre           : Drama;Crime
    WM/MediaCredits : Christopher Meloni/Mariska Hargitay/Dann Florek/Richard Belzer/Michelle Hurd;;;
    WM/OriginalReleaseTime: 0
    service_provider: Five
    service_name    : five
    WM/MediaOriginalChannel: 5
    WM/MediaOriginalChannelSubNumber: 0
    WM/MediaOriginalBroadcastDateTime: 2004-06-27T23:00:00Z
    WM/WMRVSeriesUID: !Generated!a70ec2152ad04098a2668161d6147588
    WM/WMRVServiceID: !Generated!c6a6de64cdd14d8b99e7824edab37f3e
    WM/WMRVProgramID: !MCProgram!5113703
    WM/MediaOriginalRunTime: 16246076191
    WM/WMRVEncodeTime: 2008-08-12 22:36:55
    WM/MediaIsStereo: false
    WM/VideoClosedCaptioning: false
    WM/MediaIsRepeat: true
    WM/MediaIsLive  : false
    WM/MediaIsTape  : false
    WM/MediaIsDelay : false
    WM/MediaIsSubtitled: true
    WM/MediaIsMovie : false
    WM/MediaIsPremiere: false
    WM/MediaIsFinale: false
    WM/MediaIsSAP   : false
    WM/MediaIsSport : false
    WM/WMRVRequestID: 0
    WM/WMRVScheduleItemID: 0
    WM/WMRVQuality  : 3
    WM/WMRVOriginalSoftPrePadding: 2454
    WM/WMRVOriginalSoftPostPadding: 240
    WM/WMRVActualSoftPrePadding: 0
    WM/WMRVHardPrePadding: 4294965082
    WM/Provider     : MediaCenterDefault
    WM/MediaClassPrimaryID: db9830bd-3ab3-4fab-8a371a995f7ff74
    WM/MediaClassSecondaryID: ba7f258a-62f7-47a9-b21f4651c42a000
    WM/WMRVEndTime  : 2008-08-12 23:04:00
    WM/WMRVExpirationDate: 2038-01-19 03:14:07
    WM/WMRVBitrate  : 8.073216
    WM/WMRVKeepUntil: 4294967295
    WM/WMRVHardPostPadding: 0
    WM/WMRVActualSoftPostPadding: 240
    WM/WMRVContentProtectedPercent: 0
    WM/WMRVInBandRatingSystem: 255
    WM/WMRVInBandRatingLevel: 255
    WM/WMRVInBandRatingAttributes: 0
    WM/WMRVWatched  : false
    WM/WMRVATSCContent: false
    WM/WMRVDTVContent: true
    WM/WMRVHDContent: false
    WM/WMRVContentProtected: true
    WM/MediaThumbTimeStamp: 0
    WM/MediaThumbWidth: 0
    WM/MediaThumbHeight: 0
    WM/MediaThumbStride: 0
    WM/MediaThumbRet: 0
    WM/MediaThumbType: 0
    WM/MediaThumbRatingSystem: 255
    WM/MediaThumbRatingLevel: 255
    WM/MediaThumbRatingAttributes: 0
    WM/MediaThumbAspectRatioX: 4
    WM/MediaThumbAspectRatioY: 3
    encoder         : Lavf58.0.0
    Stream #0:0: Video: mpeg1video
      yuv420p, tv, 720x576 [PAR 64:45 DAR 16:9], q=2-31, 15000 kb/s, PAR 64:45 DAR 16:9
      10000k tbn
    Stream #0:1(eng): Audio: mp2 [P[0][0][0] / 0x0050]
      48000 Hz, 2 channels, s16p, 256 kb/s
Stream mapping:
  Stream #0:2 -> #0:0 (copy)
  Stream #0:1 -> #0:1 (copy)
Press ctrl-c to stop encoding
frame=   43 fps=  0 q=-1.0 Lsize=       8kB time=2.28 bitrate=  28.4kbits/s    
video:508kB audio:54kB other streams:0kB global headers:0kB muxing overhead: unknown