sparc-linux-gcc v13_dev0-1248-g19388a720

Architecturesparc
Variantsparc
CPUultrasparc
OSlinux
Ownerkostylev
Compilergcc 8.0.0 (GCC) 20170807 (experimental)
Configuration--prefix=/home/mik/src/fate/sparc-linux-gcc/install --samples=/home/mik/src/fate/fate-suite --enable-gpl --arch=sparc --cpu=ultrasparc --cross-prefix=sparc-linux- --cc=sparc-linux-gcc-8 --target-os=linux --sysroot=/opt/sparc-linux/sparc-linux --target-exec='ssh skull' --disable-debug
Comment
Revisionv13_dev0-1248-g19388a720
Date2017-08-08 07:47:05
Status2110 / 2111
Warnings88
Logscompile configure test
1 failed testsStatusLast good rev
diffstderrlavf-pixfmt255v13_dev0-1265-ga05c6e8c1
--- /home/mik/src/fate/src/tests/ref/lavf/pixfmt	2014-10-17 18:41:58.307701765 +0400
+++ tests/data/fate/lavf-pixfmt	2017-08-08 10:29:13.324725504 +0300
@@ -1,38 +1,2 @@
 5641dba168ff665af1cdb4a91e1afdd6 *./tests/data/pixfmt/yuv420p.yuv
 304128 ./tests/data/pixfmt/yuv420p.yuv
-ac68f9fdd9d55efd0306d9b004038761 *./tests/data/pixfmt/yuv422p.yuv
-304128 ./tests/data/pixfmt/yuv422p.yuv
-5641dba168ff665af1cdb4a91e1afdd6 *./tests/data/pixfmt/yuv444p.yuv
-304128 ./tests/data/pixfmt/yuv444p.yuv
-ac68f9fdd9d55efd0306d9b004038761 *./tests/data/pixfmt/yuyv422.yuv
-304128 ./tests/data/pixfmt/yuyv422.yuv
-507c7e9f0c97660385df977469ca9e6d *./tests/data/pixfmt/yuv410p.yuv
-304128 ./tests/data/pixfmt/yuv410p.yuv
-8594ea0b8d7c2c964525b0801b5351de *./tests/data/pixfmt/yuv411p.yuv
-304128 ./tests/data/pixfmt/yuv411p.yuv
-e176bd14185788110e055f945de7f95f *./tests/data/pixfmt/yuvj420p.yuv
-304128 ./tests/data/pixfmt/yuvj420p.yuv
-472028e46a81c98d9b2477507def4723 *./tests/data/pixfmt/yuvj422p.yuv
-304128 ./tests/data/pixfmt/yuvj422p.yuv
-c10442da177c9f1d12be3c53be6fa12c *./tests/data/pixfmt/yuvj444p.yuv
-304128 ./tests/data/pixfmt/yuvj444p.yuv
-c6e0f9b5817f484b175c1ec4ffb4e9c9 *./tests/data/pixfmt/rgb24.yuv
-304128 ./tests/data/pixfmt/rgb24.yuv
-c6e0f9b5817f484b175c1ec4ffb4e9c9 *./tests/data/pixfmt/bgr24.yuv
-304128 ./tests/data/pixfmt/bgr24.yuv
-c6e0f9b5817f484b175c1ec4ffb4e9c9 *./tests/data/pixfmt/rgb32.yuv
-304128 ./tests/data/pixfmt/rgb32.yuv
-66d39d464bd89ded2a124897f0a75ade *./tests/data/pixfmt/rgb565.yuv
-304128 ./tests/data/pixfmt/rgb565.yuv
-c894c3bd8d2631ed1964500b90a0c350 *./tests/data/pixfmt/rgb555.yuv
-304128 ./tests/data/pixfmt/rgb555.yuv
-6be306b0cce5f8e6c271ea17fef9745b *./tests/data/pixfmt/gray.yuv
-304128 ./tests/data/pixfmt/gray.yuv
-31398104d2349dd48328a6862bc6711f *./tests/data/pixfmt/monow.yuv
-304128 ./tests/data/pixfmt/monow.yuv
-31398104d2349dd48328a6862bc6711f *./tests/data/pixfmt/monob.yuv
-304128 ./tests/data/pixfmt/monob.yuv
-00b85790df5740bab95e2559d81603a7 *./tests/data/pixfmt/yuv440p.yuv
-304128 ./tests/data/pixfmt/yuv440p.yuv
-4d8d402c45d913038d4b725396719111 *./tests/data/pixfmt/yuvj440p.yuv
-304128 ./tests/data/pixfmt/yuvj440p.yuv
avconv version v13_dev0-1248-g19388a720, Copyright (c) 2000-2017 the Libav developers
  built on Aug  8 2017 09:41:01 with gcc 8.0.0 (GCC) 20170807 (experimental)
[image2 @ 0x10c6300] max_analyze_duration 5000000 reached
Input #0, image2, from '/home/mik/src/fate/sparc-linux-gcc/build/tests/vsynth1/%02d.pgm':
  Duration: 00:00:50.00, start: 0.000000, bitrate: N/A
    Stream #0:0: Video: pgmyuv
      yuv420p, 352x288
      1 fps, 1 tbn
Stream mapping:
  Stream #0:0 -> #0:0 (pgmyuv (native) -> rawvideo (native))
Press ctrl-c to stop encoding
Output #0, rawvideo, to '/home/mik/src/fate/sparc-linux-gcc/build/./tests/data/pixfmt.lavf.out.yuv':
    Stream #0:0: Video: rawvideo [I420 / 0x30323449]
      yuv420p, 352x288, q=2-31, 200 kb/s
      1 tbn
    Metadata:
      encoder         : rawvideo
frame=    1 fps=  0 q=-0.0 Lsize=     148kB time=10000000000.00 bitrate=   0.0kbits/s    
video:148kB audio:0kB other streams:0kB global headers:0kB muxing overhead: 0.000000%
avconv version v13_dev0-1248-g19388a720, Copyright (c) 2000-2017 the Libav developers
  built on Aug  8 2017 09:41:01 with gcc 8.0.0 (GCC) 20170807 (experimental)
[rawvideo @ 0x10c6320] Estimating duration from bitrate, this may be inaccurate
Input #0, rawvideo, from '/home/mik/src/fate/sparc-linux-gcc/build/./tests/data/pixfmt.lavf.out.yuv':
  Duration: N/A, start: 0.000000, bitrate: N/A
    Stream #0:0: Video: rawvideo
      yuv420p, 352x288
      25 tbn
Stream mapping:
  Stream #0:0 -> #0:0 (rawvideo (native) -> rawvideo (native))
Press ctrl-c to stop encoding
Output #0, rawvideo, to '/home/mik/src/fate/sparc-linux-gcc/build/./tests/data/pixfmt/yuv420p.yuv':
    Stream #0:0: Video: rawvideo [444P / 0x50343434]
      yuv444p, 352x288, q=2-31, 200 kb/s
      25 tbn
    Metadata:
      encoder         : rawvideo
frame=    1 fps=  0 q=-0.0 Lsize=     297kB time=10000000000.00 bitrate=   0.0kbits/s    
video:297kB audio:0kB other streams:0kB global headers:0kB muxing overhead: 0.000000%
avconv version v13_dev0-1248-g19388a720, Copyright (c) 2000-2017 the Libav developers
  built on Aug  8 2017 09:41:01 with gcc 8.0.0 (GCC) 20170807 (experimental)
[image2 @ 0x10c6300] max_analyze_duration 5000000 reached
Input #0, image2, from '/home/mik/src/fate/sparc-linux-gcc/build/tests/vsynth1/%02d.pgm':
  Duration: 00:00:50.00, start: 0.000000, bitrate: N/A
    Stream #0:0: Video: pgmyuv
      yuv420p, 352x288
      1 fps, 1 tbn
Stream mapping:
  Stream #0:0 -> #0:0 (pgmyuv (native) -> rawvideo (native))
Press ctrl-c to stop encoding
Output #0, rawvideo, to '/home/mik/src/fate/sparc-linux-gcc/build/./tests/data/pixfmt.lavf.out.yuv':
    Stream #0:0: Video: rawvideo [Y42B / 0x42323459]
      yuv422p, 352x288, q=2-31, 200 kb/s
      1 tbn
    Metadata:
      encoder         : rawvideo
frame=    1 fps=  0 q=-0.0 Lsize=     198kB time=10000000000.00 bitrate=   0.0kbits/s    
video:198kB audio:0kB other streams:0kB global headers:0kB muxing overhead: 0.000000%