ppc64le-linux-gcc v13_dev0-1128-g3daaa44

Architectureppc
Variantppc64
CPUpower8
OSlinux
Ownerkostylev
Compilergcc 8.0.0 (GCC) 20170515 (experimental)
Configuration--prefix=/home/mik/src/fate/ppc64le-linux-gcc/install --samples=/home/mik/src/fate/fate-suite --enable-gpl --cpu=power8 --cc=gcc-8 --disable-debug --enable-shared
Comment
Revisionv13_dev0-1128-g3daaa44
Date2017-05-16 21:56:02
Status2107 / 2109
Warnings157
Logscompile configure test
2 failed testsStatusLast good rev
diffstderrcheckasm-audiodsp1v13_dev0-1405-g3152058
No diff output recorded
checkasm: using random seed 570347743
VSX:
   audiodsp.scalarproduct_int16_vsx (audiodsp.c:81)
 - audiodsp.audiodsp [FAILED]
checkasm: 1 of 1 tests have failed
diffstderrlossless-tak1v13_dev0-1405-g3152058
--- -	2017-05-16 21:55:12.160574853 +0000
+++ tests/data/fate/lossless-tak	2017-05-16 21:55:12.143616264 +0000
@@ -1 +1 @@
-a28d4e5f2192057f7d4bece870f40bd0
+979710b59b6949df6e523f2f3c205b22
avconv version v13_dev0-1128-g3daaa44, Copyright (c) 2000-2017 the Libav developers
  built on May 16 2017 21:54:20 with gcc 8.0.0 (GCC) 20170515 (experimental)
[tak @ 0x10032330240] max_analyze_duration 5000000 reached
Guessed Channel Layout for Input Stream #0.0 : stereo
Input #0, tak, from '/home/mik/src/fate/fate-suite/lossless-audio/luckynight-partial.tak':
  Duration: 00:00:09.82, start: 0.000000, bitrate: 854 kb/s
    Stream #0:0: Audio: tak
      44100 Hz, 2 channels, s16p
Codec AVOption threads () specified for input file #0 (/home/mik/src/fate/fate-suite/lossless-audio/luckynight-partial.tak) has not been used for any stream. The most likely reason is either wrong type (e.g. a video option with no video streams) or that it is a private option of some decoder which was not actually used for any stream.
Codec AVOption thread_type (select multithreading type) specified for input file #0 (/home/mik/src/fate/fate-suite/lossless-audio/luckynight-partial.tak) has not been used for any stream. The most likely reason is either wrong type (e.g. a video option with no video streams) or that it is a private option of some decoder which was not actually used for any stream.
Stream mapping:
  Stream #0:0 -> #0:0 (tak (native) -> pcm_s16le (native))
Press ctrl-c to stop encoding
Output #0, s16le, to 'md5:':
  Metadata:
    encoder         : Lavf58.0.0
    Stream #0:0: Audio: pcm_s16le
      44100 Hz, stereo, s16, 1411 kb/s
    Metadata:
      encoder         : Lavc58.3.1 pcm_s16le
size=    1692kB time=9.75 bitrate=1421.8kbits/s    
video:0kB audio:1692kB other streams:0kB global headers:0kB muxing overhead: 0.000000%