ppc64le-linux-gcc-7 v13_dev0-1331-g010baac

Architectureppc
Variantppc64
CPUpower8
OSlinux
Ownerkostylev
Compilergcc 7.2.0 (GCC)
Configuration--prefix=/home/mik/src/fate/ppc64le-linux-gcc-7/install --samples=/home/mik/src/fate/fate-suite --enable-gpl --cpu=power8 --cc='ccache gcc-7' --disable-debug
Comment
Revisionv13_dev0-1331-g010baac
Date2017-10-11 19:53:16
Status2146 / 2148
Warnings159
Logscompile configure test
2 failed testsStatusLast good rev
diffstderrcheckasm-audiodsp1n / a
No diff output recorded
checkasm: using random seed 1686720215
VSX:
   audiodsp.scalarproduct_int16_vsx (audiodsp.c:81)
 - audiodsp.audiodsp [FAILED]
checkasm: 1 of 1 tests have failed
diffstderrlossless-tak1n / a
--- -	2017-10-11 19:52:29.632933668 +0000
+++ tests/data/fate/lossless-tak	2017-10-11 19:52:29.619458737 +0000
@@ -1 +1 @@
-a28d4e5f2192057f7d4bece870f40bd0
+979710b59b6949df6e523f2f3c205b22
avconv version v13_dev0-1331-g010baac, Copyright (c) 2000-2017 the Libav developers
  built on Oct 11 2017 19:51:48 with gcc 7.2.0 (GCC)
[tak @ 0x1003b490240] max_analyze_duration 5000000 reached
Guessed Channel Layout for Input Stream #0.0 : stereo
Input #0, tak, from '/home/mik/src/fate/fate-suite/lossless-audio/luckynight-partial.tak':
  Duration: 00:00:09.82, start: 0.000000, bitrate: 854 kb/s
    Stream #0:0: Audio: tak
      44100 Hz, 2 channels, s16p
Codec AVOption threads () specified for input file #0 (/home/mik/src/fate/fate-suite/lossless-audio/luckynight-partial.tak) has not been used for any stream. The most likely reason is either wrong type (e.g. a video option with no video streams) or that it is a private option of some decoder which was not actually used for any stream.
Codec AVOption thread_type (select multithreading type) specified for input file #0 (/home/mik/src/fate/fate-suite/lossless-audio/luckynight-partial.tak) has not been used for any stream. The most likely reason is either wrong type (e.g. a video option with no video streams) or that it is a private option of some decoder which was not actually used for any stream.
Stream mapping:
  Stream #0:0 -> #0:0 (tak (native) -> pcm_s16le (native))
Press ctrl-c to stop encoding
Output #0, s16le, to 'md5:':
  Metadata:
    encoder         : Lavf58.1.0
    Stream #0:0: Audio: pcm_s16le
      44100 Hz, stereo, s16, 1411 kb/s
    Metadata:
      encoder         : Lavc58.4.0 pcm_s16le
size=    1692kB time=9.75 bitrate=1421.8kbits/s    
video:0kB audio:1692kB other streams:0kB global headers:0kB muxing overhead: 0.000000%