ppc64-linux-gcc-valgrind v13_dev0-1648-gc464278

Architectureppc
Variantppc64
CPUgeneric
OSlinux
Ownerkostylev
Compilergcc 5.5.0 (GCC)
Configuration--enable-gpl --prefix=/home/mik/src/fate/ppc64-linux-gcc-valgrind/install --samples=/home/mik/src/fate/fate-suite --cc=gcc-5 --target-exec='valgrind --leak-check=full --show-reachable=yes --error-exitcode=1 --malloc-fill=0x4a --undef-value-errors=no'
Commentvalgrind --undef-value-errors=no
Revisionv13_dev0-1648-gc464278
Date2019-04-16 11:28:20
Status2162 / 2167
Warnings67
Logscompile configure test
5 failed testsStatusLast good rev
diffstderrsvq3-21n / a
--- /home/mik/src/fate/src/tests/ref/fate/svq3-2	2017-02-27 10:07:05.303380676 +0000
+++ tests/data/fate/svq3-2	2019-04-16 11:13:31.663517051 +0000
@@ -1,5 +1,5 @@
 #tb 0: 1/19200
-0,     -20000,     -20000,        0,   185280, 0x061c0d85
+0,     -20000,     -20000,        0,   185280, 0xc0bd953f
 0,     -19200,     -19200,        0,   185280, 0x427ef9a7
 0,     -18400,     -18400,        0,   185280, 0x64c74d6a
 0,     -17600,     -17600,        0,   185280, 0x5bfd0e5b
==48961== Memcheck, a memory error detector
==48961== Copyright (C) 2002-2015, and GNU GPL'd, by Julian Seward et al.
==48961== Using Valgrind-3.12.0.SVN and LibVEX; rerun with -h for copyright info
==48961== Command: /home/mik/src/fate/ppc64-linux-gcc-valgrind/build/avconv -nostats -cpuflags all -flags +bitexact -hwaccel none -threads 1 -thread_type frame+slice -i /home/mik/src/fate/fate-suite/svq3/svq3_decoding_regression.mov -an -f framecrc -
==48961== 
avconv version v13_dev0-1648-gc464278, Copyright (c) 2000-2018 the Libav developers
  built on Apr 16 2019 11:01:06 with gcc 5.5.0 (GCC)
Input #0, mov,mp4,m4a,3gp,3g2,mj2, from '/home/mik/src/fate/fate-suite/svq3/svq3_decoding_regression.mov':
  Metadata:
    major_brand     : qt  
    minor_version   : 512
    compatible_brands: qt  
    artist          : Mark Strube - SupaDupaStrube@msn.com
    artist-eng      : Mark Strube - SupaDupaStrube@msn.com
    title           : Movie-List Presents: The Abyss
    title-eng       : Movie-List Presents: The Abyss
    encoder         : Lavf57.66.101
    copyright       : © 1989 Twentieth Century Fox
    copyright-eng   : © 1989 Twentieth Century Fox
  Duration: 00:00:00.83, bitrate: 2376 kb/s
    Stream #0:0(eng): Video: svq3 [SVQ3 / 0x33515653]
      yuvj420p, pc, 480x257, 2366 kb/s
      24 fps, 19200 tbn (default)
    Metadata:
      handler_name    : DataHandler
      encoder         : Sorenson Video 3
Stream mapping:
  Stream #0:0 -> #0:0 (svq3 (native) -> rawvideo (native))
Press ctrl-c to stop encoding
[svq3 @ 0x4747e20] Missing reference frame.
Output #0, framecrc, to 'pipe:':
  Metadata:
    major_brand     : qt  
    minor_version   : 512
    compatible_brands: qt  
    artist          : Mark Strube - SupaDupaStrube@msn.com
    artist-eng      : Mark Strube - SupaDupaStrube@msn.com
    title           : Movie-List Presents: The Abyss
    title-eng       : Movie-List Presents: The Abyss
    copyright-eng   : © 1989 Twentieth Century Fox
    copyright       : © 1989 Twentieth Century Fox
    encoder         : Lavf58.2.0
    Stream #0:0(eng): Video: rawvideo [I420 / 0x30323449]
      yuvj420p, 480x257, q=2-31, 200 kb/s
      19200 tbn (default)
    Metadata:
      handler_name    : DataHandler
      encoder         : Sorenson Video 3
*** dropping frame 19 from stream 0 at ts -6400
frame=   19 fps=  0 q=-0.0 Lsize=       1kB time=10000000000.00 bitrate=   0.0kbits/s drop=1    
video:3438kB audio:0kB other streams:0kB global headers:0kB muxing overhead: unknown
==48961== 
==48961== HEAP SUMMARY:
==48961==     in use at exit: 0 bytes in 0 blocks
==48961==   total heap usage: 1,683 allocs, 1,683 frees, 8,682,266 bytes allocated
==48961== 
==48961== All heap blocks were freed -- no leaks are possible
==48961== 
==48961== For counts of detected and suppressed errors, rerun with: -v
==48961== ERROR SUMMARY: 0 errors from 0 contexts (suppressed: 0 from 0)
diffstderrvsynth1-dnxhd-720p1v12_dev0-1345-g0181ae9
--- /home/mik/src/fate/src/tests/ref/vsynth/vsynth1-dnxhd-720p	2014-01-10 11:16:55.734697630 +0000
+++ tests/data/fate/vsynth1-dnxhd-720p	2019-04-16 11:22:09.494552711 +0000
@@ -1,4 +0,0 @@
-81f5be451dc18cf8a1d333c7885de60b *tests/data/fate/vsynth1-dnxhd-720p.dnxhd
-2293760 tests/data/fate/vsynth1-dnxhd-720p.dnxhd
-94b21e5e68ccf9471eff74afd0ebe319 *tests/data/fate/vsynth1-dnxhd-720p.out.rawvideo
-stddev:    6.32 PSNR: 32.11 MAXDIFF:  183 bytes:  7603200/   760320
==26674== Memcheck, a memory error detector
==26674== Copyright (C) 2002-2015, and GNU GPL'd, by Julian Seward et al.
==26674== Using Valgrind-3.12.0.SVN and LibVEX; rerun with -h for copyright info
==26674== Command: /home/mik/src/fate/ppc64-linux-gcc-valgrind/build/avconv -nostats -cpuflags all -f rawvideo -s 352x288 -pix_fmt yuv420p -flags +bitexact -idct simple -sws_flags +accurate_rnd+bitexact -fflags +bitexact -hwaccel none -threads 1 -thread_type frame+slice -i /home/mik/src/fate/ppc64-linux-gcc-valgrind/build/tests/data/vsynth1.yuv -flags +bitexact -idct simple -sws_flags +accurate_rnd+bitexact -fflags +bitexact -threads 1 -dct fastint -c dnxhd -s hd720 -b 90M -pix_fmt yuv422p -frames 5 -flags +bitexact -sws_flags +accurate_rnd+bitexact -fflags +bitexact -f dnxhd -y /home/mik/src/fate/ppc64-linux-gcc-valgrind/build/tests/data/fate/vsynth1-dnxhd-720p.dnxhd
==26674== 
avconv version v13_dev0-1648-gc464278, Copyright (c) 2000-2018 the Libav developers
  built on Apr 16 2019 11:01:06 with gcc 5.5.0 (GCC)
[rawvideo @ 0x46eaee0] Estimating duration from bitrate, this may be inaccurate
Input #0, rawvideo, from '/home/mik/src/fate/ppc64-linux-gcc-valgrind/build/tests/data/vsynth1.yuv':
  Duration: N/A, start: 0.000000, bitrate: N/A
    Stream #0:0: Video: rawvideo
      yuv420p, 352x288
      25 fps, 25 tbn
Stream mapping:
  Stream #0:0 -> #0:0 (rawvideo (native) -> dnxhd (native))
Press ctrl-c to stop encoding
Output #0, dnxhd, to '/home/mik/src/fate/ppc64-linux-gcc-valgrind/build/tests/data/fate/vsynth1-dnxhd-720p.dnxhd':
    Stream #0:0: Video: dnxhd
      yuv422p, 1280x720, q=2-31, 90000 kb/s
      25 tbn
    Metadata:
      encoder         : dnxhd
==26674== Invalid read of size 16
==26674==    at 0x10481A2C: get_pixels_vsx (pixblockdsp.c:139)
==26674==    by 0x1023D16F: dnxhd_get_blocks (dnxhdenc.c:580)
==26674==    by 0x1023D16F: dnxhd_calc_bits_thread (dnxhdenc.c:619)
==26674==    by 0x1023E073: dnxhd_find_qscale (dnxhdenc.c:866)
==26674==    by 0x1023E073: dnxhd_encode_fast (dnxhdenc.c:969)
==26674==    by 0x1023E073: dnxhd_encode_picture (dnxhdenc.c:1055)
==26674==    by 0x10263C43: avcodec_encode_video2 (encode.c:227)
==26674==    by 0x10263E63: do_encode (encode.c:274)
==26674==    by 0x102640CF: avcodec_send_frame (encode.c:323)
==26674==    by 0x10077717: do_video_out (avconv.c:590)
==26674==    by 0x10077717: poll_filter (avconv.c:729)
==26674==    by 0x10077EEF: poll_filters (avconv.c:803)
==26674==    by 0x1005EA8B: transcode (avconv.c:2806)
==26674==    by 0x1005EA8B: main (avconv.c:2975)
==26674==  Address 0x174b2078 is 1,843,192 bytes inside a block of size 1,843,200 alloc'd
==26674==    at 0x4098C90: memalign (vg_replace_malloc.c:857)
==26674==    by 0x4098DFF: posix_memalign (vg_replace_malloc.c:1020)
==26674==    by 0x108B35F7: av_malloc (mem.c:71)
==26674==    by 0x1089F827: av_buffer_alloc (buffer.c:72)
==26674==    by 0x108AA83F: get_video_buffer (frame.c:114)
==26674==    by 0x108AA83F: av_frame_get_buffer (frame.c:185)
==26674==    by 0x1009C1A7: ff_default_get_video_buffer (video.c:55)
==26674==    by 0x1009C1A7: ff_get_video_buffer (video.c:73)
==26674==    by 0x1009C1A7: ff_null_get_video_buffer (video.c:33)
==26674==    by 0x1009C133: ff_get_video_buffer (video.c:70)
==26674==    by 0x1009C133: ff_null_get_video_buffer (video.c:33)
==26674==    by 0x1009C38B: ff_get_video_buffer (video.c:70)
==26674==    by 0x1009620F: filter_frame (vf_scale.c:276)
==26674==    by 0x1007DB83: ff_filter_frame (avfilter.c:700)
==26674==    by 0x1007DB83: default_filter_frame (avfilter.c:640)
==26674==    by 0x10080403: ff_filter_frame (avfilter.c:700)
==26674==    by 0x10082C93: request_frame (buffersrc.c:399)
==26674== 
==26674== Invalid read of size 16
==26674==    at 0x10481A2C: get_pixels_vsx (pixblockdsp.c:139)
==26674==    by 0x1023C813: dnxhd_get_blocks (dnxhdenc.c:580)
==26674==    by 0x1023C813: dnxhd_encode_thread (dnxhdenc.c:674)
==26674==    by 0x1023E7AF: dnxhd_encode_picture (dnxhdenc.c:1071)
==26674==    by 0x10263C43: avcodec_encode_video2 (encode.c:227)
==26674==    by 0x10263E63: do_encode (encode.c:274)
==26674==    by 0x102640CF: avcodec_send_frame (encode.c:323)
==26674==    by 0x10077717: do_video_out (avconv.c:590)
==26674==    by 0x10077717: poll_filter (avconv.c:729)
==26674==    by 0x10077EEF: poll_filters (avconv.c:803)
==26674==    by 0x1005EA8B: transcode (avconv.c:2806)
==26674==    by 0x1005EA8B: main (avconv.c:2975)
==26674==  Address 0x174b2078 is 1,843,192 bytes inside a block of size 1,843,200 alloc'd
==26674==    at 0x4098C90: memalign (vg_replace_malloc.c:857)
==26674==    by 0x4098DFF: posix_memalign (vg_replace_malloc.c:1020)
==26674==    by 0x108B35F7: av_malloc (mem.c:71)
==26674==    by 0x1089F827: av_buffer_alloc (buffer.c:72)
==26674==    by 0x108AA83F: get_video_buffer (frame.c:114)
==26674==    by 0x108AA83F: av_frame_get_buffer (frame.c:185)
==26674==    by 0x1009C1A7: ff_default_get_video_buffer (video.c:55)
==26674==    by 0x1009C1A7: ff_get_video_buffer (video.c:73)
==26674==    by 0x1009C1A7: ff_null_get_video_buffer (video.c:33)
==26674==    by 0x1009C133: ff_get_video_buffer (video.c:70)
==26674==    by 0x1009C133: ff_null_get_video_buffer (video.c:33)
==26674==    by 0x1009C38B: ff_get_video_buffer (video.c:70)
==26674==    by 0x1009620F: filter_frame (vf_scale.c:276)
==26674==    by 0x1007DB83: ff_filter_frame (avfilter.c:700)
==26674==    by 0x1007DB83: default_filter_frame (avfilter.c:640)
==26674==    by 0x10080403: ff_filter_frame (avfilter.c:700)
==26674==    by 0x10082C93: request_frame (buffersrc.c:399)
==26674== 
frame=    5 fps=  0 q=1.0 Lsize=    2240kB time=0.16 bitrate=114688.0kbits/s    
video:2240kB audio:0kB other streams:0kB global headers:0kB muxing overhead: 0.000000%
==26674== 
==26674== HEAP SUMMARY:
==26674==     in use at exit: 0 bytes in 0 blocks
==26674==   total heap usage: 1,759 allocs, 1,759 frees, 22,161,403 bytes allocated
==26674== 
==26674== All heap blocks were freed -- no leaks are possible
==26674== 
==26674== For counts of detected and suppressed errors, rerun with: -v
==26674== ERROR SUMMARY: 15 errors from 2 contexts (suppressed: 0 from 0)
diffstderrvsynth1-dnxhd-720p-rd1v12_dev0-1345-g0181ae9
--- /home/mik/src/fate/src/tests/ref/vsynth/vsynth1-dnxhd-720p-rd	2014-01-10 11:16:55.734697630 +0000
+++ tests/data/fate/vsynth1-dnxhd-720p-rd	2019-04-16 11:22:10.174554071 +0000
@@ -1,4 +0,0 @@
-1dc6e95925c4f3a230848ec17c02abed *tests/data/fate/vsynth1-dnxhd-720p-rd.dnxhd
-2293760 tests/data/fate/vsynth1-dnxhd-720p-rd.dnxhd
-02972d2aec120ec1577ec9053d68ae0f *tests/data/fate/vsynth1-dnxhd-720p-rd.out.rawvideo
-stddev:    6.26 PSNR: 32.19 MAXDIFF:   65 bytes:  7603200/   760320
==26820== Memcheck, a memory error detector
==26820== Copyright (C) 2002-2015, and GNU GPL'd, by Julian Seward et al.
==26820== Using Valgrind-3.12.0.SVN and LibVEX; rerun with -h for copyright info
==26820== Command: /home/mik/src/fate/ppc64-linux-gcc-valgrind/build/avconv -nostats -cpuflags all -f rawvideo -s 352x288 -pix_fmt yuv420p -flags +bitexact -idct simple -sws_flags +accurate_rnd+bitexact -fflags +bitexact -hwaccel none -threads 1 -thread_type frame+slice -i /home/mik/src/fate/ppc64-linux-gcc-valgrind/build/tests/data/vsynth1.yuv -flags +bitexact -idct simple -sws_flags +accurate_rnd+bitexact -fflags +bitexact -threads 1 -dct fastint -c dnxhd -s hd720 -b 90M -threads 4 -mbd rd -pix_fmt yuv422p -frames 5 -flags +bitexact -sws_flags +accurate_rnd+bitexact -fflags +bitexact -f dnxhd -y /home/mik/src/fate/ppc64-linux-gcc-valgrind/build/tests/data/fate/vsynth1-dnxhd-720p-rd.dnxhd
==26820== 
avconv version v13_dev0-1648-gc464278, Copyright (c) 2000-2018 the Libav developers
  built on Apr 16 2019 11:01:06 with gcc 5.5.0 (GCC)
[rawvideo @ 0x46eaf80] Estimating duration from bitrate, this may be inaccurate
Input #0, rawvideo, from '/home/mik/src/fate/ppc64-linux-gcc-valgrind/build/tests/data/vsynth1.yuv':
  Duration: N/A, start: 0.000000, bitrate: N/A
    Stream #0:0: Video: rawvideo
      yuv420p, 352x288
      25 fps, 25 tbn
Stream mapping:
  Stream #0:0 -> #0:0 (rawvideo (native) -> dnxhd (native))
Press ctrl-c to stop encoding
Output #0, dnxhd, to '/home/mik/src/fate/ppc64-linux-gcc-valgrind/build/tests/data/fate/vsynth1-dnxhd-720p-rd.dnxhd':
    Stream #0:0: Video: dnxhd
      yuv422p, 1280x720, q=2-31, 90000 kb/s
      25 tbn
    Metadata:
      encoder         : dnxhd
==26820== Thread 67:
==26820== Invalid read of size 16
==26820==    at 0x10481A2C: get_pixels_vsx (pixblockdsp.c:139)
==26820==    by 0x1023D16F: dnxhd_get_blocks (dnxhdenc.c:580)
==26820==    by 0x1023D16F: dnxhd_calc_bits_thread (dnxhdenc.c:619)
==26820==    by 0x43FC99B: start_thread (in /usr/lib64/libpthread-2.17.so)
==26820==    by 0x458781B: clone (in /usr/lib64/libc-2.17.so)
==26820==  Address 0x184f2078 is 1,843,192 bytes inside a block of size 1,843,200 alloc'd
==26820==    at 0x4098C90: memalign (vg_replace_malloc.c:857)
==26820==    by 0x4098DFF: posix_memalign (vg_replace_malloc.c:1020)
==26820==    by 0x108B35F7: av_malloc (mem.c:71)
==26820==    by 0x1089F827: av_buffer_alloc (buffer.c:72)
==26820==    by 0x108AA83F: get_video_buffer (frame.c:114)
==26820==    by 0x108AA83F: av_frame_get_buffer (frame.c:185)
==26820==    by 0x1009C1A7: ff_default_get_video_buffer (video.c:55)
==26820==    by 0x1009C1A7: ff_get_video_buffer (video.c:73)
==26820==    by 0x1009C1A7: ff_null_get_video_buffer (video.c:33)
==26820==    by 0x1009C133: ff_get_video_buffer (video.c:70)
==26820==    by 0x1009C133: ff_null_get_video_buffer (video.c:33)
==26820==    by 0x1009C38B: ff_get_video_buffer (video.c:70)
==26820==    by 0x1009620F: filter_frame (vf_scale.c:276)
==26820==    by 0x1007DB83: ff_filter_frame (avfilter.c:700)
==26820==    by 0x1007DB83: default_filter_frame (avfilter.c:640)
==26820==    by 0x10080403: ff_filter_frame (avfilter.c:700)
==26820==    by 0x10082C93: request_frame (buffersrc.c:399)
==26820== 
==26820== Invalid read of size 16
==26820==    at 0x10481A2C: get_pixels_vsx (pixblockdsp.c:139)
==26820==    by 0x1023C813: dnxhd_get_blocks (dnxhdenc.c:580)
==26820==    by 0x1023C813: dnxhd_encode_thread (dnxhdenc.c:674)
==26820==    by 0x43FC99B: start_thread (in /usr/lib64/libpthread-2.17.so)
==26820==    by 0x458781B: clone (in /usr/lib64/libc-2.17.so)
==26820==  Address 0x184f2078 is 1,843,192 bytes inside a block of size 1,843,200 alloc'd
==26820==    at 0x4098C90: memalign (vg_replace_malloc.c:857)
==26820==    by 0x4098DFF: posix_memalign (vg_replace_malloc.c:1020)
==26820==    by 0x108B35F7: av_malloc (mem.c:71)
==26820==    by 0x1089F827: av_buffer_alloc (buffer.c:72)
==26820==    by 0x108AA83F: get_video_buffer (frame.c:114)
==26820==    by 0x108AA83F: av_frame_get_buffer (frame.c:185)
==26820==    by 0x1009C1A7: ff_default_get_video_buffer (video.c:55)
==26820==    by 0x1009C1A7: ff_get_video_buffer (video.c:73)
==26820==    by 0x1009C1A7: ff_null_get_video_buffer (video.c:33)
==26820==    by 0x1009C133: ff_get_video_buffer (video.c:70)
==26820==    by 0x1009C133: ff_null_get_video_buffer (video.c:33)
==26820==    by 0x1009C38B: ff_get_video_buffer (video.c:70)
==26820==    by 0x1009620F: filter_frame (vf_scale.c:276)
==26820==    by 0x1007DB83: ff_filter_frame (avfilter.c:700)
==26820==    by 0x1007DB83: default_filter_frame (avfilter.c:640)
==26820==    by 0x10080403: ff_filter_frame (avfilter.c:700)
==26820==    by 0x10082C93: request_frame (buffersrc.c:399)
==26820== 
frame=    5 fps=  0 q=30.0 Lsize=    2240kB time=0.16 bitrate=114688.0kbits/s    
video:2240kB audio:0kB other streams:0kB global headers:0kB muxing overhead: 0.000000%
==26820== 
==26820== HEAP SUMMARY:
==26820==     in use at exit: 0 bytes in 0 blocks
==26820==   total heap usage: 1,779 allocs, 1,779 frees, 22,025,579 bytes allocated
==26820== 
==26820== All heap blocks were freed -- no leaks are possible
==26820== 
==26820== For counts of detected and suppressed errors, rerun with: -v
==26820== ERROR SUMMARY: 155 errors from 2 contexts (suppressed: 0 from 0)
diffstderrvsynth2-dnxhd-720p1v12_dev0-1345-g0181ae9
--- /home/mik/src/fate/src/tests/ref/vsynth/vsynth2-dnxhd-720p	2014-11-30 15:37:05.674204650 +0000
+++ tests/data/fate/vsynth2-dnxhd-720p	2019-04-16 11:25:03.214900151 +0000
@@ -1,4 +0,0 @@
-71c7491a41545882b36f07ee98021b4b *tests/data/fate/vsynth2-dnxhd-720p.dnxhd
-2293760 tests/data/fate/vsynth2-dnxhd-720p.dnxhd
-adef978dc9c9e4f10dc7c30418af62af *tests/data/fate/vsynth2-dnxhd-720p.out.rawvideo
-stddev:    6.69 PSNR: 31.62 MAXDIFF:  171 bytes:  7603200/   760320
==44888== Memcheck, a memory error detector
==44888== Copyright (C) 2002-2015, and GNU GPL'd, by Julian Seward et al.
==44888== Using Valgrind-3.12.0.SVN and LibVEX; rerun with -h for copyright info
==44888== Command: /home/mik/src/fate/ppc64-linux-gcc-valgrind/build/avconv -nostats -cpuflags all -f rawvideo -s 352x288 -pix_fmt yuv420p -flags +bitexact -idct simple -sws_flags +accurate_rnd+bitexact -fflags +bitexact -hwaccel none -threads 1 -thread_type frame+slice -i /home/mik/src/fate/ppc64-linux-gcc-valgrind/build/tests/data/vsynth2.yuv -flags +bitexact -idct simple -sws_flags +accurate_rnd+bitexact -fflags +bitexact -threads 1 -dct fastint -c dnxhd -s hd720 -b 90M -pix_fmt yuv422p -frames 5 -flags +bitexact -sws_flags +accurate_rnd+bitexact -fflags +bitexact -f dnxhd -y /home/mik/src/fate/ppc64-linux-gcc-valgrind/build/tests/data/fate/vsynth2-dnxhd-720p.dnxhd
==44888== 
avconv version v13_dev0-1648-gc464278, Copyright (c) 2000-2018 the Libav developers
  built on Apr 16 2019 11:01:06 with gcc 5.5.0 (GCC)
[rawvideo @ 0x46eaee0] Estimating duration from bitrate, this may be inaccurate
Input #0, rawvideo, from '/home/mik/src/fate/ppc64-linux-gcc-valgrind/build/tests/data/vsynth2.yuv':
  Duration: N/A, start: 0.000000, bitrate: N/A
    Stream #0:0: Video: rawvideo
      yuv420p, 352x288
      25 fps, 25 tbn
Stream mapping:
  Stream #0:0 -> #0:0 (rawvideo (native) -> dnxhd (native))
Press ctrl-c to stop encoding
Output #0, dnxhd, to '/home/mik/src/fate/ppc64-linux-gcc-valgrind/build/tests/data/fate/vsynth2-dnxhd-720p.dnxhd':
    Stream #0:0: Video: dnxhd
      yuv422p, 1280x720, q=2-31, 90000 kb/s
      25 tbn
    Metadata:
      encoder         : dnxhd
==44888== Invalid read of size 16
==44888==    at 0x10481A2C: get_pixels_vsx (pixblockdsp.c:139)
==44888==    by 0x1023D16F: dnxhd_get_blocks (dnxhdenc.c:580)
==44888==    by 0x1023D16F: dnxhd_calc_bits_thread (dnxhdenc.c:619)
==44888==    by 0x1023E073: dnxhd_find_qscale (dnxhdenc.c:866)
==44888==    by 0x1023E073: dnxhd_encode_fast (dnxhdenc.c:969)
==44888==    by 0x1023E073: dnxhd_encode_picture (dnxhdenc.c:1055)
==44888==    by 0x10263C43: avcodec_encode_video2 (encode.c:227)
==44888==    by 0x10263E63: do_encode (encode.c:274)
==44888==    by 0x102640CF: avcodec_send_frame (encode.c:323)
==44888==    by 0x10077717: do_video_out (avconv.c:590)
==44888==    by 0x10077717: poll_filter (avconv.c:729)
==44888==    by 0x10077EEF: poll_filters (avconv.c:803)
==44888==    by 0x1005EA8B: transcode (avconv.c:2806)
==44888==    by 0x1005EA8B: main (avconv.c:2975)
==44888==  Address 0x174b2078 is 1,843,192 bytes inside a block of size 1,843,200 alloc'd
==44888==    at 0x4098C90: memalign (vg_replace_malloc.c:857)
==44888==    by 0x4098DFF: posix_memalign (vg_replace_malloc.c:1020)
==44888==    by 0x108B35F7: av_malloc (mem.c:71)
==44888==    by 0x1089F827: av_buffer_alloc (buffer.c:72)
==44888==    by 0x108AA83F: get_video_buffer (frame.c:114)
==44888==    by 0x108AA83F: av_frame_get_buffer (frame.c:185)
==44888==    by 0x1009C1A7: ff_default_get_video_buffer (video.c:55)
==44888==    by 0x1009C1A7: ff_get_video_buffer (video.c:73)
==44888==    by 0x1009C1A7: ff_null_get_video_buffer (video.c:33)
==44888==    by 0x1009C133: ff_get_video_buffer (video.c:70)
==44888==    by 0x1009C133: ff_null_get_video_buffer (video.c:33)
==44888==    by 0x1009C38B: ff_get_video_buffer (video.c:70)
==44888==    by 0x1009620F: filter_frame (vf_scale.c:276)
==44888==    by 0x1007DB83: ff_filter_frame (avfilter.c:700)
==44888==    by 0x1007DB83: default_filter_frame (avfilter.c:640)
==44888==    by 0x10080403: ff_filter_frame (avfilter.c:700)
==44888==    by 0x10082C93: request_frame (buffersrc.c:399)
==44888== 
==44888== Invalid read of size 16
==44888==    at 0x10481A2C: get_pixels_vsx (pixblockdsp.c:139)
==44888==    by 0x1023C813: dnxhd_get_blocks (dnxhdenc.c:580)
==44888==    by 0x1023C813: dnxhd_encode_thread (dnxhdenc.c:674)
==44888==    by 0x1023E7AF: dnxhd_encode_picture (dnxhdenc.c:1071)
==44888==    by 0x10263C43: avcodec_encode_video2 (encode.c:227)
==44888==    by 0x10263E63: do_encode (encode.c:274)
==44888==    by 0x102640CF: avcodec_send_frame (encode.c:323)
==44888==    by 0x10077717: do_video_out (avconv.c:590)
==44888==    by 0x10077717: poll_filter (avconv.c:729)
==44888==    by 0x10077EEF: poll_filters (avconv.c:803)
==44888==    by 0x1005EA8B: transcode (avconv.c:2806)
==44888==    by 0x1005EA8B: main (avconv.c:2975)
==44888==  Address 0x174b2078 is 1,843,192 bytes inside a block of size 1,843,200 alloc'd
==44888==    at 0x4098C90: memalign (vg_replace_malloc.c:857)
==44888==    by 0x4098DFF: posix_memalign (vg_replace_malloc.c:1020)
==44888==    by 0x108B35F7: av_malloc (mem.c:71)
==44888==    by 0x1089F827: av_buffer_alloc (buffer.c:72)
==44888==    by 0x108AA83F: get_video_buffer (frame.c:114)
==44888==    by 0x108AA83F: av_frame_get_buffer (frame.c:185)
==44888==    by 0x1009C1A7: ff_default_get_video_buffer (video.c:55)
==44888==    by 0x1009C1A7: ff_get_video_buffer (video.c:73)
==44888==    by 0x1009C1A7: ff_null_get_video_buffer (video.c:33)
==44888==    by 0x1009C133: ff_get_video_buffer (video.c:70)
==44888==    by 0x1009C133: ff_null_get_video_buffer (video.c:33)
==44888==    by 0x1009C38B: ff_get_video_buffer (video.c:70)
==44888==    by 0x1009620F: filter_frame (vf_scale.c:276)
==44888==    by 0x1007DB83: ff_filter_frame (avfilter.c:700)
==44888==    by 0x1007DB83: default_filter_frame (avfilter.c:640)
==44888==    by 0x10080403: ff_filter_frame (avfilter.c:700)
==44888==    by 0x10082C93: request_frame (buffersrc.c:399)
==44888== 
frame=    5 fps=  1 q=1.0 Lsize=    2240kB time=0.16 bitrate=114688.0kbits/s    
video:2240kB audio:0kB other streams:0kB global headers:0kB muxing overhead: 0.000000%
==44888== 
==44888== HEAP SUMMARY:
==44888==     in use at exit: 0 bytes in 0 blocks
==44888==   total heap usage: 1,754 allocs, 1,754 frees, 22,017,403 bytes allocated
==44888== 
==44888== All heap blocks were freed -- no leaks are possible
==44888== 
==44888== For counts of detected and suppressed errors, rerun with: -v
==44888== ERROR SUMMARY: 10 errors from 2 contexts (suppressed: 0 from 0)
diffstderrvsynth2-dnxhd-720p-rd1v12_dev0-1345-g0181ae9
--- /home/mik/src/fate/src/tests/ref/vsynth/vsynth2-dnxhd-720p-rd	2014-11-30 15:37:05.674204650 +0000
+++ tests/data/fate/vsynth2-dnxhd-720p-rd	2019-04-16 11:25:03.634900991 +0000
@@ -1,4 +0,0 @@
-819a7714098e098981bf08253ef2e490 *tests/data/fate/vsynth2-dnxhd-720p-rd.dnxhd
-2293760 tests/data/fate/vsynth2-dnxhd-720p-rd.dnxhd
-a05c35b99e5e74a9c8b3a9c66da01775 *tests/data/fate/vsynth2-dnxhd-720p-rd.out.rawvideo
-stddev:    1.53 PSNR: 44.39 MAXDIFF:   31 bytes:  7603200/   760320
==44967== Memcheck, a memory error detector
==44967== Copyright (C) 2002-2015, and GNU GPL'd, by Julian Seward et al.
==44967== Using Valgrind-3.12.0.SVN and LibVEX; rerun with -h for copyright info
==44967== Command: /home/mik/src/fate/ppc64-linux-gcc-valgrind/build/avconv -nostats -cpuflags all -f rawvideo -s 352x288 -pix_fmt yuv420p -flags +bitexact -idct simple -sws_flags +accurate_rnd+bitexact -fflags +bitexact -hwaccel none -threads 1 -thread_type frame+slice -i /home/mik/src/fate/ppc64-linux-gcc-valgrind/build/tests/data/vsynth2.yuv -flags +bitexact -idct simple -sws_flags +accurate_rnd+bitexact -fflags +bitexact -threads 1 -dct fastint -c dnxhd -s hd720 -b 90M -threads 4 -mbd rd -pix_fmt yuv422p -frames 5 -flags +bitexact -sws_flags +accurate_rnd+bitexact -fflags +bitexact -f dnxhd -y /home/mik/src/fate/ppc64-linux-gcc-valgrind/build/tests/data/fate/vsynth2-dnxhd-720p-rd.dnxhd
==44967== 
avconv version v13_dev0-1648-gc464278, Copyright (c) 2000-2018 the Libav developers
  built on Apr 16 2019 11:01:06 with gcc 5.5.0 (GCC)
[rawvideo @ 0x46eaf80] Estimating duration from bitrate, this may be inaccurate
Input #0, rawvideo, from '/home/mik/src/fate/ppc64-linux-gcc-valgrind/build/tests/data/vsynth2.yuv':
  Duration: N/A, start: 0.000000, bitrate: N/A
    Stream #0:0: Video: rawvideo
      yuv420p, 352x288
      25 fps, 25 tbn
Stream mapping:
  Stream #0:0 -> #0:0 (rawvideo (native) -> dnxhd (native))
Press ctrl-c to stop encoding
Output #0, dnxhd, to '/home/mik/src/fate/ppc64-linux-gcc-valgrind/build/tests/data/fate/vsynth2-dnxhd-720p-rd.dnxhd':
    Stream #0:0: Video: dnxhd
      yuv422p, 1280x720, q=2-31, 90000 kb/s
      25 tbn
    Metadata:
      encoder         : dnxhd
==44967== Thread 68:
==44967== Invalid read of size 16
==44967==    at 0x10481A2C: get_pixels_vsx (pixblockdsp.c:139)
==44967==    by 0x1023D16F: dnxhd_get_blocks (dnxhdenc.c:580)
==44967==    by 0x1023D16F: dnxhd_calc_bits_thread (dnxhdenc.c:619)
==44967==    by 0x43FC99B: start_thread (in /usr/lib64/libpthread-2.17.so)
==44967==    by 0x458781B: clone (in /usr/lib64/libc-2.17.so)
==44967==  Address 0x184f2078 is 1,843,192 bytes inside a block of size 1,843,200 alloc'd
==44967==    at 0x4098C90: memalign (vg_replace_malloc.c:857)
==44967==    by 0x4098DFF: posix_memalign (vg_replace_malloc.c:1020)
==44967==    by 0x108B35F7: av_malloc (mem.c:71)
==44967==    by 0x1089F827: av_buffer_alloc (buffer.c:72)
==44967==    by 0x108AA83F: get_video_buffer (frame.c:114)
==44967==    by 0x108AA83F: av_frame_get_buffer (frame.c:185)
==44967==    by 0x1009C1A7: ff_default_get_video_buffer (video.c:55)
==44967==    by 0x1009C1A7: ff_get_video_buffer (video.c:73)
==44967==    by 0x1009C1A7: ff_null_get_video_buffer (video.c:33)
==44967==    by 0x1009C133: ff_get_video_buffer (video.c:70)
==44967==    by 0x1009C133: ff_null_get_video_buffer (video.c:33)
==44967==    by 0x1009C38B: ff_get_video_buffer (video.c:70)
==44967==    by 0x1009620F: filter_frame (vf_scale.c:276)
==44967==    by 0x1007DB83: ff_filter_frame (avfilter.c:700)
==44967==    by 0x1007DB83: default_filter_frame (avfilter.c:640)
==44967==    by 0x10080403: ff_filter_frame (avfilter.c:700)
==44967==    by 0x10082C93: request_frame (buffersrc.c:399)
==44967== 
==44967== Invalid read of size 16
==44967==    at 0x10481A2C: get_pixels_vsx (pixblockdsp.c:139)
==44967==    by 0x1023C813: dnxhd_get_blocks (dnxhdenc.c:580)
==44967==    by 0x1023C813: dnxhd_encode_thread (dnxhdenc.c:674)
==44967==    by 0x43FC99B: start_thread (in /usr/lib64/libpthread-2.17.so)
==44967==    by 0x458781B: clone (in /usr/lib64/libc-2.17.so)
==44967==  Address 0x184f2078 is 1,843,192 bytes inside a block of size 1,843,200 alloc'd
==44967==    at 0x4098C90: memalign (vg_replace_malloc.c:857)
==44967==    by 0x4098DFF: posix_memalign (vg_replace_malloc.c:1020)
==44967==    by 0x108B35F7: av_malloc (mem.c:71)
==44967==    by 0x1089F827: av_buffer_alloc (buffer.c:72)
==44967==    by 0x108AA83F: get_video_buffer (frame.c:114)
==44967==    by 0x108AA83F: av_frame_get_buffer (frame.c:185)
==44967==    by 0x1009C1A7: ff_default_get_video_buffer (video.c:55)
==44967==    by 0x1009C1A7: ff_get_video_buffer (video.c:73)
==44967==    by 0x1009C1A7: ff_null_get_video_buffer (video.c:33)
==44967==    by 0x1009C133: ff_get_video_buffer (video.c:70)
==44967==    by 0x1009C133: ff_null_get_video_buffer (video.c:33)
==44967==    by 0x1009C38B: ff_get_video_buffer (video.c:70)
==44967==    by 0x1009620F: filter_frame (vf_scale.c:276)
==44967==    by 0x1007DB83: ff_filter_frame (avfilter.c:700)
==44967==    by 0x1007DB83: default_filter_frame (avfilter.c:640)
==44967==    by 0x10080403: ff_filter_frame (avfilter.c:700)
==44967==    by 0x10082C93: request_frame (buffersrc.c:399)
==44967== 
frame=    5 fps=  0 q=30.0 Lsize=    2240kB time=0.16 bitrate=114688.0kbits/s    
video:2240kB audio:0kB other streams:0kB global headers:0kB muxing overhead: 0.000000%
==44967== 
==44967== HEAP SUMMARY:
==44967==     in use at exit: 0 bytes in 0 blocks
==44967==   total heap usage: 1,779 allocs, 1,779 frees, 22,025,579 bytes allocated
==44967== 
==44967== All heap blocks were freed -- no leaks are possible
==44967== 
==44967== For counts of detected and suppressed errors, rerun with: -v
==44967== ERROR SUMMARY: 155 errors from 2 contexts (suppressed: 0 from 0)