ppc64-linux-gcc-valgrind v13_dev0-1601-g56f5018

Architectureppc
Variantppc64
CPUgeneric
OSlinux
Ownerkostylev
Compilergcc 5.5.0 (GCC)
Configuration--enable-gpl --prefix=/home/mik/src/fate/ppc64-linux-gcc-valgrind/install --samples=/home/mik/src/fate/fate-suite --cc=gcc-5 --target-exec='valgrind --leak-check=full --show-reachable=yes --error-exitcode=1 --malloc-fill=0x4a --undef-value-errors=no'
Commentvalgrind --undef-value-errors=no
Revisionv13_dev0-1601-g56f5018
Date2018-11-16 01:31:12
Status2144 / 2149
Warnings67
Logscompile configure test
5 failed testsStatusLast good rev
diffstderrsvq3-21n / a
--- /home/mik/src/fate/src/tests/ref/fate/svq3-2	2017-02-27 10:07:05.303380676 +0000
+++ tests/data/fate/svq3-2	2018-11-16 01:17:07.408625624 +0000
@@ -1,5 +1,5 @@
 #tb 0: 1/19200
-0,     -20000,     -20000,        0,   185280, 0x061c0d85
+0,     -20000,     -20000,        0,   185280, 0xc0bd953f
 0,     -19200,     -19200,        0,   185280, 0x427ef9a7
 0,     -18400,     -18400,        0,   185280, 0x64c74d6a
 0,     -17600,     -17600,        0,   185280, 0x5bfd0e5b
==4311== Memcheck, a memory error detector
==4311== Copyright (C) 2002-2015, and GNU GPL'd, by Julian Seward et al.
==4311== Using Valgrind-3.12.0.SVN and LibVEX; rerun with -h for copyright info
==4311== Command: /home/mik/src/fate/ppc64-linux-gcc-valgrind/build/avconv -nostats -cpuflags all -flags +bitexact -hwaccel none -threads 1 -thread_type frame+slice -i /home/mik/src/fate/fate-suite/svq3/svq3_decoding_regression.mov -an -f framecrc -
==4311== 
avconv version v13_dev0-1601-g56f5018, Copyright (c) 2000-2018 the Libav developers
  built on Nov 16 2018 01:02:35 with gcc 5.5.0 (GCC)
Input #0, mov,mp4,m4a,3gp,3g2,mj2, from '/home/mik/src/fate/fate-suite/svq3/svq3_decoding_regression.mov':
  Metadata:
    major_brand     : qt  
    minor_version   : 512
    compatible_brands: qt  
    artist          : Mark Strube - SupaDupaStrube@msn.com
    artist-eng      : Mark Strube - SupaDupaStrube@msn.com
    title           : Movie-List Presents: The Abyss
    title-eng       : Movie-List Presents: The Abyss
    encoder         : Lavf57.66.101
    copyright       : © 1989 Twentieth Century Fox
    copyright-eng   : © 1989 Twentieth Century Fox
  Duration: 00:00:00.83, bitrate: 2376 kb/s
    Stream #0:0(eng): Video: svq3 [SVQ3 / 0x33515653]
      yuvj420p, pc, 480x257, 2366 kb/s
      24 fps, 19200 tbn (default)
    Metadata:
      handler_name    : DataHandler
      encoder         : Sorenson Video 3
Stream mapping:
  Stream #0:0 -> #0:0 (svq3 (native) -> rawvideo (native))
Press ctrl-c to stop encoding
[svq3 @ 0x4727e20] Missing reference frame.
Output #0, framecrc, to 'pipe:':
  Metadata:
    major_brand     : qt  
    minor_version   : 512
    compatible_brands: qt  
    artist          : Mark Strube - SupaDupaStrube@msn.com
    artist-eng      : Mark Strube - SupaDupaStrube@msn.com
    title           : Movie-List Presents: The Abyss
    title-eng       : Movie-List Presents: The Abyss
    copyright-eng   : © 1989 Twentieth Century Fox
    copyright       : © 1989 Twentieth Century Fox
    encoder         : Lavf58.2.0
    Stream #0:0(eng): Video: rawvideo [I420 / 0x30323449]
      yuvj420p, 480x257, q=2-31, 200 kb/s
      19200 tbn (default)
    Metadata:
      handler_name    : DataHandler
      encoder         : Sorenson Video 3
*** dropping frame 19 from stream 0 at ts -6400
frame=   19 fps=  0 q=-0.0 Lsize=       1kB time=10000000000.00 bitrate=   0.0kbits/s drop=1    
video:3438kB audio:0kB other streams:0kB global headers:0kB muxing overhead: unknown
==4311== 
==4311== HEAP SUMMARY:
==4311==     in use at exit: 0 bytes in 0 blocks
==4311==   total heap usage: 1,683 allocs, 1,683 frees, 8,682,266 bytes allocated
==4311== 
==4311== All heap blocks were freed -- no leaks are possible
==4311== 
==4311== For counts of detected and suppressed errors, rerun with: -v
==4311== ERROR SUMMARY: 0 errors from 0 contexts (suppressed: 0 from 0)
diffstderrvsynth1-dnxhd-720p1v12_dev0-1345-g0181ae9
--- /home/mik/src/fate/src/tests/ref/vsynth/vsynth1-dnxhd-720p	2014-01-10 11:16:55.734697630 +0000
+++ tests/data/fate/vsynth1-dnxhd-720p	2018-11-16 01:24:46.599635842 +0000
@@ -1,4 +0,0 @@
-81f5be451dc18cf8a1d333c7885de60b *tests/data/fate/vsynth1-dnxhd-720p.dnxhd
-2293760 tests/data/fate/vsynth1-dnxhd-720p.dnxhd
-94b21e5e68ccf9471eff74afd0ebe319 *tests/data/fate/vsynth1-dnxhd-720p.out.rawvideo
-stddev:    6.32 PSNR: 32.11 MAXDIFF:  183 bytes:  7603200/   760320
==23333== Memcheck, a memory error detector
==23333== Copyright (C) 2002-2015, and GNU GPL'd, by Julian Seward et al.
==23333== Using Valgrind-3.12.0.SVN and LibVEX; rerun with -h for copyright info
==23333== Command: /home/mik/src/fate/ppc64-linux-gcc-valgrind/build/avconv -nostats -cpuflags all -f rawvideo -s 352x288 -pix_fmt yuv420p -threads 1 -idct simple -flags +bitexact -sws_flags +accurate_rnd+bitexact -fflags +bitexact -hwaccel none -threads 1 -thread_type frame+slice -i /home/mik/src/fate/ppc64-linux-gcc-valgrind/build/tests/data/vsynth1.yuv -threads 1 -idct simple -dct fastint -c dnxhd -s hd720 -b 90M -pix_fmt yuv422p -frames 5 -flags +bitexact -sws_flags +accurate_rnd+bitexact -fflags +bitexact -f dnxhd -y /home/mik/src/fate/ppc64-linux-gcc-valgrind/build/tests/data/fate/vsynth1-dnxhd-720p.dnxhd
==23333== 
avconv version v13_dev0-1601-g56f5018, Copyright (c) 2000-2018 the Libav developers
  built on Nov 16 2018 01:02:35 with gcc 5.5.0 (GCC)
[rawvideo @ 0x46cae20] Estimating duration from bitrate, this may be inaccurate
Input #0, rawvideo, from '/home/mik/src/fate/ppc64-linux-gcc-valgrind/build/tests/data/vsynth1.yuv':
  Duration: N/A, start: 0.000000, bitrate: N/A
    Stream #0:0: Video: rawvideo
      yuv420p, 352x288
      25 fps, 25 tbn
Stream mapping:
  Stream #0:0 -> #0:0 (rawvideo (native) -> dnxhd (native))
Press ctrl-c to stop encoding
Output #0, dnxhd, to '/home/mik/src/fate/ppc64-linux-gcc-valgrind/build/tests/data/fate/vsynth1-dnxhd-720p.dnxhd':
    Stream #0:0: Video: dnxhd
      yuv422p, 1280x720, q=2-31, 90000 kb/s
      25 tbn
    Metadata:
      encoder         : dnxhd
==23333== Invalid read of size 16
==23333==    at 0x10481B2C: get_pixels_vsx (pixblockdsp.c:139)
==23333==    by 0x1023D26F: dnxhd_get_blocks (dnxhdenc.c:580)
==23333==    by 0x1023D26F: dnxhd_calc_bits_thread (dnxhdenc.c:619)
==23333==    by 0x1023E173: dnxhd_find_qscale (dnxhdenc.c:866)
==23333==    by 0x1023E173: dnxhd_encode_fast (dnxhdenc.c:969)
==23333==    by 0x1023E173: dnxhd_encode_picture (dnxhdenc.c:1055)
==23333==    by 0x10263D43: avcodec_encode_video2 (encode.c:227)
==23333==    by 0x10263F63: do_encode (encode.c:274)
==23333==    by 0x102641CF: avcodec_send_frame (encode.c:323)
==23333==    by 0x10077717: do_video_out (avconv.c:590)
==23333==    by 0x10077717: poll_filter (avconv.c:729)
==23333==    by 0x10077EEF: poll_filters (avconv.c:803)
==23333==    by 0x1005EA8B: transcode (avconv.c:2806)
==23333==    by 0x1005EA8B: main (avconv.c:2975)
==23333==  Address 0x16f52078 is 1,843,192 bytes inside a block of size 1,843,200 alloc'd
==23333==    at 0x4088C90: memalign (vg_replace_malloc.c:857)
==23333==    by 0x4088DFF: posix_memalign (vg_replace_malloc.c:1020)
==23333==    by 0x108B36F7: av_malloc (mem.c:71)
==23333==    by 0x1089F927: av_buffer_alloc (buffer.c:72)
==23333==    by 0x108AA93F: get_video_buffer (frame.c:114)
==23333==    by 0x108AA93F: av_frame_get_buffer (frame.c:185)
==23333==    by 0x1009C1A7: ff_default_get_video_buffer (video.c:55)
==23333==    by 0x1009C1A7: ff_get_video_buffer (video.c:73)
==23333==    by 0x1009C1A7: ff_null_get_video_buffer (video.c:33)
==23333==    by 0x1009C133: ff_get_video_buffer (video.c:70)
==23333==    by 0x1009C133: ff_null_get_video_buffer (video.c:33)
==23333==    by 0x1009C38B: ff_get_video_buffer (video.c:70)
==23333==    by 0x1009620F: filter_frame (vf_scale.c:276)
==23333==    by 0x1007DB83: ff_filter_frame (avfilter.c:700)
==23333==    by 0x1007DB83: default_filter_frame (avfilter.c:640)
==23333==    by 0x10080403: ff_filter_frame (avfilter.c:700)
==23333==    by 0x10082C93: request_frame (buffersrc.c:399)
==23333== 
==23333== Invalid read of size 16
==23333==    at 0x10481B2C: get_pixels_vsx (pixblockdsp.c:139)
==23333==    by 0x1023C913: dnxhd_get_blocks (dnxhdenc.c:580)
==23333==    by 0x1023C913: dnxhd_encode_thread (dnxhdenc.c:674)
==23333==    by 0x1023E8AF: dnxhd_encode_picture (dnxhdenc.c:1071)
==23333==    by 0x10263D43: avcodec_encode_video2 (encode.c:227)
==23333==    by 0x10263F63: do_encode (encode.c:274)
==23333==    by 0x102641CF: avcodec_send_frame (encode.c:323)
==23333==    by 0x10077717: do_video_out (avconv.c:590)
==23333==    by 0x10077717: poll_filter (avconv.c:729)
==23333==    by 0x10077EEF: poll_filters (avconv.c:803)
==23333==    by 0x1005EA8B: transcode (avconv.c:2806)
==23333==    by 0x1005EA8B: main (avconv.c:2975)
==23333==  Address 0x16f52078 is 1,843,192 bytes inside a block of size 1,843,200 alloc'd
==23333==    at 0x4088C90: memalign (vg_replace_malloc.c:857)
==23333==    by 0x4088DFF: posix_memalign (vg_replace_malloc.c:1020)
==23333==    by 0x108B36F7: av_malloc (mem.c:71)
==23333==    by 0x1089F927: av_buffer_alloc (buffer.c:72)
==23333==    by 0x108AA93F: get_video_buffer (frame.c:114)
==23333==    by 0x108AA93F: av_frame_get_buffer (frame.c:185)
==23333==    by 0x1009C1A7: ff_default_get_video_buffer (video.c:55)
==23333==    by 0x1009C1A7: ff_get_video_buffer (video.c:73)
==23333==    by 0x1009C1A7: ff_null_get_video_buffer (video.c:33)
==23333==    by 0x1009C133: ff_get_video_buffer (video.c:70)
==23333==    by 0x1009C133: ff_null_get_video_buffer (video.c:33)
==23333==    by 0x1009C38B: ff_get_video_buffer (video.c:70)
==23333==    by 0x1009620F: filter_frame (vf_scale.c:276)
==23333==    by 0x1007DB83: ff_filter_frame (avfilter.c:700)
==23333==    by 0x1007DB83: default_filter_frame (avfilter.c:640)
==23333==    by 0x10080403: ff_filter_frame (avfilter.c:700)
==23333==    by 0x10082C93: request_frame (buffersrc.c:399)
==23333== 
frame=    5 fps=  0 q=1.0 Lsize=    2240kB time=0.16 bitrate=114688.0kbits/s    
video:2240kB audio:0kB other streams:0kB global headers:0kB muxing overhead: 0.000000%
==23333== 
==23333== HEAP SUMMARY:
==23333==     in use at exit: 0 bytes in 0 blocks
==23333==   total heap usage: 1,757 allocs, 1,757 frees, 22,161,281 bytes allocated
==23333== 
==23333== All heap blocks were freed -- no leaks are possible
==23333== 
==23333== For counts of detected and suppressed errors, rerun with: -v
==23333== ERROR SUMMARY: 15 errors from 2 contexts (suppressed: 0 from 0)
diffstderrvsynth1-dnxhd-720p-rd1v12_dev0-1345-g0181ae9
--- /home/mik/src/fate/src/tests/ref/vsynth/vsynth1-dnxhd-720p-rd	2014-01-10 11:16:55.734697630 +0000
+++ tests/data/fate/vsynth1-dnxhd-720p-rd	2018-11-16 01:24:51.939647590 +0000
@@ -1,4 +0,0 @@
-1dc6e95925c4f3a230848ec17c02abed *tests/data/fate/vsynth1-dnxhd-720p-rd.dnxhd
-2293760 tests/data/fate/vsynth1-dnxhd-720p-rd.dnxhd
-02972d2aec120ec1577ec9053d68ae0f *tests/data/fate/vsynth1-dnxhd-720p-rd.out.rawvideo
-stddev:    6.26 PSNR: 32.19 MAXDIFF:   65 bytes:  7603200/   760320
==34627== Memcheck, a memory error detector
==34627== Copyright (C) 2002-2015, and GNU GPL'd, by Julian Seward et al.
==34627== Using Valgrind-3.12.0.SVN and LibVEX; rerun with -h for copyright info
==34627== Command: /home/mik/src/fate/ppc64-linux-gcc-valgrind/build/avconv -nostats -cpuflags all -f rawvideo -s 352x288 -pix_fmt yuv420p -threads 1 -idct simple -flags +bitexact -sws_flags +accurate_rnd+bitexact -fflags +bitexact -hwaccel none -threads 1 -thread_type frame+slice -i /home/mik/src/fate/ppc64-linux-gcc-valgrind/build/tests/data/vsynth1.yuv -threads 1 -idct simple -dct fastint -c dnxhd -s hd720 -b 90M -threads 4 -mbd rd -pix_fmt yuv422p -frames 5 -flags +bitexact -sws_flags +accurate_rnd+bitexact -fflags +bitexact -f dnxhd -y /home/mik/src/fate/ppc64-linux-gcc-valgrind/build/tests/data/fate/vsynth1-dnxhd-720p-rd.dnxhd
==34627== 
avconv version v13_dev0-1601-g56f5018, Copyright (c) 2000-2018 the Libav developers
  built on Nov 16 2018 01:02:35 with gcc 5.5.0 (GCC)
[rawvideo @ 0x46caec0] Estimating duration from bitrate, this may be inaccurate
Input #0, rawvideo, from '/home/mik/src/fate/ppc64-linux-gcc-valgrind/build/tests/data/vsynth1.yuv':
  Duration: N/A, start: 0.000000, bitrate: N/A
    Stream #0:0: Video: rawvideo
      yuv420p, 352x288
      25 fps, 25 tbn
Stream mapping:
  Stream #0:0 -> #0:0 (rawvideo (native) -> dnxhd (native))
Press ctrl-c to stop encoding
Output #0, dnxhd, to '/home/mik/src/fate/ppc64-linux-gcc-valgrind/build/tests/data/fate/vsynth1-dnxhd-720p-rd.dnxhd':
    Stream #0:0: Video: dnxhd
      yuv422p, 1280x720, q=2-31, 90000 kb/s
      25 tbn
    Metadata:
      encoder         : dnxhd
==34627== Thread 68:
==34627== Invalid read of size 16
==34627==    at 0x10481B2C: get_pixels_vsx (pixblockdsp.c:139)
==34627==    by 0x1023D26F: dnxhd_get_blocks (dnxhdenc.c:580)
==34627==    by 0x1023D26F: dnxhd_calc_bits_thread (dnxhdenc.c:619)
==34627==    by 0x43DC95B: start_thread (in /usr/lib64/libpthread-2.17.so)
==34627==    by 0x4563BBB: clone (in /usr/lib64/libc-2.17.so)
==34627==  Address 0x17f52078 is 1,843,192 bytes inside a block of size 1,843,200 alloc'd
==34627==    at 0x4088C90: memalign (vg_replace_malloc.c:857)
==34627==    by 0x4088DFF: posix_memalign (vg_replace_malloc.c:1020)
==34627==    by 0x108B36F7: av_malloc (mem.c:71)
==34627==    by 0x1089F927: av_buffer_alloc (buffer.c:72)
==34627==    by 0x108AA93F: get_video_buffer (frame.c:114)
==34627==    by 0x108AA93F: av_frame_get_buffer (frame.c:185)
==34627==    by 0x1009C1A7: ff_default_get_video_buffer (video.c:55)
==34627==    by 0x1009C1A7: ff_get_video_buffer (video.c:73)
==34627==    by 0x1009C1A7: ff_null_get_video_buffer (video.c:33)
==34627==    by 0x1009C133: ff_get_video_buffer (video.c:70)
==34627==    by 0x1009C133: ff_null_get_video_buffer (video.c:33)
==34627==    by 0x1009C38B: ff_get_video_buffer (video.c:70)
==34627==    by 0x1009620F: filter_frame (vf_scale.c:276)
==34627==    by 0x1007DB83: ff_filter_frame (avfilter.c:700)
==34627==    by 0x1007DB83: default_filter_frame (avfilter.c:640)
==34627==    by 0x10080403: ff_filter_frame (avfilter.c:700)
==34627==    by 0x10082C93: request_frame (buffersrc.c:399)
==34627== 
==34627== Thread 67:
==34627== Invalid read of size 16
==34627==    at 0x10481B2C: get_pixels_vsx (pixblockdsp.c:139)
==34627==    by 0x1023C913: dnxhd_get_blocks (dnxhdenc.c:580)
==34627==    by 0x1023C913: dnxhd_encode_thread (dnxhdenc.c:674)
==34627==    by 0x43DC95B: start_thread (in /usr/lib64/libpthread-2.17.so)
==34627==    by 0x4563BBB: clone (in /usr/lib64/libc-2.17.so)
==34627==  Address 0x17f52078 is 1,843,192 bytes inside a block of size 1,843,200 alloc'd
==34627==    at 0x4088C90: memalign (vg_replace_malloc.c:857)
==34627==    by 0x4088DFF: posix_memalign (vg_replace_malloc.c:1020)
==34627==    by 0x108B36F7: av_malloc (mem.c:71)
==34627==    by 0x1089F927: av_buffer_alloc (buffer.c:72)
==34627==    by 0x108AA93F: get_video_buffer (frame.c:114)
==34627==    by 0x108AA93F: av_frame_get_buffer (frame.c:185)
==34627==    by 0x1009C1A7: ff_default_get_video_buffer (video.c:55)
==34627==    by 0x1009C1A7: ff_get_video_buffer (video.c:73)
==34627==    by 0x1009C1A7: ff_null_get_video_buffer (video.c:33)
==34627==    by 0x1009C133: ff_get_video_buffer (video.c:70)
==34627==    by 0x1009C133: ff_null_get_video_buffer (video.c:33)
==34627==    by 0x1009C38B: ff_get_video_buffer (video.c:70)
==34627==    by 0x1009620F: filter_frame (vf_scale.c:276)
==34627==    by 0x1007DB83: ff_filter_frame (avfilter.c:700)
==34627==    by 0x1007DB83: default_filter_frame (avfilter.c:640)
==34627==    by 0x10080403: ff_filter_frame (avfilter.c:700)
==34627==    by 0x10082C93: request_frame (buffersrc.c:399)
==34627== 
frame=    5 fps=  0 q=30.0 Lsize=    2240kB time=0.16 bitrate=114688.0kbits/s    
video:2240kB audio:0kB other streams:0kB global headers:0kB muxing overhead: 0.000000%
==34627== 
==34627== HEAP SUMMARY:
==34627==     in use at exit: 0 bytes in 0 blocks
==34627==   total heap usage: 1,777 allocs, 1,777 frees, 22,025,457 bytes allocated
==34627== 
==34627== All heap blocks were freed -- no leaks are possible
==34627== 
==34627== For counts of detected and suppressed errors, rerun with: -v
==34627== ERROR SUMMARY: 155 errors from 2 contexts (suppressed: 0 from 0)
diffstderrvsynth2-dnxhd-720p1v12_dev0-1345-g0181ae9
--- /home/mik/src/fate/src/tests/ref/vsynth/vsynth2-dnxhd-720p	2014-11-30 15:37:05.674204650 +0000
+++ tests/data/fate/vsynth2-dnxhd-720p	2018-11-16 01:27:47.990034900 +0000
@@ -1,4 +0,0 @@
-71c7491a41545882b36f07ee98021b4b *tests/data/fate/vsynth2-dnxhd-720p.dnxhd
-2293760 tests/data/fate/vsynth2-dnxhd-720p.dnxhd
-adef978dc9c9e4f10dc7c30418af62af *tests/data/fate/vsynth2-dnxhd-720p.out.rawvideo
-stddev:    6.69 PSNR: 31.62 MAXDIFF:  171 bytes:  7603200/   760320
==14398== Memcheck, a memory error detector
==14398== Copyright (C) 2002-2015, and GNU GPL'd, by Julian Seward et al.
==14398== Using Valgrind-3.12.0.SVN and LibVEX; rerun with -h for copyright info
==14398== Command: /home/mik/src/fate/ppc64-linux-gcc-valgrind/build/avconv -nostats -cpuflags all -f rawvideo -s 352x288 -pix_fmt yuv420p -threads 1 -idct simple -flags +bitexact -sws_flags +accurate_rnd+bitexact -fflags +bitexact -hwaccel none -threads 1 -thread_type frame+slice -i /home/mik/src/fate/ppc64-linux-gcc-valgrind/build/tests/data/vsynth2.yuv -threads 1 -idct simple -dct fastint -c dnxhd -s hd720 -b 90M -pix_fmt yuv422p -frames 5 -flags +bitexact -sws_flags +accurate_rnd+bitexact -fflags +bitexact -f dnxhd -y /home/mik/src/fate/ppc64-linux-gcc-valgrind/build/tests/data/fate/vsynth2-dnxhd-720p.dnxhd
==14398== 
avconv version v13_dev0-1601-g56f5018, Copyright (c) 2000-2018 the Libav developers
  built on Nov 16 2018 01:02:35 with gcc 5.5.0 (GCC)
[rawvideo @ 0x46cae20] Estimating duration from bitrate, this may be inaccurate
Input #0, rawvideo, from '/home/mik/src/fate/ppc64-linux-gcc-valgrind/build/tests/data/vsynth2.yuv':
  Duration: N/A, start: 0.000000, bitrate: N/A
    Stream #0:0: Video: rawvideo
      yuv420p, 352x288
      25 fps, 25 tbn
Stream mapping:
  Stream #0:0 -> #0:0 (rawvideo (native) -> dnxhd (native))
Press ctrl-c to stop encoding
Output #0, dnxhd, to '/home/mik/src/fate/ppc64-linux-gcc-valgrind/build/tests/data/fate/vsynth2-dnxhd-720p.dnxhd':
    Stream #0:0: Video: dnxhd
      yuv422p, 1280x720, q=2-31, 90000 kb/s
      25 tbn
    Metadata:
      encoder         : dnxhd
==14398== Invalid read of size 16
==14398==    at 0x10481B2C: get_pixels_vsx (pixblockdsp.c:139)
==14398==    by 0x1023D26F: dnxhd_get_blocks (dnxhdenc.c:580)
==14398==    by 0x1023D26F: dnxhd_calc_bits_thread (dnxhdenc.c:619)
==14398==    by 0x1023E173: dnxhd_find_qscale (dnxhdenc.c:866)
==14398==    by 0x1023E173: dnxhd_encode_fast (dnxhdenc.c:969)
==14398==    by 0x1023E173: dnxhd_encode_picture (dnxhdenc.c:1055)
==14398==    by 0x10263D43: avcodec_encode_video2 (encode.c:227)
==14398==    by 0x10263F63: do_encode (encode.c:274)
==14398==    by 0x102641CF: avcodec_send_frame (encode.c:323)
==14398==    by 0x10077717: do_video_out (avconv.c:590)
==14398==    by 0x10077717: poll_filter (avconv.c:729)
==14398==    by 0x10077EEF: poll_filters (avconv.c:803)
==14398==    by 0x1005EA8B: transcode (avconv.c:2806)
==14398==    by 0x1005EA8B: main (avconv.c:2975)
==14398==  Address 0x16f52078 is 1,843,192 bytes inside a block of size 1,843,200 alloc'd
==14398==    at 0x4088C90: memalign (vg_replace_malloc.c:857)
==14398==    by 0x4088DFF: posix_memalign (vg_replace_malloc.c:1020)
==14398==    by 0x108B36F7: av_malloc (mem.c:71)
==14398==    by 0x1089F927: av_buffer_alloc (buffer.c:72)
==14398==    by 0x108AA93F: get_video_buffer (frame.c:114)
==14398==    by 0x108AA93F: av_frame_get_buffer (frame.c:185)
==14398==    by 0x1009C1A7: ff_default_get_video_buffer (video.c:55)
==14398==    by 0x1009C1A7: ff_get_video_buffer (video.c:73)
==14398==    by 0x1009C1A7: ff_null_get_video_buffer (video.c:33)
==14398==    by 0x1009C133: ff_get_video_buffer (video.c:70)
==14398==    by 0x1009C133: ff_null_get_video_buffer (video.c:33)
==14398==    by 0x1009C38B: ff_get_video_buffer (video.c:70)
==14398==    by 0x1009620F: filter_frame (vf_scale.c:276)
==14398==    by 0x1007DB83: ff_filter_frame (avfilter.c:700)
==14398==    by 0x1007DB83: default_filter_frame (avfilter.c:640)
==14398==    by 0x10080403: ff_filter_frame (avfilter.c:700)
==14398==    by 0x10082C93: request_frame (buffersrc.c:399)
==14398== 
==14398== Invalid read of size 16
==14398==    at 0x10481B2C: get_pixels_vsx (pixblockdsp.c:139)
==14398==    by 0x1023C913: dnxhd_get_blocks (dnxhdenc.c:580)
==14398==    by 0x1023C913: dnxhd_encode_thread (dnxhdenc.c:674)
==14398==    by 0x1023E8AF: dnxhd_encode_picture (dnxhdenc.c:1071)
==14398==    by 0x10263D43: avcodec_encode_video2 (encode.c:227)
==14398==    by 0x10263F63: do_encode (encode.c:274)
==14398==    by 0x102641CF: avcodec_send_frame (encode.c:323)
==14398==    by 0x10077717: do_video_out (avconv.c:590)
==14398==    by 0x10077717: poll_filter (avconv.c:729)
==14398==    by 0x10077EEF: poll_filters (avconv.c:803)
==14398==    by 0x1005EA8B: transcode (avconv.c:2806)
==14398==    by 0x1005EA8B: main (avconv.c:2975)
==14398==  Address 0x16f52078 is 1,843,192 bytes inside a block of size 1,843,200 alloc'd
==14398==    at 0x4088C90: memalign (vg_replace_malloc.c:857)
==14398==    by 0x4088DFF: posix_memalign (vg_replace_malloc.c:1020)
==14398==    by 0x108B36F7: av_malloc (mem.c:71)
==14398==    by 0x1089F927: av_buffer_alloc (buffer.c:72)
==14398==    by 0x108AA93F: get_video_buffer (frame.c:114)
==14398==    by 0x108AA93F: av_frame_get_buffer (frame.c:185)
==14398==    by 0x1009C1A7: ff_default_get_video_buffer (video.c:55)
==14398==    by 0x1009C1A7: ff_get_video_buffer (video.c:73)
==14398==    by 0x1009C1A7: ff_null_get_video_buffer (video.c:33)
==14398==    by 0x1009C133: ff_get_video_buffer (video.c:70)
==14398==    by 0x1009C133: ff_null_get_video_buffer (video.c:33)
==14398==    by 0x1009C38B: ff_get_video_buffer (video.c:70)
==14398==    by 0x1009620F: filter_frame (vf_scale.c:276)
==14398==    by 0x1007DB83: ff_filter_frame (avfilter.c:700)
==14398==    by 0x1007DB83: default_filter_frame (avfilter.c:640)
==14398==    by 0x10080403: ff_filter_frame (avfilter.c:700)
==14398==    by 0x10082C93: request_frame (buffersrc.c:399)
==14398== 
frame=    5 fps=  1 q=1.0 Lsize=    2240kB time=0.16 bitrate=114688.0kbits/s    
video:2240kB audio:0kB other streams:0kB global headers:0kB muxing overhead: 0.000000%
==14398== 
==14398== HEAP SUMMARY:
==14398==     in use at exit: 0 bytes in 0 blocks
==14398==   total heap usage: 1,752 allocs, 1,752 frees, 22,017,281 bytes allocated
==14398== 
==14398== All heap blocks were freed -- no leaks are possible
==14398== 
==14398== For counts of detected and suppressed errors, rerun with: -v
==14398== ERROR SUMMARY: 10 errors from 2 contexts (suppressed: 0 from 0)
diffstderrvsynth2-dnxhd-720p-rd1v12_dev0-1345-g0181ae9
--- /home/mik/src/fate/src/tests/ref/vsynth/vsynth2-dnxhd-720p-rd	2014-11-30 15:37:05.674204650 +0000
+++ tests/data/fate/vsynth2-dnxhd-720p-rd	2018-11-16 01:27:50.210039784 +0000
@@ -1,4 +0,0 @@
-819a7714098e098981bf08253ef2e490 *tests/data/fate/vsynth2-dnxhd-720p-rd.dnxhd
-2293760 tests/data/fate/vsynth2-dnxhd-720p-rd.dnxhd
-a05c35b99e5e74a9c8b3a9c66da01775 *tests/data/fate/vsynth2-dnxhd-720p-rd.out.rawvideo
-stddev:    1.53 PSNR: 44.39 MAXDIFF:   31 bytes:  7603200/   760320
==16938== Memcheck, a memory error detector
==16938== Copyright (C) 2002-2015, and GNU GPL'd, by Julian Seward et al.
==16938== Using Valgrind-3.12.0.SVN and LibVEX; rerun with -h for copyright info
==16938== Command: /home/mik/src/fate/ppc64-linux-gcc-valgrind/build/avconv -nostats -cpuflags all -f rawvideo -s 352x288 -pix_fmt yuv420p -threads 1 -idct simple -flags +bitexact -sws_flags +accurate_rnd+bitexact -fflags +bitexact -hwaccel none -threads 1 -thread_type frame+slice -i /home/mik/src/fate/ppc64-linux-gcc-valgrind/build/tests/data/vsynth2.yuv -threads 1 -idct simple -dct fastint -c dnxhd -s hd720 -b 90M -threads 4 -mbd rd -pix_fmt yuv422p -frames 5 -flags +bitexact -sws_flags +accurate_rnd+bitexact -fflags +bitexact -f dnxhd -y /home/mik/src/fate/ppc64-linux-gcc-valgrind/build/tests/data/fate/vsynth2-dnxhd-720p-rd.dnxhd
==16938== 
avconv version v13_dev0-1601-g56f5018, Copyright (c) 2000-2018 the Libav developers
  built on Nov 16 2018 01:02:35 with gcc 5.5.0 (GCC)
[rawvideo @ 0x46caec0] Estimating duration from bitrate, this may be inaccurate
Input #0, rawvideo, from '/home/mik/src/fate/ppc64-linux-gcc-valgrind/build/tests/data/vsynth2.yuv':
  Duration: N/A, start: 0.000000, bitrate: N/A
    Stream #0:0: Video: rawvideo
      yuv420p, 352x288
      25 fps, 25 tbn
Stream mapping:
  Stream #0:0 -> #0:0 (rawvideo (native) -> dnxhd (native))
Press ctrl-c to stop encoding
Output #0, dnxhd, to '/home/mik/src/fate/ppc64-linux-gcc-valgrind/build/tests/data/fate/vsynth2-dnxhd-720p-rd.dnxhd':
    Stream #0:0: Video: dnxhd
      yuv422p, 1280x720, q=2-31, 90000 kb/s
      25 tbn
    Metadata:
      encoder         : dnxhd
==16938== Thread 70:
==16938== Invalid read of size 16
==16938==    at 0x10481B2C: get_pixels_vsx (pixblockdsp.c:139)
==16938==    by 0x1023D26F: dnxhd_get_blocks (dnxhdenc.c:580)
==16938==    by 0x1023D26F: dnxhd_calc_bits_thread (dnxhdenc.c:619)
==16938==    by 0x43DC95B: start_thread (in /usr/lib64/libpthread-2.17.so)
==16938==    by 0x4563BBB: clone (in /usr/lib64/libc-2.17.so)
==16938==  Address 0x17f52078 is 1,843,192 bytes inside a block of size 1,843,200 alloc'd
==16938==    at 0x4088C90: memalign (vg_replace_malloc.c:857)
==16938==    by 0x4088DFF: posix_memalign (vg_replace_malloc.c:1020)
==16938==    by 0x108B36F7: av_malloc (mem.c:71)
==16938==    by 0x1089F927: av_buffer_alloc (buffer.c:72)
==16938==    by 0x108AA93F: get_video_buffer (frame.c:114)
==16938==    by 0x108AA93F: av_frame_get_buffer (frame.c:185)
==16938==    by 0x1009C1A7: ff_default_get_video_buffer (video.c:55)
==16938==    by 0x1009C1A7: ff_get_video_buffer (video.c:73)
==16938==    by 0x1009C1A7: ff_null_get_video_buffer (video.c:33)
==16938==    by 0x1009C133: ff_get_video_buffer (video.c:70)
==16938==    by 0x1009C133: ff_null_get_video_buffer (video.c:33)
==16938==    by 0x1009C38B: ff_get_video_buffer (video.c:70)
==16938==    by 0x1009620F: filter_frame (vf_scale.c:276)
==16938==    by 0x1007DB83: ff_filter_frame (avfilter.c:700)
==16938==    by 0x1007DB83: default_filter_frame (avfilter.c:640)
==16938==    by 0x10080403: ff_filter_frame (avfilter.c:700)
==16938==    by 0x10082C93: request_frame (buffersrc.c:399)
==16938== 
==16938== Thread 67:
==16938== Invalid read of size 16
==16938==    at 0x10481B2C: get_pixels_vsx (pixblockdsp.c:139)
==16938==    by 0x1023C913: dnxhd_get_blocks (dnxhdenc.c:580)
==16938==    by 0x1023C913: dnxhd_encode_thread (dnxhdenc.c:674)
==16938==    by 0x43DC95B: start_thread (in /usr/lib64/libpthread-2.17.so)
==16938==    by 0x4563BBB: clone (in /usr/lib64/libc-2.17.so)
==16938==  Address 0x17f52078 is 1,843,192 bytes inside a block of size 1,843,200 alloc'd
==16938==    at 0x4088C90: memalign (vg_replace_malloc.c:857)
==16938==    by 0x4088DFF: posix_memalign (vg_replace_malloc.c:1020)
==16938==    by 0x108B36F7: av_malloc (mem.c:71)
==16938==    by 0x1089F927: av_buffer_alloc (buffer.c:72)
==16938==    by 0x108AA93F: get_video_buffer (frame.c:114)
==16938==    by 0x108AA93F: av_frame_get_buffer (frame.c:185)
==16938==    by 0x1009C1A7: ff_default_get_video_buffer (video.c:55)
==16938==    by 0x1009C1A7: ff_get_video_buffer (video.c:73)
==16938==    by 0x1009C1A7: ff_null_get_video_buffer (video.c:33)
==16938==    by 0x1009C133: ff_get_video_buffer (video.c:70)
==16938==    by 0x1009C133: ff_null_get_video_buffer (video.c:33)
==16938==    by 0x1009C38B: ff_get_video_buffer (video.c:70)
==16938==    by 0x1009620F: filter_frame (vf_scale.c:276)
==16938==    by 0x1007DB83: ff_filter_frame (avfilter.c:700)
==16938==    by 0x1007DB83: default_filter_frame (avfilter.c:640)
==16938==    by 0x10080403: ff_filter_frame (avfilter.c:700)
==16938==    by 0x10082C93: request_frame (buffersrc.c:399)
==16938== 
frame=    5 fps=  0 q=30.0 Lsize=    2240kB time=0.16 bitrate=114688.0kbits/s    
video:2240kB audio:0kB other streams:0kB global headers:0kB muxing overhead: 0.000000%
==16938== 
==16938== HEAP SUMMARY:
==16938==     in use at exit: 0 bytes in 0 blocks
==16938==   total heap usage: 1,777 allocs, 1,777 frees, 22,025,457 bytes allocated
==16938== 
==16938== All heap blocks were freed -- no leaks are possible
==16938== 
==16938== For counts of detected and suppressed errors, rerun with: -v
==16938== ERROR SUMMARY: 155 errors from 2 contexts (suppressed: 0 from 0)