ppc64-linux-gcc-valgrind v13_dev0-1579-g2a9e1c1

Architectureppc
Variantppc64
CPUgeneric
OSlinux
Ownerkostylev
Compilergcc 5.5.0 (GCC)
Configuration--enable-gpl --prefix=/home/mik/src/fate/ppc64-linux-gcc-valgrind/install --samples=/home/mik/src/fate/fate-suite --cc=gcc-5 --target-exec='valgrind --leak-check=full --show-reachable=yes --error-exitcode=1 --malloc-fill=0x4a --undef-value-errors=no'
Commentvalgrind --undef-value-errors=no
Revisionv13_dev0-1579-g2a9e1c1
Date2018-09-14 01:38:48
Status2142 / 2147
Warnings67
Logscompile configure test
5 failed testsStatusLast good rev
diffstderrsvq3-21n / a
--- /home/mik/src/fate/src/tests/ref/fate/svq3-2	2017-02-27 10:07:05.303380676 +0000
+++ tests/data/fate/svq3-2	2018-09-14 01:25:01.604921298 +0000
@@ -1,5 +1,5 @@
 #tb 0: 1/19200
-0,     -20000,     -20000,        0,   185280, 0x061c0d85
+0,     -20000,     -20000,        0,   185280, 0xc0bd953f
 0,     -19200,     -19200,        0,   185280, 0x427ef9a7
 0,     -18400,     -18400,        0,   185280, 0x64c74d6a
 0,     -17600,     -17600,        0,   185280, 0x5bfd0e5b
==10970== Memcheck, a memory error detector
==10970== Copyright (C) 2002-2015, and GNU GPL'd, by Julian Seward et al.
==10970== Using Valgrind-3.12.0.SVN and LibVEX; rerun with -h for copyright info
==10970== Command: /home/mik/src/fate/ppc64-linux-gcc-valgrind/build/avconv -nostats -cpuflags all -flags +bitexact -hwaccel none -threads 1 -thread_type frame+slice -i /home/mik/src/fate/fate-suite/svq3/svq3_decoding_regression.mov -an -f framecrc -
==10970== 
avconv version v13_dev0-1579-g2a9e1c1, Copyright (c) 2000-2018 the Libav developers
  built on Sep 14 2018 01:11:38 with gcc 5.5.0 (GCC)
Input #0, mov,mp4,m4a,3gp,3g2,mj2, from '/home/mik/src/fate/fate-suite/svq3/svq3_decoding_regression.mov':
  Metadata:
    major_brand     : qt  
    minor_version   : 512
    compatible_brands: qt  
    artist          : Mark Strube - SupaDupaStrube@msn.com
    artist-eng      : Mark Strube - SupaDupaStrube@msn.com
    title           : Movie-List Presents: The Abyss
    title-eng       : Movie-List Presents: The Abyss
    encoder         : Lavf57.66.101
    copyright       : © 1989 Twentieth Century Fox
    copyright-eng   : © 1989 Twentieth Century Fox
  Duration: 00:00:00.83, bitrate: 2376 kb/s
    Stream #0:0(eng): Video: svq3 [SVQ3 / 0x33515653]
      yuvj420p, pc, 480x257, 2366 kb/s
      24 fps, 19200 tbn (default)
    Metadata:
      handler_name    : DataHandler
      encoder         : Sorenson Video 3
Stream mapping:
  Stream #0:0 -> #0:0 (svq3 (native) -> rawvideo (native))
Press ctrl-c to stop encoding
[svq3 @ 0x4727f20] Missing reference frame.
Output #0, framecrc, to 'pipe:':
  Metadata:
    major_brand     : qt  
    minor_version   : 512
    compatible_brands: qt  
    artist          : Mark Strube - SupaDupaStrube@msn.com
    artist-eng      : Mark Strube - SupaDupaStrube@msn.com
    title           : Movie-List Presents: The Abyss
    title-eng       : Movie-List Presents: The Abyss
    copyright-eng   : © 1989 Twentieth Century Fox
    copyright       : © 1989 Twentieth Century Fox
    encoder         : Lavf58.2.0
    Stream #0:0(eng): Video: rawvideo [I420 / 0x30323449]
      yuvj420p, 480x257, q=2-31, 200 kb/s
      19200 tbn (default)
    Metadata:
      handler_name    : DataHandler
      encoder         : Sorenson Video 3
*** dropping frame 19 from stream 0 at ts -6400
frame=   19 fps=  0 q=-0.0 Lsize=       1kB time=10000000000.00 bitrate=   0.0kbits/s drop=1    
video:3438kB audio:0kB other streams:0kB global headers:0kB muxing overhead: unknown
==10970== 
==10970== HEAP SUMMARY:
==10970==     in use at exit: 0 bytes in 0 blocks
==10970==   total heap usage: 1,679 allocs, 1,679 frees, 8,679,108 bytes allocated
==10970== 
==10970== All heap blocks were freed -- no leaks are possible
==10970== 
==10970== For counts of detected and suppressed errors, rerun with: -v
==10970== ERROR SUMMARY: 0 errors from 0 contexts (suppressed: 0 from 0)
diffstderrvsynth1-dnxhd-720p1v12_dev0-1345-g0181ae9
--- /home/mik/src/fate/src/tests/ref/vsynth/vsynth1-dnxhd-720p	2014-01-10 11:16:55.734697630 +0000
+++ tests/data/fate/vsynth1-dnxhd-720p	2018-09-14 01:32:36.806516780 +0000
@@ -1,4 +0,0 @@
-81f5be451dc18cf8a1d333c7885de60b *tests/data/fate/vsynth1-dnxhd-720p.dnxhd
-2293760 tests/data/fate/vsynth1-dnxhd-720p.dnxhd
-94b21e5e68ccf9471eff74afd0ebe319 *tests/data/fate/vsynth1-dnxhd-720p.out.rawvideo
-stddev:    6.32 PSNR: 32.11 MAXDIFF:  183 bytes:  7603200/   760320
==28234== Memcheck, a memory error detector
==28234== Copyright (C) 2002-2015, and GNU GPL'd, by Julian Seward et al.
==28234== Using Valgrind-3.12.0.SVN and LibVEX; rerun with -h for copyright info
==28234== Command: /home/mik/src/fate/ppc64-linux-gcc-valgrind/build/avconv -nostats -cpuflags all -f rawvideo -s 352x288 -pix_fmt yuv420p -threads 1 -idct simple -flags +bitexact -sws_flags +accurate_rnd+bitexact -fflags +bitexact -hwaccel none -threads 1 -thread_type frame+slice -i /home/mik/src/fate/ppc64-linux-gcc-valgrind/build/tests/data/vsynth1.yuv -threads 1 -idct simple -dct fastint -c dnxhd -s hd720 -b 90M -pix_fmt yuv422p -frames 5 -flags +bitexact -sws_flags +accurate_rnd+bitexact -fflags +bitexact -f dnxhd -y /home/mik/src/fate/ppc64-linux-gcc-valgrind/build/tests/data/fate/vsynth1-dnxhd-720p.dnxhd
==28234== 
avconv version v13_dev0-1579-g2a9e1c1, Copyright (c) 2000-2018 the Libav developers
  built on Sep 14 2018 01:11:38 with gcc 5.5.0 (GCC)
[rawvideo @ 0x46cae20] Estimating duration from bitrate, this may be inaccurate
Input #0, rawvideo, from '/home/mik/src/fate/ppc64-linux-gcc-valgrind/build/tests/data/vsynth1.yuv':
  Duration: N/A, start: 0.000000, bitrate: N/A
    Stream #0:0: Video: rawvideo
      yuv420p, 352x288
      25 fps, 25 tbn
Stream mapping:
  Stream #0:0 -> #0:0 (rawvideo (native) -> dnxhd (native))
Press ctrl-c to stop encoding
Output #0, dnxhd, to '/home/mik/src/fate/ppc64-linux-gcc-valgrind/build/tests/data/fate/vsynth1-dnxhd-720p.dnxhd':
    Stream #0:0: Video: dnxhd
      yuv422p, 1280x720, q=2-31, 90000 kb/s
      25 tbn
    Metadata:
      encoder         : dnxhd
==28234== Invalid read of size 16
==28234==    at 0x10481A4C: get_pixels_vsx (pixblockdsp.c:139)
==28234==    by 0x1023D22F: dnxhd_get_blocks (dnxhdenc.c:580)
==28234==    by 0x1023D22F: dnxhd_calc_bits_thread (dnxhdenc.c:619)
==28234==    by 0x1023E133: dnxhd_find_qscale (dnxhdenc.c:866)
==28234==    by 0x1023E133: dnxhd_encode_fast (dnxhdenc.c:969)
==28234==    by 0x1023E133: dnxhd_encode_picture (dnxhdenc.c:1055)
==28234==    by 0x10263D03: avcodec_encode_video2 (encode.c:227)
==28234==    by 0x10263F23: do_encode (encode.c:274)
==28234==    by 0x1026418F: avcodec_send_frame (encode.c:323)
==28234==    by 0x10077717: do_video_out (avconv.c:590)
==28234==    by 0x10077717: poll_filter (avconv.c:729)
==28234==    by 0x10077EEF: poll_filters (avconv.c:803)
==28234==    by 0x1005EA8B: transcode (avconv.c:2806)
==28234==    by 0x1005EA8B: main (avconv.c:2975)
==28234==  Address 0x16f52078 is 1,843,192 bytes inside a block of size 1,843,200 alloc'd
==28234==    at 0x4088C90: memalign (vg_replace_malloc.c:857)
==28234==    by 0x4088DFF: posix_memalign (vg_replace_malloc.c:1020)
==28234==    by 0x108B3557: av_malloc (mem.c:71)
==28234==    by 0x1089F787: av_buffer_alloc (buffer.c:72)
==28234==    by 0x108AA79F: get_video_buffer (frame.c:114)
==28234==    by 0x108AA79F: av_frame_get_buffer (frame.c:185)
==28234==    by 0x1009C1A7: ff_default_get_video_buffer (video.c:55)
==28234==    by 0x1009C1A7: ff_get_video_buffer (video.c:73)
==28234==    by 0x1009C1A7: ff_null_get_video_buffer (video.c:33)
==28234==    by 0x1009C133: ff_get_video_buffer (video.c:70)
==28234==    by 0x1009C133: ff_null_get_video_buffer (video.c:33)
==28234==    by 0x1009C38B: ff_get_video_buffer (video.c:70)
==28234==    by 0x1009620F: filter_frame (vf_scale.c:276)
==28234==    by 0x1007DB83: ff_filter_frame (avfilter.c:700)
==28234==    by 0x1007DB83: default_filter_frame (avfilter.c:640)
==28234==    by 0x10080403: ff_filter_frame (avfilter.c:700)
==28234==    by 0x10082C93: request_frame (buffersrc.c:399)
==28234== 
==28234== Invalid read of size 16
==28234==    at 0x10481A4C: get_pixels_vsx (pixblockdsp.c:139)
==28234==    by 0x1023C8D3: dnxhd_get_blocks (dnxhdenc.c:580)
==28234==    by 0x1023C8D3: dnxhd_encode_thread (dnxhdenc.c:674)
==28234==    by 0x1023E86F: dnxhd_encode_picture (dnxhdenc.c:1071)
==28234==    by 0x10263D03: avcodec_encode_video2 (encode.c:227)
==28234==    by 0x10263F23: do_encode (encode.c:274)
==28234==    by 0x1026418F: avcodec_send_frame (encode.c:323)
==28234==    by 0x10077717: do_video_out (avconv.c:590)
==28234==    by 0x10077717: poll_filter (avconv.c:729)
==28234==    by 0x10077EEF: poll_filters (avconv.c:803)
==28234==    by 0x1005EA8B: transcode (avconv.c:2806)
==28234==    by 0x1005EA8B: main (avconv.c:2975)
==28234==  Address 0x16f52078 is 1,843,192 bytes inside a block of size 1,843,200 alloc'd
==28234==    at 0x4088C90: memalign (vg_replace_malloc.c:857)
==28234==    by 0x4088DFF: posix_memalign (vg_replace_malloc.c:1020)
==28234==    by 0x108B3557: av_malloc (mem.c:71)
==28234==    by 0x1089F787: av_buffer_alloc (buffer.c:72)
==28234==    by 0x108AA79F: get_video_buffer (frame.c:114)
==28234==    by 0x108AA79F: av_frame_get_buffer (frame.c:185)
==28234==    by 0x1009C1A7: ff_default_get_video_buffer (video.c:55)
==28234==    by 0x1009C1A7: ff_get_video_buffer (video.c:73)
==28234==    by 0x1009C1A7: ff_null_get_video_buffer (video.c:33)
==28234==    by 0x1009C133: ff_get_video_buffer (video.c:70)
==28234==    by 0x1009C133: ff_null_get_video_buffer (video.c:33)
==28234==    by 0x1009C38B: ff_get_video_buffer (video.c:70)
==28234==    by 0x1009620F: filter_frame (vf_scale.c:276)
==28234==    by 0x1007DB83: ff_filter_frame (avfilter.c:700)
==28234==    by 0x1007DB83: default_filter_frame (avfilter.c:640)
==28234==    by 0x10080403: ff_filter_frame (avfilter.c:700)
==28234==    by 0x10082C93: request_frame (buffersrc.c:399)
==28234== 
frame=    5 fps=  0 q=1.0 Lsize=    2240kB time=0.16 bitrate=114688.0kbits/s    
video:2240kB audio:0kB other streams:0kB global headers:0kB muxing overhead: 0.000000%
==28234== 
==28234== HEAP SUMMARY:
==28234==     in use at exit: 0 bytes in 0 blocks
==28234==   total heap usage: 1,747 allocs, 1,747 frees, 22,156,005 bytes allocated
==28234== 
==28234== All heap blocks were freed -- no leaks are possible
==28234== 
==28234== For counts of detected and suppressed errors, rerun with: -v
==28234== ERROR SUMMARY: 15 errors from 2 contexts (suppressed: 0 from 0)
diffstderrvsynth1-dnxhd-720p-rd1v12_dev0-1345-g0181ae9
--- /home/mik/src/fate/src/tests/ref/vsynth/vsynth1-dnxhd-720p-rd	2014-01-10 11:16:55.734697630 +0000
+++ tests/data/fate/vsynth1-dnxhd-720p-rd	2018-09-14 01:32:38.076521479 +0000
@@ -1,4 +0,0 @@
-1dc6e95925c4f3a230848ec17c02abed *tests/data/fate/vsynth1-dnxhd-720p-rd.dnxhd
-2293760 tests/data/fate/vsynth1-dnxhd-720p-rd.dnxhd
-02972d2aec120ec1577ec9053d68ae0f *tests/data/fate/vsynth1-dnxhd-720p-rd.out.rawvideo
-stddev:    6.26 PSNR: 32.19 MAXDIFF:   65 bytes:  7603200/   760320
==28888== Memcheck, a memory error detector
==28888== Copyright (C) 2002-2015, and GNU GPL'd, by Julian Seward et al.
==28888== Using Valgrind-3.12.0.SVN and LibVEX; rerun with -h for copyright info
==28888== Command: /home/mik/src/fate/ppc64-linux-gcc-valgrind/build/avconv -nostats -cpuflags all -f rawvideo -s 352x288 -pix_fmt yuv420p -threads 1 -idct simple -flags +bitexact -sws_flags +accurate_rnd+bitexact -fflags +bitexact -hwaccel none -threads 1 -thread_type frame+slice -i /home/mik/src/fate/ppc64-linux-gcc-valgrind/build/tests/data/vsynth1.yuv -threads 1 -idct simple -dct fastint -c dnxhd -s hd720 -b 90M -threads 4 -mbd rd -pix_fmt yuv422p -frames 5 -flags +bitexact -sws_flags +accurate_rnd+bitexact -fflags +bitexact -f dnxhd -y /home/mik/src/fate/ppc64-linux-gcc-valgrind/build/tests/data/fate/vsynth1-dnxhd-720p-rd.dnxhd
==28888== 
avconv version v13_dev0-1579-g2a9e1c1, Copyright (c) 2000-2018 the Libav developers
  built on Sep 14 2018 01:11:38 with gcc 5.5.0 (GCC)
[rawvideo @ 0x46caec0] Estimating duration from bitrate, this may be inaccurate
Input #0, rawvideo, from '/home/mik/src/fate/ppc64-linux-gcc-valgrind/build/tests/data/vsynth1.yuv':
  Duration: N/A, start: 0.000000, bitrate: N/A
    Stream #0:0: Video: rawvideo
      yuv420p, 352x288
      25 fps, 25 tbn
Stream mapping:
  Stream #0:0 -> #0:0 (rawvideo (native) -> dnxhd (native))
Press ctrl-c to stop encoding
Output #0, dnxhd, to '/home/mik/src/fate/ppc64-linux-gcc-valgrind/build/tests/data/fate/vsynth1-dnxhd-720p-rd.dnxhd':
    Stream #0:0: Video: dnxhd
      yuv422p, 1280x720, q=2-31, 90000 kb/s
      25 tbn
    Metadata:
      encoder         : dnxhd
==28888== Thread 67:
==28888== Invalid read of size 16
==28888==    at 0x10481A4C: get_pixels_vsx (pixblockdsp.c:139)
==28888==    by 0x1023D22F: dnxhd_get_blocks (dnxhdenc.c:580)
==28888==    by 0x1023D22F: dnxhd_calc_bits_thread (dnxhdenc.c:619)
==28888==    by 0x43DC95B: start_thread (in /usr/lib64/libpthread-2.17.so)
==28888==    by 0x4563BBB: clone (in /usr/lib64/libc-2.17.so)
==28888==  Address 0x17f52078 is 1,843,192 bytes inside a block of size 1,843,200 alloc'd
==28888==    at 0x4088C90: memalign (vg_replace_malloc.c:857)
==28888==    by 0x4088DFF: posix_memalign (vg_replace_malloc.c:1020)
==28888==    by 0x108B3557: av_malloc (mem.c:71)
==28888==    by 0x1089F787: av_buffer_alloc (buffer.c:72)
==28888==    by 0x108AA79F: get_video_buffer (frame.c:114)
==28888==    by 0x108AA79F: av_frame_get_buffer (frame.c:185)
==28888==    by 0x1009C1A7: ff_default_get_video_buffer (video.c:55)
==28888==    by 0x1009C1A7: ff_get_video_buffer (video.c:73)
==28888==    by 0x1009C1A7: ff_null_get_video_buffer (video.c:33)
==28888==    by 0x1009C133: ff_get_video_buffer (video.c:70)
==28888==    by 0x1009C133: ff_null_get_video_buffer (video.c:33)
==28888==    by 0x1009C38B: ff_get_video_buffer (video.c:70)
==28888==    by 0x1009620F: filter_frame (vf_scale.c:276)
==28888==    by 0x1007DB83: ff_filter_frame (avfilter.c:700)
==28888==    by 0x1007DB83: default_filter_frame (avfilter.c:640)
==28888==    by 0x10080403: ff_filter_frame (avfilter.c:700)
==28888==    by 0x10082C93: request_frame (buffersrc.c:399)
==28888== 
==28888== Thread 69:
==28888== Invalid read of size 16
==28888==    at 0x10481A4C: get_pixels_vsx (pixblockdsp.c:139)
==28888==    by 0x1023C8D3: dnxhd_get_blocks (dnxhdenc.c:580)
==28888==    by 0x1023C8D3: dnxhd_encode_thread (dnxhdenc.c:674)
==28888==    by 0x43DC95B: start_thread (in /usr/lib64/libpthread-2.17.so)
==28888==    by 0x4563BBB: clone (in /usr/lib64/libc-2.17.so)
==28888==  Address 0x17f52078 is 1,843,192 bytes inside a block of size 1,843,200 alloc'd
==28888==    at 0x4088C90: memalign (vg_replace_malloc.c:857)
==28888==    by 0x4088DFF: posix_memalign (vg_replace_malloc.c:1020)
==28888==    by 0x108B3557: av_malloc (mem.c:71)
==28888==    by 0x1089F787: av_buffer_alloc (buffer.c:72)
==28888==    by 0x108AA79F: get_video_buffer (frame.c:114)
==28888==    by 0x108AA79F: av_frame_get_buffer (frame.c:185)
==28888==    by 0x1009C1A7: ff_default_get_video_buffer (video.c:55)
==28888==    by 0x1009C1A7: ff_get_video_buffer (video.c:73)
==28888==    by 0x1009C1A7: ff_null_get_video_buffer (video.c:33)
==28888==    by 0x1009C133: ff_get_video_buffer (video.c:70)
==28888==    by 0x1009C133: ff_null_get_video_buffer (video.c:33)
==28888==    by 0x1009C38B: ff_get_video_buffer (video.c:70)
==28888==    by 0x1009620F: filter_frame (vf_scale.c:276)
==28888==    by 0x1007DB83: ff_filter_frame (avfilter.c:700)
==28888==    by 0x1007DB83: default_filter_frame (avfilter.c:640)
==28888==    by 0x10080403: ff_filter_frame (avfilter.c:700)
==28888==    by 0x10082C93: request_frame (buffersrc.c:399)
==28888== 
frame=    5 fps=  0 q=30.0 Lsize=    2240kB time=0.16 bitrate=114688.0kbits/s    
video:2240kB audio:0kB other streams:0kB global headers:0kB muxing overhead: 0.000000%
==28888== 
==28888== HEAP SUMMARY:
==28888==     in use at exit: 0 bytes in 0 blocks
==28888==   total heap usage: 1,767 allocs, 1,767 frees, 22,020,181 bytes allocated
==28888== 
==28888== All heap blocks were freed -- no leaks are possible
==28888== 
==28888== For counts of detected and suppressed errors, rerun with: -v
==28888== ERROR SUMMARY: 155 errors from 2 contexts (suppressed: 0 from 0)
diffstderrvsynth2-dnxhd-720p1v12_dev0-1345-g0181ae9
--- /home/mik/src/fate/src/tests/ref/vsynth/vsynth2-dnxhd-720p	2014-11-30 15:37:05.674204650 +0000
+++ tests/data/fate/vsynth2-dnxhd-720p	2018-09-14 01:35:27.487148296 +0000
@@ -1,4 +0,0 @@
-71c7491a41545882b36f07ee98021b4b *tests/data/fate/vsynth2-dnxhd-720p.dnxhd
-2293760 tests/data/fate/vsynth2-dnxhd-720p.dnxhd
-adef978dc9c9e4f10dc7c30418af62af *tests/data/fate/vsynth2-dnxhd-720p.out.rawvideo
-stddev:    6.69 PSNR: 31.62 MAXDIFF:  171 bytes:  7603200/   760320
==52148== Memcheck, a memory error detector
==52148== Copyright (C) 2002-2015, and GNU GPL'd, by Julian Seward et al.
==52148== Using Valgrind-3.12.0.SVN and LibVEX; rerun with -h for copyright info
==52148== Command: /home/mik/src/fate/ppc64-linux-gcc-valgrind/build/avconv -nostats -cpuflags all -f rawvideo -s 352x288 -pix_fmt yuv420p -threads 1 -idct simple -flags +bitexact -sws_flags +accurate_rnd+bitexact -fflags +bitexact -hwaccel none -threads 1 -thread_type frame+slice -i /home/mik/src/fate/ppc64-linux-gcc-valgrind/build/tests/data/vsynth2.yuv -threads 1 -idct simple -dct fastint -c dnxhd -s hd720 -b 90M -pix_fmt yuv422p -frames 5 -flags +bitexact -sws_flags +accurate_rnd+bitexact -fflags +bitexact -f dnxhd -y /home/mik/src/fate/ppc64-linux-gcc-valgrind/build/tests/data/fate/vsynth2-dnxhd-720p.dnxhd
==52148== 
avconv version v13_dev0-1579-g2a9e1c1, Copyright (c) 2000-2018 the Libav developers
  built on Sep 14 2018 01:11:38 with gcc 5.5.0 (GCC)
[rawvideo @ 0x46cae20] Estimating duration from bitrate, this may be inaccurate
Input #0, rawvideo, from '/home/mik/src/fate/ppc64-linux-gcc-valgrind/build/tests/data/vsynth2.yuv':
  Duration: N/A, start: 0.000000, bitrate: N/A
    Stream #0:0: Video: rawvideo
      yuv420p, 352x288
      25 fps, 25 tbn
Stream mapping:
  Stream #0:0 -> #0:0 (rawvideo (native) -> dnxhd (native))
Press ctrl-c to stop encoding
Output #0, dnxhd, to '/home/mik/src/fate/ppc64-linux-gcc-valgrind/build/tests/data/fate/vsynth2-dnxhd-720p.dnxhd':
    Stream #0:0: Video: dnxhd
      yuv422p, 1280x720, q=2-31, 90000 kb/s
      25 tbn
    Metadata:
      encoder         : dnxhd
==52148== Invalid read of size 16
==52148==    at 0x10481A4C: get_pixels_vsx (pixblockdsp.c:139)
==52148==    by 0x1023D22F: dnxhd_get_blocks (dnxhdenc.c:580)
==52148==    by 0x1023D22F: dnxhd_calc_bits_thread (dnxhdenc.c:619)
==52148==    by 0x1023E133: dnxhd_find_qscale (dnxhdenc.c:866)
==52148==    by 0x1023E133: dnxhd_encode_fast (dnxhdenc.c:969)
==52148==    by 0x1023E133: dnxhd_encode_picture (dnxhdenc.c:1055)
==52148==    by 0x10263D03: avcodec_encode_video2 (encode.c:227)
==52148==    by 0x10263F23: do_encode (encode.c:274)
==52148==    by 0x1026418F: avcodec_send_frame (encode.c:323)
==52148==    by 0x10077717: do_video_out (avconv.c:590)
==52148==    by 0x10077717: poll_filter (avconv.c:729)
==52148==    by 0x10077EEF: poll_filters (avconv.c:803)
==52148==    by 0x1005EA8B: transcode (avconv.c:2806)
==52148==    by 0x1005EA8B: main (avconv.c:2975)
==52148==  Address 0x16f52078 is 1,843,192 bytes inside a block of size 1,843,200 alloc'd
==52148==    at 0x4088C90: memalign (vg_replace_malloc.c:857)
==52148==    by 0x4088DFF: posix_memalign (vg_replace_malloc.c:1020)
==52148==    by 0x108B3557: av_malloc (mem.c:71)
==52148==    by 0x1089F787: av_buffer_alloc (buffer.c:72)
==52148==    by 0x108AA79F: get_video_buffer (frame.c:114)
==52148==    by 0x108AA79F: av_frame_get_buffer (frame.c:185)
==52148==    by 0x1009C1A7: ff_default_get_video_buffer (video.c:55)
==52148==    by 0x1009C1A7: ff_get_video_buffer (video.c:73)
==52148==    by 0x1009C1A7: ff_null_get_video_buffer (video.c:33)
==52148==    by 0x1009C133: ff_get_video_buffer (video.c:70)
==52148==    by 0x1009C133: ff_null_get_video_buffer (video.c:33)
==52148==    by 0x1009C38B: ff_get_video_buffer (video.c:70)
==52148==    by 0x1009620F: filter_frame (vf_scale.c:276)
==52148==    by 0x1007DB83: ff_filter_frame (avfilter.c:700)
==52148==    by 0x1007DB83: default_filter_frame (avfilter.c:640)
==52148==    by 0x10080403: ff_filter_frame (avfilter.c:700)
==52148==    by 0x10082C93: request_frame (buffersrc.c:399)
==52148== 
==52148== Invalid read of size 16
==52148==    at 0x10481A4C: get_pixels_vsx (pixblockdsp.c:139)
==52148==    by 0x1023C8D3: dnxhd_get_blocks (dnxhdenc.c:580)
==52148==    by 0x1023C8D3: dnxhd_encode_thread (dnxhdenc.c:674)
==52148==    by 0x1023E86F: dnxhd_encode_picture (dnxhdenc.c:1071)
==52148==    by 0x10263D03: avcodec_encode_video2 (encode.c:227)
==52148==    by 0x10263F23: do_encode (encode.c:274)
==52148==    by 0x1026418F: avcodec_send_frame (encode.c:323)
==52148==    by 0x10077717: do_video_out (avconv.c:590)
==52148==    by 0x10077717: poll_filter (avconv.c:729)
==52148==    by 0x10077EEF: poll_filters (avconv.c:803)
==52148==    by 0x1005EA8B: transcode (avconv.c:2806)
==52148==    by 0x1005EA8B: main (avconv.c:2975)
==52148==  Address 0x16f52078 is 1,843,192 bytes inside a block of size 1,843,200 alloc'd
==52148==    at 0x4088C90: memalign (vg_replace_malloc.c:857)
==52148==    by 0x4088DFF: posix_memalign (vg_replace_malloc.c:1020)
==52148==    by 0x108B3557: av_malloc (mem.c:71)
==52148==    by 0x1089F787: av_buffer_alloc (buffer.c:72)
==52148==    by 0x108AA79F: get_video_buffer (frame.c:114)
==52148==    by 0x108AA79F: av_frame_get_buffer (frame.c:185)
==52148==    by 0x1009C1A7: ff_default_get_video_buffer (video.c:55)
==52148==    by 0x1009C1A7: ff_get_video_buffer (video.c:73)
==52148==    by 0x1009C1A7: ff_null_get_video_buffer (video.c:33)
==52148==    by 0x1009C133: ff_get_video_buffer (video.c:70)
==52148==    by 0x1009C133: ff_null_get_video_buffer (video.c:33)
==52148==    by 0x1009C38B: ff_get_video_buffer (video.c:70)
==52148==    by 0x1009620F: filter_frame (vf_scale.c:276)
==52148==    by 0x1007DB83: ff_filter_frame (avfilter.c:700)
==52148==    by 0x1007DB83: default_filter_frame (avfilter.c:640)
==52148==    by 0x10080403: ff_filter_frame (avfilter.c:700)
==52148==    by 0x10082C93: request_frame (buffersrc.c:399)
==52148== 
frame=    5 fps=  1 q=1.0 Lsize=    2240kB time=0.16 bitrate=114688.0kbits/s    
video:2240kB audio:0kB other streams:0kB global headers:0kB muxing overhead: 0.000000%
==52148== 
==52148== HEAP SUMMARY:
==52148==     in use at exit: 0 bytes in 0 blocks
==52148==   total heap usage: 1,742 allocs, 1,742 frees, 22,012,005 bytes allocated
==52148== 
==52148== All heap blocks were freed -- no leaks are possible
==52148== 
==52148== For counts of detected and suppressed errors, rerun with: -v
==52148== ERROR SUMMARY: 10 errors from 2 contexts (suppressed: 0 from 0)
diffstderrvsynth2-dnxhd-720p-rd1v12_dev0-1345-g0181ae9
--- /home/mik/src/fate/src/tests/ref/vsynth/vsynth2-dnxhd-720p-rd	2014-11-30 15:37:05.674204650 +0000
+++ tests/data/fate/vsynth2-dnxhd-720p-rd	2018-09-14 01:35:28.127150664 +0000
@@ -1,4 +0,0 @@
-819a7714098e098981bf08253ef2e490 *tests/data/fate/vsynth2-dnxhd-720p-rd.dnxhd
-2293760 tests/data/fate/vsynth2-dnxhd-720p-rd.dnxhd
-a05c35b99e5e74a9c8b3a9c66da01775 *tests/data/fate/vsynth2-dnxhd-720p-rd.out.rawvideo
-stddev:    1.53 PSNR: 44.39 MAXDIFF:   31 bytes:  7603200/   760320
==52163== Memcheck, a memory error detector
==52163== Copyright (C) 2002-2015, and GNU GPL'd, by Julian Seward et al.
==52163== Using Valgrind-3.12.0.SVN and LibVEX; rerun with -h for copyright info
==52163== Command: /home/mik/src/fate/ppc64-linux-gcc-valgrind/build/avconv -nostats -cpuflags all -f rawvideo -s 352x288 -pix_fmt yuv420p -threads 1 -idct simple -flags +bitexact -sws_flags +accurate_rnd+bitexact -fflags +bitexact -hwaccel none -threads 1 -thread_type frame+slice -i /home/mik/src/fate/ppc64-linux-gcc-valgrind/build/tests/data/vsynth2.yuv -threads 1 -idct simple -dct fastint -c dnxhd -s hd720 -b 90M -threads 4 -mbd rd -pix_fmt yuv422p -frames 5 -flags +bitexact -sws_flags +accurate_rnd+bitexact -fflags +bitexact -f dnxhd -y /home/mik/src/fate/ppc64-linux-gcc-valgrind/build/tests/data/fate/vsynth2-dnxhd-720p-rd.dnxhd
==52163== 
avconv version v13_dev0-1579-g2a9e1c1, Copyright (c) 2000-2018 the Libav developers
  built on Sep 14 2018 01:11:38 with gcc 5.5.0 (GCC)
[rawvideo @ 0x46caec0] Estimating duration from bitrate, this may be inaccurate
Input #0, rawvideo, from '/home/mik/src/fate/ppc64-linux-gcc-valgrind/build/tests/data/vsynth2.yuv':
  Duration: N/A, start: 0.000000, bitrate: N/A
    Stream #0:0: Video: rawvideo
      yuv420p, 352x288
      25 fps, 25 tbn
Stream mapping:
  Stream #0:0 -> #0:0 (rawvideo (native) -> dnxhd (native))
Press ctrl-c to stop encoding
Output #0, dnxhd, to '/home/mik/src/fate/ppc64-linux-gcc-valgrind/build/tests/data/fate/vsynth2-dnxhd-720p-rd.dnxhd':
    Stream #0:0: Video: dnxhd
      yuv422p, 1280x720, q=2-31, 90000 kb/s
      25 tbn
    Metadata:
      encoder         : dnxhd
==52163== Thread 68:
==52163== Invalid read of size 16
==52163==    at 0x10481A4C: get_pixels_vsx (pixblockdsp.c:139)
==52163==    by 0x1023D22F: dnxhd_get_blocks (dnxhdenc.c:580)
==52163==    by 0x1023D22F: dnxhd_calc_bits_thread (dnxhdenc.c:619)
==52163==    by 0x43DC95B: start_thread (in /usr/lib64/libpthread-2.17.so)
==52163==    by 0x4563BBB: clone (in /usr/lib64/libc-2.17.so)
==52163==  Address 0x17f52078 is 1,843,192 bytes inside a block of size 1,843,200 alloc'd
==52163==    at 0x4088C90: memalign (vg_replace_malloc.c:857)
==52163==    by 0x4088DFF: posix_memalign (vg_replace_malloc.c:1020)
==52163==    by 0x108B3557: av_malloc (mem.c:71)
==52163==    by 0x1089F787: av_buffer_alloc (buffer.c:72)
==52163==    by 0x108AA79F: get_video_buffer (frame.c:114)
==52163==    by 0x108AA79F: av_frame_get_buffer (frame.c:185)
==52163==    by 0x1009C1A7: ff_default_get_video_buffer (video.c:55)
==52163==    by 0x1009C1A7: ff_get_video_buffer (video.c:73)
==52163==    by 0x1009C1A7: ff_null_get_video_buffer (video.c:33)
==52163==    by 0x1009C133: ff_get_video_buffer (video.c:70)
==52163==    by 0x1009C133: ff_null_get_video_buffer (video.c:33)
==52163==    by 0x1009C38B: ff_get_video_buffer (video.c:70)
==52163==    by 0x1009620F: filter_frame (vf_scale.c:276)
==52163==    by 0x1007DB83: ff_filter_frame (avfilter.c:700)
==52163==    by 0x1007DB83: default_filter_frame (avfilter.c:640)
==52163==    by 0x10080403: ff_filter_frame (avfilter.c:700)
==52163==    by 0x10082C93: request_frame (buffersrc.c:399)
==52163== 
==52163== Thread 70:
==52163== Invalid read of size 16
==52163==    at 0x10481A4C: get_pixels_vsx (pixblockdsp.c:139)
==52163==    by 0x1023C8D3: dnxhd_get_blocks (dnxhdenc.c:580)
==52163==    by 0x1023C8D3: dnxhd_encode_thread (dnxhdenc.c:674)
==52163==    by 0x43DC95B: start_thread (in /usr/lib64/libpthread-2.17.so)
==52163==    by 0x4563BBB: clone (in /usr/lib64/libc-2.17.so)
==52163==  Address 0x17f52078 is 1,843,192 bytes inside a block of size 1,843,200 alloc'd
==52163==    at 0x4088C90: memalign (vg_replace_malloc.c:857)
==52163==    by 0x4088DFF: posix_memalign (vg_replace_malloc.c:1020)
==52163==    by 0x108B3557: av_malloc (mem.c:71)
==52163==    by 0x1089F787: av_buffer_alloc (buffer.c:72)
==52163==    by 0x108AA79F: get_video_buffer (frame.c:114)
==52163==    by 0x108AA79F: av_frame_get_buffer (frame.c:185)
==52163==    by 0x1009C1A7: ff_default_get_video_buffer (video.c:55)
==52163==    by 0x1009C1A7: ff_get_video_buffer (video.c:73)
==52163==    by 0x1009C1A7: ff_null_get_video_buffer (video.c:33)
==52163==    by 0x1009C133: ff_get_video_buffer (video.c:70)
==52163==    by 0x1009C133: ff_null_get_video_buffer (video.c:33)
==52163==    by 0x1009C38B: ff_get_video_buffer (video.c:70)
==52163==    by 0x1009620F: filter_frame (vf_scale.c:276)
==52163==    by 0x1007DB83: ff_filter_frame (avfilter.c:700)
==52163==    by 0x1007DB83: default_filter_frame (avfilter.c:640)
==52163==    by 0x10080403: ff_filter_frame (avfilter.c:700)
==52163==    by 0x10082C93: request_frame (buffersrc.c:399)
==52163== 
frame=    5 fps=  0 q=30.0 Lsize=    2240kB time=0.16 bitrate=114688.0kbits/s    
video:2240kB audio:0kB other streams:0kB global headers:0kB muxing overhead: 0.000000%
==52163== 
==52163== HEAP SUMMARY:
==52163==     in use at exit: 0 bytes in 0 blocks
==52163==   total heap usage: 1,767 allocs, 1,767 frees, 22,020,181 bytes allocated
==52163== 
==52163== All heap blocks were freed -- no leaks are possible
==52163== 
==52163== For counts of detected and suppressed errors, rerun with: -v
==52163== ERROR SUMMARY: 155 errors from 2 contexts (suppressed: 0 from 0)