ppc64-linux-gcc-valgrind v13_dev0-1554-g325aa63

Architectureppc
Variantppc64
CPUgeneric
OSlinux
Ownerkostylev
Compilergcc 5.5.0 (GCC)
Configuration--enable-gpl --prefix=/home/mik/src/fate/ppc64-linux-gcc-valgrind/install --samples=/home/mik/src/fate/fate-suite --cc=gcc-5 --target-exec='valgrind --leak-check=full --show-reachable=yes --error-exitcode=1 --malloc-fill=0x4a --undef-value-errors=no'
Commentvalgrind --undef-value-errors=no
Revisionv13_dev0-1554-g325aa63
Date2018-08-07 13:39:42
Status2142 / 2147
Warnings67
Logscompile configure test
5 failed testsStatusLast good rev
diffstderrsvq3-21n / a
--- /home/mik/src/fate/src/tests/ref/fate/svq3-2	2017-02-27 10:07:05.303380676 +0000
+++ tests/data/fate/svq3-2	2018-08-07 13:24:32.483086536 +0000
@@ -1,5 +1,5 @@
 #tb 0: 1/19200
-0,     -20000,     -20000,        0,   185280, 0x061c0d85
+0,     -20000,     -20000,        0,   185280, 0xc0bd953f
 0,     -19200,     -19200,        0,   185280, 0x427ef9a7
 0,     -18400,     -18400,        0,   185280, 0x64c74d6a
 0,     -17600,     -17600,        0,   185280, 0x5bfd0e5b
==29057== Memcheck, a memory error detector
==29057== Copyright (C) 2002-2015, and GNU GPL'd, by Julian Seward et al.
==29057== Using Valgrind-3.12.0.SVN and LibVEX; rerun with -h for copyright info
==29057== Command: /home/mik/src/fate/ppc64-linux-gcc-valgrind/build/avconv -nostats -cpuflags all -flags +bitexact -hwaccel none -threads 1 -thread_type frame+slice -i /home/mik/src/fate/fate-suite/svq3/svq3_decoding_regression.mov -an -f framecrc -
==29057== 
avconv version v13_dev0-1554-g325aa63, Copyright (c) 2000-2018 the Libav developers
  built on Aug  7 2018 13:10:37 with gcc 5.5.0 (GCC)
Input #0, mov,mp4,m4a,3gp,3g2,mj2, from '/home/mik/src/fate/fate-suite/svq3/svq3_decoding_regression.mov':
  Metadata:
    major_brand     : qt  
    minor_version   : 512
    compatible_brands: qt  
    artist          : Mark Strube - SupaDupaStrube@msn.com
    artist-eng      : Mark Strube - SupaDupaStrube@msn.com
    title           : Movie-List Presents: The Abyss
    title-eng       : Movie-List Presents: The Abyss
    encoder         : Lavf57.66.101
    copyright       : © 1989 Twentieth Century Fox
    copyright-eng   : © 1989 Twentieth Century Fox
  Duration: 00:00:00.83, bitrate: 2376 kb/s
    Stream #0:0(eng): Video: svq3 [SVQ3 / 0x33515653]
      yuvj420p, pc, 480x257, 2366 kb/s
      24 fps, 19200 tbn (default)
    Metadata:
      handler_name    : DataHandler
      encoder         : Sorenson Video 3
Stream mapping:
  Stream #0:0 -> #0:0 (svq3 (native) -> rawvideo (native))
Press ctrl-c to stop encoding
[svq3 @ 0x4727680] Missing reference frame.
Output #0, framecrc, to 'pipe:':
  Metadata:
    major_brand     : qt  
    minor_version   : 512
    compatible_brands: qt  
    artist          : Mark Strube - SupaDupaStrube@msn.com
    artist-eng      : Mark Strube - SupaDupaStrube@msn.com
    title           : Movie-List Presents: The Abyss
    title-eng       : Movie-List Presents: The Abyss
    copyright-eng   : © 1989 Twentieth Century Fox
    copyright       : © 1989 Twentieth Century Fox
    encoder         : Lavf58.2.0
    Stream #0:0(eng): Video: rawvideo [I420 / 0x30323449]
      yuvj420p, 480x257, q=2-31, 200 kb/s
      19200 tbn (default)
    Metadata:
      handler_name    : DataHandler
      encoder         : Sorenson Video 3
*** dropping frame 19 from stream 0 at ts -6400
frame=   19 fps=  0 q=-0.0 Lsize=       1kB time=10000000000.00 bitrate=   0.0kbits/s drop=1    
video:3438kB audio:0kB other streams:0kB global headers:0kB muxing overhead: unknown
==29057== 
==29057== HEAP SUMMARY:
==29057==     in use at exit: 0 bytes in 0 blocks
==29057==   total heap usage: 1,668 allocs, 1,668 frees, 8,678,242 bytes allocated
==29057== 
==29057== All heap blocks were freed -- no leaks are possible
==29057== 
==29057== For counts of detected and suppressed errors, rerun with: -v
==29057== ERROR SUMMARY: 0 errors from 0 contexts (suppressed: 0 from 0)
diffstderrvsynth1-dnxhd-720p1v12_dev0-1345-g0181ae9
--- /home/mik/src/fate/src/tests/ref/vsynth/vsynth1-dnxhd-720p	2014-01-10 11:16:55.734697630 +0000
+++ tests/data/fate/vsynth1-dnxhd-720p	2018-08-07 13:32:37.295025776 +0000
@@ -1,4 +0,0 @@
-81f5be451dc18cf8a1d333c7885de60b *tests/data/fate/vsynth1-dnxhd-720p.dnxhd
-2293760 tests/data/fate/vsynth1-dnxhd-720p.dnxhd
-94b21e5e68ccf9471eff74afd0ebe319 *tests/data/fate/vsynth1-dnxhd-720p.out.rawvideo
-stddev:    6.32 PSNR: 32.11 MAXDIFF:  183 bytes:  7603200/   760320
==24309== Memcheck, a memory error detector
==24309== Copyright (C) 2002-2015, and GNU GPL'd, by Julian Seward et al.
==24309== Using Valgrind-3.12.0.SVN and LibVEX; rerun with -h for copyright info
==24309== Command: /home/mik/src/fate/ppc64-linux-gcc-valgrind/build/avconv -nostats -cpuflags all -f rawvideo -s 352x288 -pix_fmt yuv420p -threads 1 -idct simple -flags +bitexact -sws_flags +accurate_rnd+bitexact -fflags +bitexact -hwaccel none -threads 1 -thread_type frame+slice -i /home/mik/src/fate/ppc64-linux-gcc-valgrind/build/tests/data/vsynth1.yuv -threads 1 -idct simple -dct fastint -c dnxhd -s hd720 -b 90M -pix_fmt yuv422p -frames 5 -flags +bitexact -sws_flags +accurate_rnd+bitexact -fflags +bitexact -f dnxhd -y /home/mik/src/fate/ppc64-linux-gcc-valgrind/build/tests/data/fate/vsynth1-dnxhd-720p.dnxhd
==24309== 
avconv version v13_dev0-1554-g325aa63, Copyright (c) 2000-2018 the Libav developers
  built on Aug  7 2018 13:10:37 with gcc 5.5.0 (GCC)
[rawvideo @ 0x46cae20] Estimating duration from bitrate, this may be inaccurate
Input #0, rawvideo, from '/home/mik/src/fate/ppc64-linux-gcc-valgrind/build/tests/data/vsynth1.yuv':
  Duration: N/A, start: 0.000000, bitrate: N/A
    Stream #0:0: Video: rawvideo
      yuv420p, 352x288
      25 fps, 25 tbn
Stream mapping:
  Stream #0:0 -> #0:0 (rawvideo (native) -> dnxhd (native))
Press ctrl-c to stop encoding
Output #0, dnxhd, to '/home/mik/src/fate/ppc64-linux-gcc-valgrind/build/tests/data/fate/vsynth1-dnxhd-720p.dnxhd':
    Stream #0:0: Video: dnxhd
      yuv422p, 1280x720, q=2-31, 90000 kb/s
      25 tbn
    Metadata:
      encoder         : dnxhd
==24309== Invalid read of size 16
==24309==    at 0x10480D4C: get_pixels_vsx (pixblockdsp.c:139)
==24309==    by 0x1023C58F: dnxhd_get_blocks (dnxhdenc.c:580)
==24309==    by 0x1023C58F: dnxhd_calc_bits_thread (dnxhdenc.c:619)
==24309==    by 0x1023D493: dnxhd_find_qscale (dnxhdenc.c:866)
==24309==    by 0x1023D493: dnxhd_encode_fast (dnxhdenc.c:969)
==24309==    by 0x1023D493: dnxhd_encode_picture (dnxhdenc.c:1055)
==24309==    by 0x10263063: avcodec_encode_video2 (encode.c:227)
==24309==    by 0x10263283: do_encode (encode.c:274)
==24309==    by 0x102634EF: avcodec_send_frame (encode.c:323)
==24309==    by 0x10077717: do_video_out (avconv.c:590)
==24309==    by 0x10077717: poll_filter (avconv.c:729)
==24309==    by 0x10077EEF: poll_filters (avconv.c:803)
==24309==    by 0x1005EA8B: transcode (avconv.c:2806)
==24309==    by 0x1005EA8B: main (avconv.c:2975)
==24309==  Address 0x16f52078 is 1,843,192 bytes inside a block of size 1,843,200 alloc'd
==24309==    at 0x4088C90: memalign (vg_replace_malloc.c:857)
==24309==    by 0x4088DFF: posix_memalign (vg_replace_malloc.c:1020)
==24309==    by 0x108B2737: av_malloc (mem.c:71)
==24309==    by 0x1089E967: av_buffer_alloc (buffer.c:72)
==24309==    by 0x108A997F: get_video_buffer (frame.c:114)
==24309==    by 0x108A997F: av_frame_get_buffer (frame.c:185)
==24309==    by 0x1009C1A7: ff_default_get_video_buffer (video.c:55)
==24309==    by 0x1009C1A7: ff_get_video_buffer (video.c:73)
==24309==    by 0x1009C1A7: ff_null_get_video_buffer (video.c:33)
==24309==    by 0x1009C133: ff_get_video_buffer (video.c:70)
==24309==    by 0x1009C133: ff_null_get_video_buffer (video.c:33)
==24309==    by 0x1009C38B: ff_get_video_buffer (video.c:70)
==24309==    by 0x1009620F: filter_frame (vf_scale.c:276)
==24309==    by 0x1007DB83: ff_filter_frame (avfilter.c:700)
==24309==    by 0x1007DB83: default_filter_frame (avfilter.c:640)
==24309==    by 0x10080403: ff_filter_frame (avfilter.c:700)
==24309==    by 0x10082C93: request_frame (buffersrc.c:399)
==24309== 
==24309== Invalid read of size 16
==24309==    at 0x10480D4C: get_pixels_vsx (pixblockdsp.c:139)
==24309==    by 0x1023BC33: dnxhd_get_blocks (dnxhdenc.c:580)
==24309==    by 0x1023BC33: dnxhd_encode_thread (dnxhdenc.c:674)
==24309==    by 0x1023DBCF: dnxhd_encode_picture (dnxhdenc.c:1071)
==24309==    by 0x10263063: avcodec_encode_video2 (encode.c:227)
==24309==    by 0x10263283: do_encode (encode.c:274)
==24309==    by 0x102634EF: avcodec_send_frame (encode.c:323)
==24309==    by 0x10077717: do_video_out (avconv.c:590)
==24309==    by 0x10077717: poll_filter (avconv.c:729)
==24309==    by 0x10077EEF: poll_filters (avconv.c:803)
==24309==    by 0x1005EA8B: transcode (avconv.c:2806)
==24309==    by 0x1005EA8B: main (avconv.c:2975)
==24309==  Address 0x16f52078 is 1,843,192 bytes inside a block of size 1,843,200 alloc'd
==24309==    at 0x4088C90: memalign (vg_replace_malloc.c:857)
==24309==    by 0x4088DFF: posix_memalign (vg_replace_malloc.c:1020)
==24309==    by 0x108B2737: av_malloc (mem.c:71)
==24309==    by 0x1089E967: av_buffer_alloc (buffer.c:72)
==24309==    by 0x108A997F: get_video_buffer (frame.c:114)
==24309==    by 0x108A997F: av_frame_get_buffer (frame.c:185)
==24309==    by 0x1009C1A7: ff_default_get_video_buffer (video.c:55)
==24309==    by 0x1009C1A7: ff_get_video_buffer (video.c:73)
==24309==    by 0x1009C1A7: ff_null_get_video_buffer (video.c:33)
==24309==    by 0x1009C133: ff_get_video_buffer (video.c:70)
==24309==    by 0x1009C133: ff_null_get_video_buffer (video.c:33)
==24309==    by 0x1009C38B: ff_get_video_buffer (video.c:70)
==24309==    by 0x1009620F: filter_frame (vf_scale.c:276)
==24309==    by 0x1007DB83: ff_filter_frame (avfilter.c:700)
==24309==    by 0x1007DB83: default_filter_frame (avfilter.c:640)
==24309==    by 0x10080403: ff_filter_frame (avfilter.c:700)
==24309==    by 0x10082C93: request_frame (buffersrc.c:399)
==24309== 
frame=    5 fps=  0 q=1.0 Lsize=    2240kB time=0.16 bitrate=114688.0kbits/s    
video:2240kB audio:0kB other streams:0kB global headers:0kB muxing overhead: 0.000000%
==24309== 
==24309== HEAP SUMMARY:
==24309==     in use at exit: 0 bytes in 0 blocks
==24309==   total heap usage: 1,740 allocs, 1,740 frees, 22,155,583 bytes allocated
==24309== 
==24309== All heap blocks were freed -- no leaks are possible
==24309== 
==24309== For counts of detected and suppressed errors, rerun with: -v
==24309== ERROR SUMMARY: 15 errors from 2 contexts (suppressed: 0 from 0)
diffstderrvsynth1-dnxhd-720p-rd1v12_dev0-1345-g0181ae9
--- /home/mik/src/fate/src/tests/ref/vsynth/vsynth1-dnxhd-720p-rd	2014-01-10 11:16:55.734697630 +0000
+++ tests/data/fate/vsynth1-dnxhd-720p-rd	2018-08-07 13:32:37.445026376 +0000
@@ -1,4 +0,0 @@
-1dc6e95925c4f3a230848ec17c02abed *tests/data/fate/vsynth1-dnxhd-720p-rd.dnxhd
-2293760 tests/data/fate/vsynth1-dnxhd-720p-rd.dnxhd
-02972d2aec120ec1577ec9053d68ae0f *tests/data/fate/vsynth1-dnxhd-720p-rd.out.rawvideo
-stddev:    6.26 PSNR: 32.19 MAXDIFF:   65 bytes:  7603200/   760320
==24356== Memcheck, a memory error detector
==24356== Copyright (C) 2002-2015, and GNU GPL'd, by Julian Seward et al.
==24356== Using Valgrind-3.12.0.SVN and LibVEX; rerun with -h for copyright info
==24356== Command: /home/mik/src/fate/ppc64-linux-gcc-valgrind/build/avconv -nostats -cpuflags all -f rawvideo -s 352x288 -pix_fmt yuv420p -threads 1 -idct simple -flags +bitexact -sws_flags +accurate_rnd+bitexact -fflags +bitexact -hwaccel none -threads 1 -thread_type frame+slice -i /home/mik/src/fate/ppc64-linux-gcc-valgrind/build/tests/data/vsynth1.yuv -threads 1 -idct simple -dct fastint -c dnxhd -s hd720 -b 90M -threads 4 -mbd rd -pix_fmt yuv422p -frames 5 -flags +bitexact -sws_flags +accurate_rnd+bitexact -fflags +bitexact -f dnxhd -y /home/mik/src/fate/ppc64-linux-gcc-valgrind/build/tests/data/fate/vsynth1-dnxhd-720p-rd.dnxhd
==24356== 
avconv version v13_dev0-1554-g325aa63, Copyright (c) 2000-2018 the Libav developers
  built on Aug  7 2018 13:10:37 with gcc 5.5.0 (GCC)
[rawvideo @ 0x46caec0] Estimating duration from bitrate, this may be inaccurate
Input #0, rawvideo, from '/home/mik/src/fate/ppc64-linux-gcc-valgrind/build/tests/data/vsynth1.yuv':
  Duration: N/A, start: 0.000000, bitrate: N/A
    Stream #0:0: Video: rawvideo
      yuv420p, 352x288
      25 fps, 25 tbn
Stream mapping:
  Stream #0:0 -> #0:0 (rawvideo (native) -> dnxhd (native))
Press ctrl-c to stop encoding
Output #0, dnxhd, to '/home/mik/src/fate/ppc64-linux-gcc-valgrind/build/tests/data/fate/vsynth1-dnxhd-720p-rd.dnxhd':
    Stream #0:0: Video: dnxhd
      yuv422p, 1280x720, q=2-31, 90000 kb/s
      25 tbn
    Metadata:
      encoder         : dnxhd
==24356== Thread 67:
==24356== Invalid read of size 16
==24356==    at 0x10480D4C: get_pixels_vsx (pixblockdsp.c:139)
==24356==    by 0x1023C58F: dnxhd_get_blocks (dnxhdenc.c:580)
==24356==    by 0x1023C58F: dnxhd_calc_bits_thread (dnxhdenc.c:619)
==24356==    by 0x43DC95B: start_thread (in /usr/lib64/libpthread-2.17.so)
==24356==    by 0x4563BBB: clone (in /usr/lib64/libc-2.17.so)
==24356==  Address 0x17f52078 is 1,843,192 bytes inside a block of size 1,843,200 alloc'd
==24356==    at 0x4088C90: memalign (vg_replace_malloc.c:857)
==24356==    by 0x4088DFF: posix_memalign (vg_replace_malloc.c:1020)
==24356==    by 0x108B2737: av_malloc (mem.c:71)
==24356==    by 0x1089E967: av_buffer_alloc (buffer.c:72)
==24356==    by 0x108A997F: get_video_buffer (frame.c:114)
==24356==    by 0x108A997F: av_frame_get_buffer (frame.c:185)
==24356==    by 0x1009C1A7: ff_default_get_video_buffer (video.c:55)
==24356==    by 0x1009C1A7: ff_get_video_buffer (video.c:73)
==24356==    by 0x1009C1A7: ff_null_get_video_buffer (video.c:33)
==24356==    by 0x1009C133: ff_get_video_buffer (video.c:70)
==24356==    by 0x1009C133: ff_null_get_video_buffer (video.c:33)
==24356==    by 0x1009C38B: ff_get_video_buffer (video.c:70)
==24356==    by 0x1009620F: filter_frame (vf_scale.c:276)
==24356==    by 0x1007DB83: ff_filter_frame (avfilter.c:700)
==24356==    by 0x1007DB83: default_filter_frame (avfilter.c:640)
==24356==    by 0x10080403: ff_filter_frame (avfilter.c:700)
==24356==    by 0x10082C93: request_frame (buffersrc.c:399)
==24356== 
==24356== Thread 68:
==24356== Invalid read of size 16
==24356==    at 0x10480D4C: get_pixels_vsx (pixblockdsp.c:139)
==24356==    by 0x1023BC33: dnxhd_get_blocks (dnxhdenc.c:580)
==24356==    by 0x1023BC33: dnxhd_encode_thread (dnxhdenc.c:674)
==24356==    by 0x43DC95B: start_thread (in /usr/lib64/libpthread-2.17.so)
==24356==    by 0x4563BBB: clone (in /usr/lib64/libc-2.17.so)
==24356==  Address 0x17f52078 is 1,843,192 bytes inside a block of size 1,843,200 alloc'd
==24356==    at 0x4088C90: memalign (vg_replace_malloc.c:857)
==24356==    by 0x4088DFF: posix_memalign (vg_replace_malloc.c:1020)
==24356==    by 0x108B2737: av_malloc (mem.c:71)
==24356==    by 0x1089E967: av_buffer_alloc (buffer.c:72)
==24356==    by 0x108A997F: get_video_buffer (frame.c:114)
==24356==    by 0x108A997F: av_frame_get_buffer (frame.c:185)
==24356==    by 0x1009C1A7: ff_default_get_video_buffer (video.c:55)
==24356==    by 0x1009C1A7: ff_get_video_buffer (video.c:73)
==24356==    by 0x1009C1A7: ff_null_get_video_buffer (video.c:33)
==24356==    by 0x1009C133: ff_get_video_buffer (video.c:70)
==24356==    by 0x1009C133: ff_null_get_video_buffer (video.c:33)
==24356==    by 0x1009C38B: ff_get_video_buffer (video.c:70)
==24356==    by 0x1009620F: filter_frame (vf_scale.c:276)
==24356==    by 0x1007DB83: ff_filter_frame (avfilter.c:700)
==24356==    by 0x1007DB83: default_filter_frame (avfilter.c:640)
==24356==    by 0x10080403: ff_filter_frame (avfilter.c:700)
==24356==    by 0x10082C93: request_frame (buffersrc.c:399)
==24356== 
frame=    5 fps=  0 q=30.0 Lsize=    2240kB time=0.16 bitrate=114688.0kbits/s    
video:2240kB audio:0kB other streams:0kB global headers:0kB muxing overhead: 0.000000%
==24356== 
==24356== HEAP SUMMARY:
==24356==     in use at exit: 0 bytes in 0 blocks
==24356==   total heap usage: 1,760 allocs, 1,760 frees, 22,019,759 bytes allocated
==24356== 
==24356== All heap blocks were freed -- no leaks are possible
==24356== 
==24356== For counts of detected and suppressed errors, rerun with: -v
==24356== ERROR SUMMARY: 155 errors from 2 contexts (suppressed: 0 from 0)
diffstderrvsynth2-dnxhd-720p1v12_dev0-1345-g0181ae9
--- /home/mik/src/fate/src/tests/ref/vsynth/vsynth2-dnxhd-720p	2014-11-30 15:37:05.674204650 +0000
+++ tests/data/fate/vsynth2-dnxhd-720p	2018-08-07 13:35:41.585762936 +0000
@@ -1,4 +0,0 @@
-71c7491a41545882b36f07ee98021b4b *tests/data/fate/vsynth2-dnxhd-720p.dnxhd
-2293760 tests/data/fate/vsynth2-dnxhd-720p.dnxhd
-adef978dc9c9e4f10dc7c30418af62af *tests/data/fate/vsynth2-dnxhd-720p.out.rawvideo
-stddev:    6.69 PSNR: 31.62 MAXDIFF:  171 bytes:  7603200/   760320
==14629== Memcheck, a memory error detector
==14629== Copyright (C) 2002-2015, and GNU GPL'd, by Julian Seward et al.
==14629== Using Valgrind-3.12.0.SVN and LibVEX; rerun with -h for copyright info
==14629== Command: /home/mik/src/fate/ppc64-linux-gcc-valgrind/build/avconv -nostats -cpuflags all -f rawvideo -s 352x288 -pix_fmt yuv420p -threads 1 -idct simple -flags +bitexact -sws_flags +accurate_rnd+bitexact -fflags +bitexact -hwaccel none -threads 1 -thread_type frame+slice -i /home/mik/src/fate/ppc64-linux-gcc-valgrind/build/tests/data/vsynth2.yuv -threads 1 -idct simple -dct fastint -c dnxhd -s hd720 -b 90M -pix_fmt yuv422p -frames 5 -flags +bitexact -sws_flags +accurate_rnd+bitexact -fflags +bitexact -f dnxhd -y /home/mik/src/fate/ppc64-linux-gcc-valgrind/build/tests/data/fate/vsynth2-dnxhd-720p.dnxhd
==14629== 
avconv version v13_dev0-1554-g325aa63, Copyright (c) 2000-2018 the Libav developers
  built on Aug  7 2018 13:10:37 with gcc 5.5.0 (GCC)
[rawvideo @ 0x46cae20] Estimating duration from bitrate, this may be inaccurate
Input #0, rawvideo, from '/home/mik/src/fate/ppc64-linux-gcc-valgrind/build/tests/data/vsynth2.yuv':
  Duration: N/A, start: 0.000000, bitrate: N/A
    Stream #0:0: Video: rawvideo
      yuv420p, 352x288
      25 fps, 25 tbn
Stream mapping:
  Stream #0:0 -> #0:0 (rawvideo (native) -> dnxhd (native))
Press ctrl-c to stop encoding
Output #0, dnxhd, to '/home/mik/src/fate/ppc64-linux-gcc-valgrind/build/tests/data/fate/vsynth2-dnxhd-720p.dnxhd':
    Stream #0:0: Video: dnxhd
      yuv422p, 1280x720, q=2-31, 90000 kb/s
      25 tbn
    Metadata:
      encoder         : dnxhd
==14629== Invalid read of size 16
==14629==    at 0x10480D4C: get_pixels_vsx (pixblockdsp.c:139)
==14629==    by 0x1023C58F: dnxhd_get_blocks (dnxhdenc.c:580)
==14629==    by 0x1023C58F: dnxhd_calc_bits_thread (dnxhdenc.c:619)
==14629==    by 0x1023D493: dnxhd_find_qscale (dnxhdenc.c:866)
==14629==    by 0x1023D493: dnxhd_encode_fast (dnxhdenc.c:969)
==14629==    by 0x1023D493: dnxhd_encode_picture (dnxhdenc.c:1055)
==14629==    by 0x10263063: avcodec_encode_video2 (encode.c:227)
==14629==    by 0x10263283: do_encode (encode.c:274)
==14629==    by 0x102634EF: avcodec_send_frame (encode.c:323)
==14629==    by 0x10077717: do_video_out (avconv.c:590)
==14629==    by 0x10077717: poll_filter (avconv.c:729)
==14629==    by 0x10077EEF: poll_filters (avconv.c:803)
==14629==    by 0x1005EA8B: transcode (avconv.c:2806)
==14629==    by 0x1005EA8B: main (avconv.c:2975)
==14629==  Address 0x16f52078 is 1,843,192 bytes inside a block of size 1,843,200 alloc'd
==14629==    at 0x4088C90: memalign (vg_replace_malloc.c:857)
==14629==    by 0x4088DFF: posix_memalign (vg_replace_malloc.c:1020)
==14629==    by 0x108B2737: av_malloc (mem.c:71)
==14629==    by 0x1089E967: av_buffer_alloc (buffer.c:72)
==14629==    by 0x108A997F: get_video_buffer (frame.c:114)
==14629==    by 0x108A997F: av_frame_get_buffer (frame.c:185)
==14629==    by 0x1009C1A7: ff_default_get_video_buffer (video.c:55)
==14629==    by 0x1009C1A7: ff_get_video_buffer (video.c:73)
==14629==    by 0x1009C1A7: ff_null_get_video_buffer (video.c:33)
==14629==    by 0x1009C133: ff_get_video_buffer (video.c:70)
==14629==    by 0x1009C133: ff_null_get_video_buffer (video.c:33)
==14629==    by 0x1009C38B: ff_get_video_buffer (video.c:70)
==14629==    by 0x1009620F: filter_frame (vf_scale.c:276)
==14629==    by 0x1007DB83: ff_filter_frame (avfilter.c:700)
==14629==    by 0x1007DB83: default_filter_frame (avfilter.c:640)
==14629==    by 0x10080403: ff_filter_frame (avfilter.c:700)
==14629==    by 0x10082C93: request_frame (buffersrc.c:399)
==14629== 
==14629== Invalid read of size 16
==14629==    at 0x10480D4C: get_pixels_vsx (pixblockdsp.c:139)
==14629==    by 0x1023BC33: dnxhd_get_blocks (dnxhdenc.c:580)
==14629==    by 0x1023BC33: dnxhd_encode_thread (dnxhdenc.c:674)
==14629==    by 0x1023DBCF: dnxhd_encode_picture (dnxhdenc.c:1071)
==14629==    by 0x10263063: avcodec_encode_video2 (encode.c:227)
==14629==    by 0x10263283: do_encode (encode.c:274)
==14629==    by 0x102634EF: avcodec_send_frame (encode.c:323)
==14629==    by 0x10077717: do_video_out (avconv.c:590)
==14629==    by 0x10077717: poll_filter (avconv.c:729)
==14629==    by 0x10077EEF: poll_filters (avconv.c:803)
==14629==    by 0x1005EA8B: transcode (avconv.c:2806)
==14629==    by 0x1005EA8B: main (avconv.c:2975)
==14629==  Address 0x16f52078 is 1,843,192 bytes inside a block of size 1,843,200 alloc'd
==14629==    at 0x4088C90: memalign (vg_replace_malloc.c:857)
==14629==    by 0x4088DFF: posix_memalign (vg_replace_malloc.c:1020)
==14629==    by 0x108B2737: av_malloc (mem.c:71)
==14629==    by 0x1089E967: av_buffer_alloc (buffer.c:72)
==14629==    by 0x108A997F: get_video_buffer (frame.c:114)
==14629==    by 0x108A997F: av_frame_get_buffer (frame.c:185)
==14629==    by 0x1009C1A7: ff_default_get_video_buffer (video.c:55)
==14629==    by 0x1009C1A7: ff_get_video_buffer (video.c:73)
==14629==    by 0x1009C1A7: ff_null_get_video_buffer (video.c:33)
==14629==    by 0x1009C133: ff_get_video_buffer (video.c:70)
==14629==    by 0x1009C133: ff_null_get_video_buffer (video.c:33)
==14629==    by 0x1009C38B: ff_get_video_buffer (video.c:70)
==14629==    by 0x1009620F: filter_frame (vf_scale.c:276)
==14629==    by 0x1007DB83: ff_filter_frame (avfilter.c:700)
==14629==    by 0x1007DB83: default_filter_frame (avfilter.c:640)
==14629==    by 0x10080403: ff_filter_frame (avfilter.c:700)
==14629==    by 0x10082C93: request_frame (buffersrc.c:399)
==14629== 
frame=    5 fps=  1 q=1.0 Lsize=    2240kB time=0.16 bitrate=114688.0kbits/s    
video:2240kB audio:0kB other streams:0kB global headers:0kB muxing overhead: 0.000000%
==14629== 
==14629== HEAP SUMMARY:
==14629==     in use at exit: 0 bytes in 0 blocks
==14629==   total heap usage: 1,735 allocs, 1,735 frees, 22,011,583 bytes allocated
==14629== 
==14629== All heap blocks were freed -- no leaks are possible
==14629== 
==14629== For counts of detected and suppressed errors, rerun with: -v
==14629== ERROR SUMMARY: 10 errors from 2 contexts (suppressed: 0 from 0)
diffstderrvsynth2-dnxhd-720p-rd1v12_dev0-1345-g0181ae9
--- /home/mik/src/fate/src/tests/ref/vsynth/vsynth2-dnxhd-720p-rd	2014-11-30 15:37:05.674204650 +0000
+++ tests/data/fate/vsynth2-dnxhd-720p-rd	2018-08-07 13:35:41.755763616 +0000
@@ -1,4 +0,0 @@
-819a7714098e098981bf08253ef2e490 *tests/data/fate/vsynth2-dnxhd-720p-rd.dnxhd
-2293760 tests/data/fate/vsynth2-dnxhd-720p-rd.dnxhd
-a05c35b99e5e74a9c8b3a9c66da01775 *tests/data/fate/vsynth2-dnxhd-720p-rd.out.rawvideo
-stddev:    1.53 PSNR: 44.39 MAXDIFF:   31 bytes:  7603200/   760320
==14649== Memcheck, a memory error detector
==14649== Copyright (C) 2002-2015, and GNU GPL'd, by Julian Seward et al.
==14649== Using Valgrind-3.12.0.SVN and LibVEX; rerun with -h for copyright info
==14649== Command: /home/mik/src/fate/ppc64-linux-gcc-valgrind/build/avconv -nostats -cpuflags all -f rawvideo -s 352x288 -pix_fmt yuv420p -threads 1 -idct simple -flags +bitexact -sws_flags +accurate_rnd+bitexact -fflags +bitexact -hwaccel none -threads 1 -thread_type frame+slice -i /home/mik/src/fate/ppc64-linux-gcc-valgrind/build/tests/data/vsynth2.yuv -threads 1 -idct simple -dct fastint -c dnxhd -s hd720 -b 90M -threads 4 -mbd rd -pix_fmt yuv422p -frames 5 -flags +bitexact -sws_flags +accurate_rnd+bitexact -fflags +bitexact -f dnxhd -y /home/mik/src/fate/ppc64-linux-gcc-valgrind/build/tests/data/fate/vsynth2-dnxhd-720p-rd.dnxhd
==14649== 
avconv version v13_dev0-1554-g325aa63, Copyright (c) 2000-2018 the Libav developers
  built on Aug  7 2018 13:10:37 with gcc 5.5.0 (GCC)
[rawvideo @ 0x46caec0] Estimating duration from bitrate, this may be inaccurate
Input #0, rawvideo, from '/home/mik/src/fate/ppc64-linux-gcc-valgrind/build/tests/data/vsynth2.yuv':
  Duration: N/A, start: 0.000000, bitrate: N/A
    Stream #0:0: Video: rawvideo
      yuv420p, 352x288
      25 fps, 25 tbn
Stream mapping:
  Stream #0:0 -> #0:0 (rawvideo (native) -> dnxhd (native))
Press ctrl-c to stop encoding
Output #0, dnxhd, to '/home/mik/src/fate/ppc64-linux-gcc-valgrind/build/tests/data/fate/vsynth2-dnxhd-720p-rd.dnxhd':
    Stream #0:0: Video: dnxhd
      yuv422p, 1280x720, q=2-31, 90000 kb/s
      25 tbn
    Metadata:
      encoder         : dnxhd
==14649== Thread 67:
==14649== Invalid read of size 16
==14649==    at 0x10480D4C: get_pixels_vsx (pixblockdsp.c:139)
==14649==    by 0x1023C58F: dnxhd_get_blocks (dnxhdenc.c:580)
==14649==    by 0x1023C58F: dnxhd_calc_bits_thread (dnxhdenc.c:619)
==14649==    by 0x43DC95B: start_thread (in /usr/lib64/libpthread-2.17.so)
==14649==    by 0x4563BBB: clone (in /usr/lib64/libc-2.17.so)
==14649==  Address 0x17f52078 is 1,843,192 bytes inside a block of size 1,843,200 alloc'd
==14649==    at 0x4088C90: memalign (vg_replace_malloc.c:857)
==14649==    by 0x4088DFF: posix_memalign (vg_replace_malloc.c:1020)
==14649==    by 0x108B2737: av_malloc (mem.c:71)
==14649==    by 0x1089E967: av_buffer_alloc (buffer.c:72)
==14649==    by 0x108A997F: get_video_buffer (frame.c:114)
==14649==    by 0x108A997F: av_frame_get_buffer (frame.c:185)
==14649==    by 0x1009C1A7: ff_default_get_video_buffer (video.c:55)
==14649==    by 0x1009C1A7: ff_get_video_buffer (video.c:73)
==14649==    by 0x1009C1A7: ff_null_get_video_buffer (video.c:33)
==14649==    by 0x1009C133: ff_get_video_buffer (video.c:70)
==14649==    by 0x1009C133: ff_null_get_video_buffer (video.c:33)
==14649==    by 0x1009C38B: ff_get_video_buffer (video.c:70)
==14649==    by 0x1009620F: filter_frame (vf_scale.c:276)
==14649==    by 0x1007DB83: ff_filter_frame (avfilter.c:700)
==14649==    by 0x1007DB83: default_filter_frame (avfilter.c:640)
==14649==    by 0x10080403: ff_filter_frame (avfilter.c:700)
==14649==    by 0x10082C93: request_frame (buffersrc.c:399)
==14649== 
==14649== Thread 69:
==14649== Invalid read of size 16
==14649==    at 0x10480D4C: get_pixels_vsx (pixblockdsp.c:139)
==14649==    by 0x1023BC33: dnxhd_get_blocks (dnxhdenc.c:580)
==14649==    by 0x1023BC33: dnxhd_encode_thread (dnxhdenc.c:674)
==14649==    by 0x43DC95B: start_thread (in /usr/lib64/libpthread-2.17.so)
==14649==    by 0x4563BBB: clone (in /usr/lib64/libc-2.17.so)
==14649==  Address 0x17f52078 is 1,843,192 bytes inside a block of size 1,843,200 alloc'd
==14649==    at 0x4088C90: memalign (vg_replace_malloc.c:857)
==14649==    by 0x4088DFF: posix_memalign (vg_replace_malloc.c:1020)
==14649==    by 0x108B2737: av_malloc (mem.c:71)
==14649==    by 0x1089E967: av_buffer_alloc (buffer.c:72)
==14649==    by 0x108A997F: get_video_buffer (frame.c:114)
==14649==    by 0x108A997F: av_frame_get_buffer (frame.c:185)
==14649==    by 0x1009C1A7: ff_default_get_video_buffer (video.c:55)
==14649==    by 0x1009C1A7: ff_get_video_buffer (video.c:73)
==14649==    by 0x1009C1A7: ff_null_get_video_buffer (video.c:33)
==14649==    by 0x1009C133: ff_get_video_buffer (video.c:70)
==14649==    by 0x1009C133: ff_null_get_video_buffer (video.c:33)
==14649==    by 0x1009C38B: ff_get_video_buffer (video.c:70)
==14649==    by 0x1009620F: filter_frame (vf_scale.c:276)
==14649==    by 0x1007DB83: ff_filter_frame (avfilter.c:700)
==14649==    by 0x1007DB83: default_filter_frame (avfilter.c:640)
==14649==    by 0x10080403: ff_filter_frame (avfilter.c:700)
==14649==    by 0x10082C93: request_frame (buffersrc.c:399)
==14649== 
frame=    5 fps=  0 q=30.0 Lsize=    2240kB time=0.16 bitrate=114688.0kbits/s    
video:2240kB audio:0kB other streams:0kB global headers:0kB muxing overhead: 0.000000%
==14649== 
==14649== HEAP SUMMARY:
==14649==     in use at exit: 0 bytes in 0 blocks
==14649==   total heap usage: 1,760 allocs, 1,760 frees, 22,019,759 bytes allocated
==14649== 
==14649== All heap blocks were freed -- no leaks are possible
==14649== 
==14649== For counts of detected and suppressed errors, rerun with: -v
==14649== ERROR SUMMARY: 155 errors from 2 contexts (suppressed: 0 from 0)