ppc64-linux-gcc-valgrind v13_dev0-1531-g347aa8f

Architectureppc
Variantppc64
CPUgeneric
OSlinux
Ownerkostylev
Compilergcc 5.5.0 (GCC)
Configuration--enable-gpl --prefix=/home/mik/src/fate/ppc64-linux-gcc-valgrind/install --samples=/home/mik/src/fate/fate-suite --cc=gcc-5 --target-exec='valgrind --leak-check=full --show-reachable=yes --error-exitcode=1 --malloc-fill=0x4a --undef-value-errors=no'
Commentvalgrind --undef-value-errors=no
Revisionv13_dev0-1531-g347aa8f
Date2018-04-16 01:38:22
Status2142 / 2147
Warnings67
Logscompile configure test
5 failed testsStatusLast good rev
diffstderrsvq3-21n / a
--- /home/mik/src/fate/src/tests/ref/fate/svq3-2	2017-02-27 10:07:05.303380676 +0000
+++ tests/data/fate/svq3-2	2018-04-16 01:24:42.573920884 +0000
@@ -1,5 +1,5 @@
 #tb 0: 1/19200
-0,     -20000,     -20000,        0,   185280, 0x061c0d85
+0,     -20000,     -20000,        0,   185280, 0xc0bd953f
 0,     -19200,     -19200,        0,   185280, 0x427ef9a7
 0,     -18400,     -18400,        0,   185280, 0x64c74d6a
 0,     -17600,     -17600,        0,   185280, 0x5bfd0e5b
==52234== Memcheck, a memory error detector
==52234== Copyright (C) 2002-2015, and GNU GPL'd, by Julian Seward et al.
==52234== Using Valgrind-3.12.0.SVN and LibVEX; rerun with -h for copyright info
==52234== Command: /home/mik/src/fate/ppc64-linux-gcc-valgrind/build/avconv -nostats -cpuflags all -flags +bitexact -hwaccel none -threads 1 -thread_type frame+slice -i /home/mik/src/fate/fate-suite/svq3/svq3_decoding_regression.mov -an -f framecrc -
==52234== 
avconv version v13_dev0-1531-g347aa8f, Copyright (c) 2000-2018 the Libav developers
  built on Apr 16 2018 01:11:25 with gcc 5.5.0 (GCC)
Input #0, mov,mp4,m4a,3gp,3g2,mj2, from '/home/mik/src/fate/fate-suite/svq3/svq3_decoding_regression.mov':
  Metadata:
    major_brand     : qt  
    minor_version   : 512
    compatible_brands: qt  
    artist          : Mark Strube - SupaDupaStrube@msn.com
    artist-eng      : Mark Strube - SupaDupaStrube@msn.com
    title           : Movie-List Presents: The Abyss
    title-eng       : Movie-List Presents: The Abyss
    encoder         : Lavf57.66.101
    copyright       : © 1989 Twentieth Century Fox
    copyright-eng   : © 1989 Twentieth Century Fox
  Duration: 00:00:00.83, bitrate: 2376 kb/s
    Stream #0:0(eng): Video: svq3 [SVQ3 / 0x33515653]
      yuvj420p, pc, 480x257, 2366 kb/s
      24 fps, 19200 tbn (default)
    Metadata:
      handler_name    : DataHandler
      encoder         : Sorenson Video 3
Stream mapping:
  Stream #0:0 -> #0:0 (svq3 (native) -> rawvideo (native))
Press ctrl-c to stop encoding
[svq3 @ 0x4727680] Missing reference frame.
Output #0, framecrc, to 'pipe:':
  Metadata:
    major_brand     : qt  
    minor_version   : 512
    compatible_brands: qt  
    artist          : Mark Strube - SupaDupaStrube@msn.com
    artist-eng      : Mark Strube - SupaDupaStrube@msn.com
    title           : Movie-List Presents: The Abyss
    title-eng       : Movie-List Presents: The Abyss
    copyright-eng   : © 1989 Twentieth Century Fox
    copyright       : © 1989 Twentieth Century Fox
    encoder         : Lavf58.1.0
    Stream #0:0(eng): Video: rawvideo [I420 / 0x30323449]
      yuvj420p, 480x257, q=2-31, 200 kb/s
      19200 tbn (default)
    Metadata:
      handler_name    : DataHandler
      encoder         : Sorenson Video 3
*** dropping frame 19 from stream 0 at ts -6400
frame=   19 fps= 19 q=-0.0 Lsize=       1kB time=10000000000.00 bitrate=   0.0kbits/s drop=1    
video:3438kB audio:0kB other streams:0kB global headers:0kB muxing overhead: unknown
==52234== 
==52234== HEAP SUMMARY:
==52234==     in use at exit: 0 bytes in 0 blocks
==52234==   total heap usage: 1,668 allocs, 1,668 frees, 8,678,242 bytes allocated
==52234== 
==52234== All heap blocks were freed -- no leaks are possible
==52234== 
==52234== For counts of detected and suppressed errors, rerun with: -v
==52234== ERROR SUMMARY: 0 errors from 0 contexts (suppressed: 0 from 0)
diffstderrvsynth1-dnxhd-720p1v12_dev0-1345-g0181ae9
--- /home/mik/src/fate/src/tests/ref/vsynth/vsynth1-dnxhd-720p	2014-01-10 11:16:55.734697630 +0000
+++ tests/data/fate/vsynth1-dnxhd-720p	2018-04-16 01:32:02.405697524 +0000
@@ -1,4 +0,0 @@
-81f5be451dc18cf8a1d333c7885de60b *tests/data/fate/vsynth1-dnxhd-720p.dnxhd
-2293760 tests/data/fate/vsynth1-dnxhd-720p.dnxhd
-94b21e5e68ccf9471eff74afd0ebe319 *tests/data/fate/vsynth1-dnxhd-720p.out.rawvideo
-stddev:    6.32 PSNR: 32.11 MAXDIFF:  183 bytes:  7603200/   760320
==62818== Memcheck, a memory error detector
==62818== Copyright (C) 2002-2015, and GNU GPL'd, by Julian Seward et al.
==62818== Using Valgrind-3.12.0.SVN and LibVEX; rerun with -h for copyright info
==62818== Command: /home/mik/src/fate/ppc64-linux-gcc-valgrind/build/avconv -nostats -cpuflags all -f rawvideo -s 352x288 -pix_fmt yuv420p -threads 1 -idct simple -flags +bitexact -sws_flags +accurate_rnd+bitexact -fflags +bitexact -hwaccel none -threads 1 -thread_type frame+slice -i /home/mik/src/fate/ppc64-linux-gcc-valgrind/build/tests/data/vsynth1.yuv -threads 1 -idct simple -dct fastint -c dnxhd -s hd720 -b 90M -pix_fmt yuv422p -frames 5 -flags +bitexact -sws_flags +accurate_rnd+bitexact -fflags +bitexact -f dnxhd -y /home/mik/src/fate/ppc64-linux-gcc-valgrind/build/tests/data/fate/vsynth1-dnxhd-720p.dnxhd
==62818== 
avconv version v13_dev0-1531-g347aa8f, Copyright (c) 2000-2018 the Libav developers
  built on Apr 16 2018 01:11:25 with gcc 5.5.0 (GCC)
[rawvideo @ 0x46cae20] Estimating duration from bitrate, this may be inaccurate
Input #0, rawvideo, from '/home/mik/src/fate/ppc64-linux-gcc-valgrind/build/tests/data/vsynth1.yuv':
  Duration: N/A, start: 0.000000, bitrate: N/A
    Stream #0:0: Video: rawvideo
      yuv420p, 352x288
      25 fps, 25 tbn
Stream mapping:
  Stream #0:0 -> #0:0 (rawvideo (native) -> dnxhd (native))
Press ctrl-c to stop encoding
Output #0, dnxhd, to '/home/mik/src/fate/ppc64-linux-gcc-valgrind/build/tests/data/fate/vsynth1-dnxhd-720p.dnxhd':
    Stream #0:0: Video: dnxhd
      yuv422p, 1280x720, q=2-31, 90000 kb/s
      25 tbn
    Metadata:
      encoder         : dnxhd
==62818== Invalid read of size 16
==62818==    at 0x10480BCC: get_pixels_vsx (pixblockdsp.c:139)
==62818==    by 0x1023C3AF: dnxhd_get_blocks (dnxhdenc.c:576)
==62818==    by 0x1023C3AF: dnxhd_calc_bits_thread (dnxhdenc.c:619)
==62818==    by 0x1023D313: dnxhd_find_qscale (dnxhdenc.c:866)
==62818==    by 0x1023D313: dnxhd_encode_fast (dnxhdenc.c:969)
==62818==    by 0x1023D313: dnxhd_encode_picture (dnxhdenc.c:1055)
==62818==    by 0x10262EE3: avcodec_encode_video2 (encode.c:227)
==62818==    by 0x10263103: do_encode (encode.c:274)
==62818==    by 0x1026336F: avcodec_send_frame (encode.c:323)
==62818==    by 0x100775D7: do_video_out (avconv.c:587)
==62818==    by 0x100775D7: poll_filter (avconv.c:726)
==62818==    by 0x10077DAF: poll_filters (avconv.c:800)
==62818==    by 0x1005EA8B: transcode (avconv.c:2803)
==62818==    by 0x1005EA8B: main (avconv.c:2972)
==62818==  Address 0x16e71078 is 921,592 bytes inside a block of size 921,600 alloc'd
==62818==    at 0x4088C90: memalign (vg_replace_malloc.c:857)
==62818==    by 0x4088DFF: posix_memalign (vg_replace_malloc.c:1020)
==62818==    by 0x108B2617: av_malloc (mem.c:71)
==62818==    by 0x1089E7E7: av_buffer_alloc (buffer.c:72)
==62818==    by 0x108A96F3: get_video_buffer (frame.c:119)
==62818==    by 0x108A96F3: av_frame_get_buffer (frame.c:196)
==62818==    by 0x1009C027: ff_default_get_video_buffer (video.c:55)
==62818==    by 0x1009C027: ff_get_video_buffer (video.c:73)
==62818==    by 0x1009C027: ff_null_get_video_buffer (video.c:33)
==62818==    by 0x1009BFB3: ff_get_video_buffer (video.c:70)
==62818==    by 0x1009BFB3: ff_null_get_video_buffer (video.c:33)
==62818==    by 0x1009C20B: ff_get_video_buffer (video.c:70)
==62818==    by 0x1009608F: filter_frame (vf_scale.c:276)
==62818==    by 0x1007DA03: ff_filter_frame (avfilter.c:700)
==62818==    by 0x1007DA03: default_filter_frame (avfilter.c:640)
==62818==    by 0x10080283: ff_filter_frame (avfilter.c:700)
==62818==    by 0x10082B13: request_frame (buffersrc.c:399)
==62818== 
==62818== Invalid read of size 16
==62818==    at 0x10480BCC: get_pixels_vsx (pixblockdsp.c:139)
==62818==    by 0x1023C3DF: dnxhd_get_blocks (dnxhdenc.c:578)
==62818==    by 0x1023C3DF: dnxhd_calc_bits_thread (dnxhdenc.c:619)
==62818==    by 0x1023D313: dnxhd_find_qscale (dnxhdenc.c:866)
==62818==    by 0x1023D313: dnxhd_encode_fast (dnxhdenc.c:969)
==62818==    by 0x1023D313: dnxhd_encode_picture (dnxhdenc.c:1055)
==62818==    by 0x10262EE3: avcodec_encode_video2 (encode.c:227)
==62818==    by 0x10263103: do_encode (encode.c:274)
==62818==    by 0x1026336F: avcodec_send_frame (encode.c:323)
==62818==    by 0x100775D7: do_video_out (avconv.c:587)
==62818==    by 0x100775D7: poll_filter (avconv.c:726)
==62818==    by 0x10077DAF: poll_filters (avconv.c:800)
==62818==    by 0x1005EA8B: transcode (avconv.c:2803)
==62818==    by 0x1005EA8B: main (avconv.c:2972)
==62818==  Address 0x16ee1918 is 460,792 bytes inside a block of size 460,800 alloc'd
==62818==    at 0x4088C90: memalign (vg_replace_malloc.c:857)
==62818==    by 0x4088DFF: posix_memalign (vg_replace_malloc.c:1020)
==62818==    by 0x108B2617: av_malloc (mem.c:71)
==62818==    by 0x1089E7E7: av_buffer_alloc (buffer.c:72)
==62818==    by 0x108A96F3: get_video_buffer (frame.c:119)
==62818==    by 0x108A96F3: av_frame_get_buffer (frame.c:196)
==62818==    by 0x1009C027: ff_default_get_video_buffer (video.c:55)
==62818==    by 0x1009C027: ff_get_video_buffer (video.c:73)
==62818==    by 0x1009C027: ff_null_get_video_buffer (video.c:33)
==62818==    by 0x1009BFB3: ff_get_video_buffer (video.c:70)
==62818==    by 0x1009BFB3: ff_null_get_video_buffer (video.c:33)
==62818==    by 0x1009C20B: ff_get_video_buffer (video.c:70)
==62818==    by 0x1009608F: filter_frame (vf_scale.c:276)
==62818==    by 0x1007DA03: ff_filter_frame (avfilter.c:700)
==62818==    by 0x1007DA03: default_filter_frame (avfilter.c:640)
==62818==    by 0x10080283: ff_filter_frame (avfilter.c:700)
==62818==    by 0x10082B13: request_frame (buffersrc.c:399)
==62818== 
==62818== Invalid read of size 16
==62818==    at 0x10480BCC: get_pixels_vsx (pixblockdsp.c:139)
==62818==    by 0x1023C40F: dnxhd_get_blocks (dnxhdenc.c:580)
==62818==    by 0x1023C40F: dnxhd_calc_bits_thread (dnxhdenc.c:619)
==62818==    by 0x1023D313: dnxhd_find_qscale (dnxhdenc.c:866)
==62818==    by 0x1023D313: dnxhd_encode_fast (dnxhdenc.c:969)
==62818==    by 0x1023D313: dnxhd_encode_picture (dnxhdenc.c:1055)
==62818==    by 0x10262EE3: avcodec_encode_video2 (encode.c:227)
==62818==    by 0x10263103: do_encode (encode.c:274)
==62818==    by 0x1026336F: avcodec_send_frame (encode.c:323)
==62818==    by 0x100775D7: do_video_out (avconv.c:587)
==62818==    by 0x100775D7: poll_filter (avconv.c:726)
==62818==    by 0x10077DAF: poll_filters (avconv.c:800)
==62818==    by 0x1005EA8B: transcode (avconv.c:2803)
==62818==    by 0x1005EA8B: main (avconv.c:2972)
==62818==  Address 0x16f521b8 is 460,792 bytes inside a block of size 460,800 alloc'd
==62818==    at 0x4088C90: memalign (vg_replace_malloc.c:857)
==62818==    by 0x4088DFF: posix_memalign (vg_replace_malloc.c:1020)
==62818==    by 0x108B2617: av_malloc (mem.c:71)
==62818==    by 0x1089E7E7: av_buffer_alloc (buffer.c:72)
==62818==    by 0x108A96F3: get_video_buffer (frame.c:119)
==62818==    by 0x108A96F3: av_frame_get_buffer (frame.c:196)
==62818==    by 0x1009C027: ff_default_get_video_buffer (video.c:55)
==62818==    by 0x1009C027: ff_get_video_buffer (video.c:73)
==62818==    by 0x1009C027: ff_null_get_video_buffer (video.c:33)
==62818==    by 0x1009BFB3: ff_get_video_buffer (video.c:70)
==62818==    by 0x1009BFB3: ff_null_get_video_buffer (video.c:33)
==62818==    by 0x1009C20B: ff_get_video_buffer (video.c:70)
==62818==    by 0x1009608F: filter_frame (vf_scale.c:276)
==62818==    by 0x1007DA03: ff_filter_frame (avfilter.c:700)
==62818==    by 0x1007DA03: default_filter_frame (avfilter.c:640)
==62818==    by 0x10080283: ff_filter_frame (avfilter.c:700)
==62818==    by 0x10082B13: request_frame (buffersrc.c:399)
==62818== 
==62818== Invalid read of size 16
==62818==    at 0x10480BCC: get_pixels_vsx (pixblockdsp.c:139)
==62818==    by 0x1023BA53: dnxhd_get_blocks (dnxhdenc.c:576)
==62818==    by 0x1023BA53: dnxhd_encode_thread (dnxhdenc.c:674)
==62818==    by 0x1023DA4F: dnxhd_encode_picture (dnxhdenc.c:1071)
==62818==    by 0x10262EE3: avcodec_encode_video2 (encode.c:227)
==62818==    by 0x10263103: do_encode (encode.c:274)
==62818==    by 0x1026336F: avcodec_send_frame (encode.c:323)
==62818==    by 0x100775D7: do_video_out (avconv.c:587)
==62818==    by 0x100775D7: poll_filter (avconv.c:726)
==62818==    by 0x10077DAF: poll_filters (avconv.c:800)
==62818==    by 0x1005EA8B: transcode (avconv.c:2803)
==62818==    by 0x1005EA8B: main (avconv.c:2972)
==62818==  Address 0x16e71078 is 921,592 bytes inside a block of size 921,600 alloc'd
==62818==    at 0x4088C90: memalign (vg_replace_malloc.c:857)
==62818==    by 0x4088DFF: posix_memalign (vg_replace_malloc.c:1020)
==62818==    by 0x108B2617: av_malloc (mem.c:71)
==62818==    by 0x1089E7E7: av_buffer_alloc (buffer.c:72)
==62818==    by 0x108A96F3: get_video_buffer (frame.c:119)
==62818==    by 0x108A96F3: av_frame_get_buffer (frame.c:196)
==62818==    by 0x1009C027: ff_default_get_video_buffer (video.c:55)
==62818==    by 0x1009C027: ff_get_video_buffer (video.c:73)
==62818==    by 0x1009C027: ff_null_get_video_buffer (video.c:33)
==62818==    by 0x1009BFB3: ff_get_video_buffer (video.c:70)
==62818==    by 0x1009BFB3: ff_null_get_video_buffer (video.c:33)
==62818==    by 0x1009C20B: ff_get_video_buffer (video.c:70)
==62818==    by 0x1009608F: filter_frame (vf_scale.c:276)
==62818==    by 0x1007DA03: ff_filter_frame (avfilter.c:700)
==62818==    by 0x1007DA03: default_filter_frame (avfilter.c:640)
==62818==    by 0x10080283: ff_filter_frame (avfilter.c:700)
==62818==    by 0x10082B13: request_frame (buffersrc.c:399)
==62818== 
==62818== Invalid read of size 16
==62818==    at 0x10480BCC: get_pixels_vsx (pixblockdsp.c:139)
==62818==    by 0x1023BA83: dnxhd_get_blocks (dnxhdenc.c:578)
==62818==    by 0x1023BA83: dnxhd_encode_thread (dnxhdenc.c:674)
==62818==    by 0x1023DA4F: dnxhd_encode_picture (dnxhdenc.c:1071)
==62818==    by 0x10262EE3: avcodec_encode_video2 (encode.c:227)
==62818==    by 0x10263103: do_encode (encode.c:274)
==62818==    by 0x1026336F: avcodec_send_frame (encode.c:323)
==62818==    by 0x100775D7: do_video_out (avconv.c:587)
==62818==    by 0x100775D7: poll_filter (avconv.c:726)
==62818==    by 0x10077DAF: poll_filters (avconv.c:800)
==62818==    by 0x1005EA8B: transcode (avconv.c:2803)
==62818==    by 0x1005EA8B: main (avconv.c:2972)
==62818==  Address 0x16ee1918 is 460,792 bytes inside a block of size 460,800 alloc'd
==62818==    at 0x4088C90: memalign (vg_replace_malloc.c:857)
==62818==    by 0x4088DFF: posix_memalign (vg_replace_malloc.c:1020)
==62818==    by 0x108B2617: av_malloc (mem.c:71)
==62818==    by 0x1089E7E7: av_buffer_alloc (buffer.c:72)
==62818==    by 0x108A96F3: get_video_buffer (frame.c:119)
==62818==    by 0x108A96F3: av_frame_get_buffer (frame.c:196)
==62818==    by 0x1009C027: ff_default_get_video_buffer (video.c:55)
==62818==    by 0x1009C027: ff_get_video_buffer (video.c:73)
==62818==    by 0x1009C027: ff_null_get_video_buffer (video.c:33)
==62818==    by 0x1009BFB3: ff_get_video_buffer (video.c:70)
==62818==    by 0x1009BFB3: ff_null_get_video_buffer (video.c:33)
==62818==    by 0x1009C20B: ff_get_video_buffer (video.c:70)
==62818==    by 0x1009608F: filter_frame (vf_scale.c:276)
==62818==    by 0x1007DA03: ff_filter_frame (avfilter.c:700)
==62818==    by 0x1007DA03: default_filter_frame (avfilter.c:640)
==62818==    by 0x10080283: ff_filter_frame (avfilter.c:700)
==62818==    by 0x10082B13: request_frame (buffersrc.c:399)
==62818== 
==62818== Invalid read of size 16
==62818==    at 0x10480BCC: get_pixels_vsx (pixblockdsp.c:139)
==62818==    by 0x1023BAB3: dnxhd_get_blocks (dnxhdenc.c:580)
==62818==    by 0x1023BAB3: dnxhd_encode_thread (dnxhdenc.c:674)
==62818==    by 0x1023DA4F: dnxhd_encode_picture (dnxhdenc.c:1071)
==62818==    by 0x10262EE3: avcodec_encode_video2 (encode.c:227)
==62818==    by 0x10263103: do_encode (encode.c:274)
==62818==    by 0x1026336F: avcodec_send_frame (encode.c:323)
==62818==    by 0x100775D7: do_video_out (avconv.c:587)
==62818==    by 0x100775D7: poll_filter (avconv.c:726)
==62818==    by 0x10077DAF: poll_filters (avconv.c:800)
==62818==    by 0x1005EA8B: transcode (avconv.c:2803)
==62818==    by 0x1005EA8B: main (avconv.c:2972)
==62818==  Address 0x16f521b8 is 460,792 bytes inside a block of size 460,800 alloc'd
==62818==    at 0x4088C90: memalign (vg_replace_malloc.c:857)
==62818==    by 0x4088DFF: posix_memalign (vg_replace_malloc.c:1020)
==62818==    by 0x108B2617: av_malloc (mem.c:71)
==62818==    by 0x1089E7E7: av_buffer_alloc (buffer.c:72)
==62818==    by 0x108A96F3: get_video_buffer (frame.c:119)
==62818==    by 0x108A96F3: av_frame_get_buffer (frame.c:196)
==62818==    by 0x1009C027: ff_default_get_video_buffer (video.c:55)
==62818==    by 0x1009C027: ff_get_video_buffer (video.c:73)
==62818==    by 0x1009C027: ff_null_get_video_buffer (video.c:33)
==62818==    by 0x1009BFB3: ff_get_video_buffer (video.c:70)
==62818==    by 0x1009BFB3: ff_null_get_video_buffer (video.c:33)
==62818==    by 0x1009C20B: ff_get_video_buffer (video.c:70)
==62818==    by 0x1009608F: filter_frame (vf_scale.c:276)
==62818==    by 0x1007DA03: ff_filter_frame (avfilter.c:700)
==62818==    by 0x1007DA03: default_filter_frame (avfilter.c:640)
==62818==    by 0x10080283: ff_filter_frame (avfilter.c:700)
==62818==    by 0x10082B13: request_frame (buffersrc.c:399)
==62818== 
frame=    5 fps=  0 q=1.0 Lsize=    2240kB time=0.16 bitrate=114688.0kbits/s    
video:2240kB audio:0kB other streams:0kB global headers:0kB muxing overhead: 0.000000%
==62818== 
==62818== HEAP SUMMARY:
==62818==     in use at exit: 0 bytes in 0 blocks
==62818==   total heap usage: 1,770 allocs, 1,770 frees, 22,156,223 bytes allocated
==62818== 
==62818== All heap blocks were freed -- no leaks are possible
==62818== 
==62818== For counts of detected and suppressed errors, rerun with: -v
==62818== ERROR SUMMARY: 45 errors from 6 contexts (suppressed: 0 from 0)
diffstderrvsynth1-dnxhd-720p-rd1v12_dev0-1345-g0181ae9
--- /home/mik/src/fate/src/tests/ref/vsynth/vsynth1-dnxhd-720p-rd	2014-01-10 11:16:55.734697630 +0000
+++ tests/data/fate/vsynth1-dnxhd-720p-rd	2018-04-16 01:32:03.625702282 +0000
@@ -1,4 +0,0 @@
-1dc6e95925c4f3a230848ec17c02abed *tests/data/fate/vsynth1-dnxhd-720p-rd.dnxhd
-2293760 tests/data/fate/vsynth1-dnxhd-720p-rd.dnxhd
-02972d2aec120ec1577ec9053d68ae0f *tests/data/fate/vsynth1-dnxhd-720p-rd.out.rawvideo
-stddev:    6.26 PSNR: 32.19 MAXDIFF:   65 bytes:  7603200/   760320
==63088== Memcheck, a memory error detector
==63088== Copyright (C) 2002-2015, and GNU GPL'd, by Julian Seward et al.
==63088== Using Valgrind-3.12.0.SVN and LibVEX; rerun with -h for copyright info
==63088== Command: /home/mik/src/fate/ppc64-linux-gcc-valgrind/build/avconv -nostats -cpuflags all -f rawvideo -s 352x288 -pix_fmt yuv420p -threads 1 -idct simple -flags +bitexact -sws_flags +accurate_rnd+bitexact -fflags +bitexact -hwaccel none -threads 1 -thread_type frame+slice -i /home/mik/src/fate/ppc64-linux-gcc-valgrind/build/tests/data/vsynth1.yuv -threads 1 -idct simple -dct fastint -c dnxhd -s hd720 -b 90M -threads 4 -mbd rd -pix_fmt yuv422p -frames 5 -flags +bitexact -sws_flags +accurate_rnd+bitexact -fflags +bitexact -f dnxhd -y /home/mik/src/fate/ppc64-linux-gcc-valgrind/build/tests/data/fate/vsynth1-dnxhd-720p-rd.dnxhd
==63088== 
avconv version v13_dev0-1531-g347aa8f, Copyright (c) 2000-2018 the Libav developers
  built on Apr 16 2018 01:11:25 with gcc 5.5.0 (GCC)
[rawvideo @ 0x46caec0] Estimating duration from bitrate, this may be inaccurate
Input #0, rawvideo, from '/home/mik/src/fate/ppc64-linux-gcc-valgrind/build/tests/data/vsynth1.yuv':
  Duration: N/A, start: 0.000000, bitrate: N/A
    Stream #0:0: Video: rawvideo
      yuv420p, 352x288
      25 fps, 25 tbn
Stream mapping:
  Stream #0:0 -> #0:0 (rawvideo (native) -> dnxhd (native))
Press ctrl-c to stop encoding
Output #0, dnxhd, to '/home/mik/src/fate/ppc64-linux-gcc-valgrind/build/tests/data/fate/vsynth1-dnxhd-720p-rd.dnxhd':
    Stream #0:0: Video: dnxhd
      yuv422p, 1280x720, q=2-31, 90000 kb/s
      25 tbn
    Metadata:
      encoder         : dnxhd
==63088== Thread 70:
==63088== Invalid read of size 16
==63088==    at 0x10480BCC: get_pixels_vsx (pixblockdsp.c:139)
==63088==    by 0x1023C3AF: dnxhd_get_blocks (dnxhdenc.c:576)
==63088==    by 0x1023C3AF: dnxhd_calc_bits_thread (dnxhdenc.c:619)
==63088==    by 0x43DC95B: start_thread (in /usr/lib64/libpthread-2.17.so)
==63088==    by 0x4563BBB: clone (in /usr/lib64/libc-2.17.so)
==63088==  Address 0x17e71078 is 921,592 bytes inside a block of size 921,600 alloc'd
==63088==    at 0x4088C90: memalign (vg_replace_malloc.c:857)
==63088==    by 0x4088DFF: posix_memalign (vg_replace_malloc.c:1020)
==63088==    by 0x108B2617: av_malloc (mem.c:71)
==63088==    by 0x1089E7E7: av_buffer_alloc (buffer.c:72)
==63088==    by 0x108A96F3: get_video_buffer (frame.c:119)
==63088==    by 0x108A96F3: av_frame_get_buffer (frame.c:196)
==63088==    by 0x1009C027: ff_default_get_video_buffer (video.c:55)
==63088==    by 0x1009C027: ff_get_video_buffer (video.c:73)
==63088==    by 0x1009C027: ff_null_get_video_buffer (video.c:33)
==63088==    by 0x1009BFB3: ff_get_video_buffer (video.c:70)
==63088==    by 0x1009BFB3: ff_null_get_video_buffer (video.c:33)
==63088==    by 0x1009C20B: ff_get_video_buffer (video.c:70)
==63088==    by 0x1009608F: filter_frame (vf_scale.c:276)
==63088==    by 0x1007DA03: ff_filter_frame (avfilter.c:700)
==63088==    by 0x1007DA03: default_filter_frame (avfilter.c:640)
==63088==    by 0x10080283: ff_filter_frame (avfilter.c:700)
==63088==    by 0x10082B13: request_frame (buffersrc.c:399)
==63088== 
==63088== Invalid read of size 16
==63088==    at 0x10480BCC: get_pixels_vsx (pixblockdsp.c:139)
==63088==    by 0x1023C3DF: dnxhd_get_blocks (dnxhdenc.c:578)
==63088==    by 0x1023C3DF: dnxhd_calc_bits_thread (dnxhdenc.c:619)
==63088==    by 0x43DC95B: start_thread (in /usr/lib64/libpthread-2.17.so)
==63088==    by 0x4563BBB: clone (in /usr/lib64/libc-2.17.so)
==63088==  Address 0x17ee1918 is 460,792 bytes inside a block of size 460,800 alloc'd
==63088==    at 0x4088C90: memalign (vg_replace_malloc.c:857)
==63088==    by 0x4088DFF: posix_memalign (vg_replace_malloc.c:1020)
==63088==    by 0x108B2617: av_malloc (mem.c:71)
==63088==    by 0x1089E7E7: av_buffer_alloc (buffer.c:72)
==63088==    by 0x108A96F3: get_video_buffer (frame.c:119)
==63088==    by 0x108A96F3: av_frame_get_buffer (frame.c:196)
==63088==    by 0x1009C027: ff_default_get_video_buffer (video.c:55)
==63088==    by 0x1009C027: ff_get_video_buffer (video.c:73)
==63088==    by 0x1009C027: ff_null_get_video_buffer (video.c:33)
==63088==    by 0x1009BFB3: ff_get_video_buffer (video.c:70)
==63088==    by 0x1009BFB3: ff_null_get_video_buffer (video.c:33)
==63088==    by 0x1009C20B: ff_get_video_buffer (video.c:70)
==63088==    by 0x1009608F: filter_frame (vf_scale.c:276)
==63088==    by 0x1007DA03: ff_filter_frame (avfilter.c:700)
==63088==    by 0x1007DA03: default_filter_frame (avfilter.c:640)
==63088==    by 0x10080283: ff_filter_frame (avfilter.c:700)
==63088==    by 0x10082B13: request_frame (buffersrc.c:399)
==63088== 
==63088== Invalid read of size 16
==63088==    at 0x10480BCC: get_pixels_vsx (pixblockdsp.c:139)
==63088==    by 0x1023C40F: dnxhd_get_blocks (dnxhdenc.c:580)
==63088==    by 0x1023C40F: dnxhd_calc_bits_thread (dnxhdenc.c:619)
==63088==    by 0x43DC95B: start_thread (in /usr/lib64/libpthread-2.17.so)
==63088==    by 0x4563BBB: clone (in /usr/lib64/libc-2.17.so)
==63088==  Address 0x17f521b8 is 460,792 bytes inside a block of size 460,800 alloc'd
==63088==    at 0x4088C90: memalign (vg_replace_malloc.c:857)
==63088==    by 0x4088DFF: posix_memalign (vg_replace_malloc.c:1020)
==63088==    by 0x108B2617: av_malloc (mem.c:71)
==63088==    by 0x1089E7E7: av_buffer_alloc (buffer.c:72)
==63088==    by 0x108A96F3: get_video_buffer (frame.c:119)
==63088==    by 0x108A96F3: av_frame_get_buffer (frame.c:196)
==63088==    by 0x1009C027: ff_default_get_video_buffer (video.c:55)
==63088==    by 0x1009C027: ff_get_video_buffer (video.c:73)
==63088==    by 0x1009C027: ff_null_get_video_buffer (video.c:33)
==63088==    by 0x1009BFB3: ff_get_video_buffer (video.c:70)
==63088==    by 0x1009BFB3: ff_null_get_video_buffer (video.c:33)
==63088==    by 0x1009C20B: ff_get_video_buffer (video.c:70)
==63088==    by 0x1009608F: filter_frame (vf_scale.c:276)
==63088==    by 0x1007DA03: ff_filter_frame (avfilter.c:700)
==63088==    by 0x1007DA03: default_filter_frame (avfilter.c:640)
==63088==    by 0x10080283: ff_filter_frame (avfilter.c:700)
==63088==    by 0x10082B13: request_frame (buffersrc.c:399)
==63088== 
==63088== Thread 67:
==63088== Invalid read of size 16
==63088==    at 0x10480BCC: get_pixels_vsx (pixblockdsp.c:139)
==63088==    by 0x1023BA53: dnxhd_get_blocks (dnxhdenc.c:576)
==63088==    by 0x1023BA53: dnxhd_encode_thread (dnxhdenc.c:674)
==63088==    by 0x43DC95B: start_thread (in /usr/lib64/libpthread-2.17.so)
==63088==    by 0x4563BBB: clone (in /usr/lib64/libc-2.17.so)
==63088==  Address 0x17e71078 is 921,592 bytes inside a block of size 921,600 alloc'd
==63088==    at 0x4088C90: memalign (vg_replace_malloc.c:857)
==63088==    by 0x4088DFF: posix_memalign (vg_replace_malloc.c:1020)
==63088==    by 0x108B2617: av_malloc (mem.c:71)
==63088==    by 0x1089E7E7: av_buffer_alloc (buffer.c:72)
==63088==    by 0x108A96F3: get_video_buffer (frame.c:119)
==63088==    by 0x108A96F3: av_frame_get_buffer (frame.c:196)
==63088==    by 0x1009C027: ff_default_get_video_buffer (video.c:55)
==63088==    by 0x1009C027: ff_get_video_buffer (video.c:73)
==63088==    by 0x1009C027: ff_null_get_video_buffer (video.c:33)
==63088==    by 0x1009BFB3: ff_get_video_buffer (video.c:70)
==63088==    by 0x1009BFB3: ff_null_get_video_buffer (video.c:33)
==63088==    by 0x1009C20B: ff_get_video_buffer (video.c:70)
==63088==    by 0x1009608F: filter_frame (vf_scale.c:276)
==63088==    by 0x1007DA03: ff_filter_frame (avfilter.c:700)
==63088==    by 0x1007DA03: default_filter_frame (avfilter.c:640)
==63088==    by 0x10080283: ff_filter_frame (avfilter.c:700)
==63088==    by 0x10082B13: request_frame (buffersrc.c:399)
==63088== 
==63088== Invalid read of size 16
==63088==    at 0x10480BCC: get_pixels_vsx (pixblockdsp.c:139)
==63088==    by 0x1023BA83: dnxhd_get_blocks (dnxhdenc.c:578)
==63088==    by 0x1023BA83: dnxhd_encode_thread (dnxhdenc.c:674)
==63088==    by 0x43DC95B: start_thread (in /usr/lib64/libpthread-2.17.so)
==63088==    by 0x4563BBB: clone (in /usr/lib64/libc-2.17.so)
==63088==  Address 0x17ee1918 is 460,792 bytes inside a block of size 460,800 alloc'd
==63088==    at 0x4088C90: memalign (vg_replace_malloc.c:857)
==63088==    by 0x4088DFF: posix_memalign (vg_replace_malloc.c:1020)
==63088==    by 0x108B2617: av_malloc (mem.c:71)
==63088==    by 0x1089E7E7: av_buffer_alloc (buffer.c:72)
==63088==    by 0x108A96F3: get_video_buffer (frame.c:119)
==63088==    by 0x108A96F3: av_frame_get_buffer (frame.c:196)
==63088==    by 0x1009C027: ff_default_get_video_buffer (video.c:55)
==63088==    by 0x1009C027: ff_get_video_buffer (video.c:73)
==63088==    by 0x1009C027: ff_null_get_video_buffer (video.c:33)
==63088==    by 0x1009BFB3: ff_get_video_buffer (video.c:70)
==63088==    by 0x1009BFB3: ff_null_get_video_buffer (video.c:33)
==63088==    by 0x1009C20B: ff_get_video_buffer (video.c:70)
==63088==    by 0x1009608F: filter_frame (vf_scale.c:276)
==63088==    by 0x1007DA03: ff_filter_frame (avfilter.c:700)
==63088==    by 0x1007DA03: default_filter_frame (avfilter.c:640)
==63088==    by 0x10080283: ff_filter_frame (avfilter.c:700)
==63088==    by 0x10082B13: request_frame (buffersrc.c:399)
==63088== 
==63088== Invalid read of size 16
==63088==    at 0x10480BCC: get_pixels_vsx (pixblockdsp.c:139)
==63088==    by 0x1023BAB3: dnxhd_get_blocks (dnxhdenc.c:580)
==63088==    by 0x1023BAB3: dnxhd_encode_thread (dnxhdenc.c:674)
==63088==    by 0x43DC95B: start_thread (in /usr/lib64/libpthread-2.17.so)
==63088==    by 0x4563BBB: clone (in /usr/lib64/libc-2.17.so)
==63088==  Address 0x17f521b8 is 460,792 bytes inside a block of size 460,800 alloc'd
==63088==    at 0x4088C90: memalign (vg_replace_malloc.c:857)
==63088==    by 0x4088DFF: posix_memalign (vg_replace_malloc.c:1020)
==63088==    by 0x108B2617: av_malloc (mem.c:71)
==63088==    by 0x1089E7E7: av_buffer_alloc (buffer.c:72)
==63088==    by 0x108A96F3: get_video_buffer (frame.c:119)
==63088==    by 0x108A96F3: av_frame_get_buffer (frame.c:196)
==63088==    by 0x1009C027: ff_default_get_video_buffer (video.c:55)
==63088==    by 0x1009C027: ff_get_video_buffer (video.c:73)
==63088==    by 0x1009C027: ff_null_get_video_buffer (video.c:33)
==63088==    by 0x1009BFB3: ff_get_video_buffer (video.c:70)
==63088==    by 0x1009BFB3: ff_null_get_video_buffer (video.c:33)
==63088==    by 0x1009C20B: ff_get_video_buffer (video.c:70)
==63088==    by 0x1009608F: filter_frame (vf_scale.c:276)
==63088==    by 0x1007DA03: ff_filter_frame (avfilter.c:700)
==63088==    by 0x1007DA03: default_filter_frame (avfilter.c:640)
==63088==    by 0x10080283: ff_filter_frame (avfilter.c:700)
==63088==    by 0x10082B13: request_frame (buffersrc.c:399)
==63088== 
frame=    5 fps=  0 q=30.0 Lsize=    2240kB time=0.16 bitrate=114688.0kbits/s    
video:2240kB audio:0kB other streams:0kB global headers:0kB muxing overhead: 0.000000%
==63088== 
==63088== HEAP SUMMARY:
==63088==     in use at exit: 0 bytes in 0 blocks
==63088==   total heap usage: 1,790 allocs, 1,790 frees, 22,020,399 bytes allocated
==63088== 
==63088== All heap blocks were freed -- no leaks are possible
==63088== 
==63088== For counts of detected and suppressed errors, rerun with: -v
==63088== ERROR SUMMARY: 465 errors from 6 contexts (suppressed: 0 from 0)
diffstderrvsynth2-dnxhd-720p1v12_dev0-1345-g0181ae9
--- /home/mik/src/fate/src/tests/ref/vsynth/vsynth2-dnxhd-720p	2014-11-30 15:37:05.674204650 +0000
+++ tests/data/fate/vsynth2-dnxhd-720p	2018-04-16 01:34:57.736381311 +0000
@@ -1,4 +0,0 @@
-71c7491a41545882b36f07ee98021b4b *tests/data/fate/vsynth2-dnxhd-720p.dnxhd
-2293760 tests/data/fate/vsynth2-dnxhd-720p.dnxhd
-adef978dc9c9e4f10dc7c30418af62af *tests/data/fate/vsynth2-dnxhd-720p.out.rawvideo
-stddev:    6.69 PSNR: 31.62 MAXDIFF:  171 bytes:  7603200/   760320
==38450== Memcheck, a memory error detector
==38450== Copyright (C) 2002-2015, and GNU GPL'd, by Julian Seward et al.
==38450== Using Valgrind-3.12.0.SVN and LibVEX; rerun with -h for copyright info
==38450== Command: /home/mik/src/fate/ppc64-linux-gcc-valgrind/build/avconv -nostats -cpuflags all -f rawvideo -s 352x288 -pix_fmt yuv420p -threads 1 -idct simple -flags +bitexact -sws_flags +accurate_rnd+bitexact -fflags +bitexact -hwaccel none -threads 1 -thread_type frame+slice -i /home/mik/src/fate/ppc64-linux-gcc-valgrind/build/tests/data/vsynth2.yuv -threads 1 -idct simple -dct fastint -c dnxhd -s hd720 -b 90M -pix_fmt yuv422p -frames 5 -flags +bitexact -sws_flags +accurate_rnd+bitexact -fflags +bitexact -f dnxhd -y /home/mik/src/fate/ppc64-linux-gcc-valgrind/build/tests/data/fate/vsynth2-dnxhd-720p.dnxhd
==38450== 
avconv version v13_dev0-1531-g347aa8f, Copyright (c) 2000-2018 the Libav developers
  built on Apr 16 2018 01:11:25 with gcc 5.5.0 (GCC)
[rawvideo @ 0x46cae20] Estimating duration from bitrate, this may be inaccurate
Input #0, rawvideo, from '/home/mik/src/fate/ppc64-linux-gcc-valgrind/build/tests/data/vsynth2.yuv':
  Duration: N/A, start: 0.000000, bitrate: N/A
    Stream #0:0: Video: rawvideo
      yuv420p, 352x288
      25 fps, 25 tbn
Stream mapping:
  Stream #0:0 -> #0:0 (rawvideo (native) -> dnxhd (native))
Press ctrl-c to stop encoding
Output #0, dnxhd, to '/home/mik/src/fate/ppc64-linux-gcc-valgrind/build/tests/data/fate/vsynth2-dnxhd-720p.dnxhd':
    Stream #0:0: Video: dnxhd
      yuv422p, 1280x720, q=2-31, 90000 kb/s
      25 tbn
    Metadata:
      encoder         : dnxhd
==38450== Invalid read of size 16
==38450==    at 0x10480BCC: get_pixels_vsx (pixblockdsp.c:139)
==38450==    by 0x1023C3AF: dnxhd_get_blocks (dnxhdenc.c:576)
==38450==    by 0x1023C3AF: dnxhd_calc_bits_thread (dnxhdenc.c:619)
==38450==    by 0x1023D313: dnxhd_find_qscale (dnxhdenc.c:866)
==38450==    by 0x1023D313: dnxhd_encode_fast (dnxhdenc.c:969)
==38450==    by 0x1023D313: dnxhd_encode_picture (dnxhdenc.c:1055)
==38450==    by 0x10262EE3: avcodec_encode_video2 (encode.c:227)
==38450==    by 0x10263103: do_encode (encode.c:274)
==38450==    by 0x1026336F: avcodec_send_frame (encode.c:323)
==38450==    by 0x100775D7: do_video_out (avconv.c:587)
==38450==    by 0x100775D7: poll_filter (avconv.c:726)
==38450==    by 0x10077DAF: poll_filters (avconv.c:800)
==38450==    by 0x1005EA8B: transcode (avconv.c:2803)
==38450==    by 0x1005EA8B: main (avconv.c:2972)
==38450==  Address 0x16e71078 is 921,592 bytes inside a block of size 921,600 alloc'd
==38450==    at 0x4088C90: memalign (vg_replace_malloc.c:857)
==38450==    by 0x4088DFF: posix_memalign (vg_replace_malloc.c:1020)
==38450==    by 0x108B2617: av_malloc (mem.c:71)
==38450==    by 0x1089E7E7: av_buffer_alloc (buffer.c:72)
==38450==    by 0x108A96F3: get_video_buffer (frame.c:119)
==38450==    by 0x108A96F3: av_frame_get_buffer (frame.c:196)
==38450==    by 0x1009C027: ff_default_get_video_buffer (video.c:55)
==38450==    by 0x1009C027: ff_get_video_buffer (video.c:73)
==38450==    by 0x1009C027: ff_null_get_video_buffer (video.c:33)
==38450==    by 0x1009BFB3: ff_get_video_buffer (video.c:70)
==38450==    by 0x1009BFB3: ff_null_get_video_buffer (video.c:33)
==38450==    by 0x1009C20B: ff_get_video_buffer (video.c:70)
==38450==    by 0x1009608F: filter_frame (vf_scale.c:276)
==38450==    by 0x1007DA03: ff_filter_frame (avfilter.c:700)
==38450==    by 0x1007DA03: default_filter_frame (avfilter.c:640)
==38450==    by 0x10080283: ff_filter_frame (avfilter.c:700)
==38450==    by 0x10082B13: request_frame (buffersrc.c:399)
==38450== 
==38450== Invalid read of size 16
==38450==    at 0x10480BCC: get_pixels_vsx (pixblockdsp.c:139)
==38450==    by 0x1023C3DF: dnxhd_get_blocks (dnxhdenc.c:578)
==38450==    by 0x1023C3DF: dnxhd_calc_bits_thread (dnxhdenc.c:619)
==38450==    by 0x1023D313: dnxhd_find_qscale (dnxhdenc.c:866)
==38450==    by 0x1023D313: dnxhd_encode_fast (dnxhdenc.c:969)
==38450==    by 0x1023D313: dnxhd_encode_picture (dnxhdenc.c:1055)
==38450==    by 0x10262EE3: avcodec_encode_video2 (encode.c:227)
==38450==    by 0x10263103: do_encode (encode.c:274)
==38450==    by 0x1026336F: avcodec_send_frame (encode.c:323)
==38450==    by 0x100775D7: do_video_out (avconv.c:587)
==38450==    by 0x100775D7: poll_filter (avconv.c:726)
==38450==    by 0x10077DAF: poll_filters (avconv.c:800)
==38450==    by 0x1005EA8B: transcode (avconv.c:2803)
==38450==    by 0x1005EA8B: main (avconv.c:2972)
==38450==  Address 0x16ee1918 is 460,792 bytes inside a block of size 460,800 alloc'd
==38450==    at 0x4088C90: memalign (vg_replace_malloc.c:857)
==38450==    by 0x4088DFF: posix_memalign (vg_replace_malloc.c:1020)
==38450==    by 0x108B2617: av_malloc (mem.c:71)
==38450==    by 0x1089E7E7: av_buffer_alloc (buffer.c:72)
==38450==    by 0x108A96F3: get_video_buffer (frame.c:119)
==38450==    by 0x108A96F3: av_frame_get_buffer (frame.c:196)
==38450==    by 0x1009C027: ff_default_get_video_buffer (video.c:55)
==38450==    by 0x1009C027: ff_get_video_buffer (video.c:73)
==38450==    by 0x1009C027: ff_null_get_video_buffer (video.c:33)
==38450==    by 0x1009BFB3: ff_get_video_buffer (video.c:70)
==38450==    by 0x1009BFB3: ff_null_get_video_buffer (video.c:33)
==38450==    by 0x1009C20B: ff_get_video_buffer (video.c:70)
==38450==    by 0x1009608F: filter_frame (vf_scale.c:276)
==38450==    by 0x1007DA03: ff_filter_frame (avfilter.c:700)
==38450==    by 0x1007DA03: default_filter_frame (avfilter.c:640)
==38450==    by 0x10080283: ff_filter_frame (avfilter.c:700)
==38450==    by 0x10082B13: request_frame (buffersrc.c:399)
==38450== 
==38450== Invalid read of size 16
==38450==    at 0x10480BCC: get_pixels_vsx (pixblockdsp.c:139)
==38450==    by 0x1023C40F: dnxhd_get_blocks (dnxhdenc.c:580)
==38450==    by 0x1023C40F: dnxhd_calc_bits_thread (dnxhdenc.c:619)
==38450==    by 0x1023D313: dnxhd_find_qscale (dnxhdenc.c:866)
==38450==    by 0x1023D313: dnxhd_encode_fast (dnxhdenc.c:969)
==38450==    by 0x1023D313: dnxhd_encode_picture (dnxhdenc.c:1055)
==38450==    by 0x10262EE3: avcodec_encode_video2 (encode.c:227)
==38450==    by 0x10263103: do_encode (encode.c:274)
==38450==    by 0x1026336F: avcodec_send_frame (encode.c:323)
==38450==    by 0x100775D7: do_video_out (avconv.c:587)
==38450==    by 0x100775D7: poll_filter (avconv.c:726)
==38450==    by 0x10077DAF: poll_filters (avconv.c:800)
==38450==    by 0x1005EA8B: transcode (avconv.c:2803)
==38450==    by 0x1005EA8B: main (avconv.c:2972)
==38450==  Address 0x16f521b8 is 460,792 bytes inside a block of size 460,800 alloc'd
==38450==    at 0x4088C90: memalign (vg_replace_malloc.c:857)
==38450==    by 0x4088DFF: posix_memalign (vg_replace_malloc.c:1020)
==38450==    by 0x108B2617: av_malloc (mem.c:71)
==38450==    by 0x1089E7E7: av_buffer_alloc (buffer.c:72)
==38450==    by 0x108A96F3: get_video_buffer (frame.c:119)
==38450==    by 0x108A96F3: av_frame_get_buffer (frame.c:196)
==38450==    by 0x1009C027: ff_default_get_video_buffer (video.c:55)
==38450==    by 0x1009C027: ff_get_video_buffer (video.c:73)
==38450==    by 0x1009C027: ff_null_get_video_buffer (video.c:33)
==38450==    by 0x1009BFB3: ff_get_video_buffer (video.c:70)
==38450==    by 0x1009BFB3: ff_null_get_video_buffer (video.c:33)
==38450==    by 0x1009C20B: ff_get_video_buffer (video.c:70)
==38450==    by 0x1009608F: filter_frame (vf_scale.c:276)
==38450==    by 0x1007DA03: ff_filter_frame (avfilter.c:700)
==38450==    by 0x1007DA03: default_filter_frame (avfilter.c:640)
==38450==    by 0x10080283: ff_filter_frame (avfilter.c:700)
==38450==    by 0x10082B13: request_frame (buffersrc.c:399)
==38450== 
==38450== Invalid read of size 16
==38450==    at 0x10480BCC: get_pixels_vsx (pixblockdsp.c:139)
==38450==    by 0x1023BA53: dnxhd_get_blocks (dnxhdenc.c:576)
==38450==    by 0x1023BA53: dnxhd_encode_thread (dnxhdenc.c:674)
==38450==    by 0x1023DA4F: dnxhd_encode_picture (dnxhdenc.c:1071)
==38450==    by 0x10262EE3: avcodec_encode_video2 (encode.c:227)
==38450==    by 0x10263103: do_encode (encode.c:274)
==38450==    by 0x1026336F: avcodec_send_frame (encode.c:323)
==38450==    by 0x100775D7: do_video_out (avconv.c:587)
==38450==    by 0x100775D7: poll_filter (avconv.c:726)
==38450==    by 0x10077DAF: poll_filters (avconv.c:800)
==38450==    by 0x1005EA8B: transcode (avconv.c:2803)
==38450==    by 0x1005EA8B: main (avconv.c:2972)
==38450==  Address 0x16e71078 is 921,592 bytes inside a block of size 921,600 alloc'd
==38450==    at 0x4088C90: memalign (vg_replace_malloc.c:857)
==38450==    by 0x4088DFF: posix_memalign (vg_replace_malloc.c:1020)
==38450==    by 0x108B2617: av_malloc (mem.c:71)
==38450==    by 0x1089E7E7: av_buffer_alloc (buffer.c:72)
==38450==    by 0x108A96F3: get_video_buffer (frame.c:119)
==38450==    by 0x108A96F3: av_frame_get_buffer (frame.c:196)
==38450==    by 0x1009C027: ff_default_get_video_buffer (video.c:55)
==38450==    by 0x1009C027: ff_get_video_buffer (video.c:73)
==38450==    by 0x1009C027: ff_null_get_video_buffer (video.c:33)
==38450==    by 0x1009BFB3: ff_get_video_buffer (video.c:70)
==38450==    by 0x1009BFB3: ff_null_get_video_buffer (video.c:33)
==38450==    by 0x1009C20B: ff_get_video_buffer (video.c:70)
==38450==    by 0x1009608F: filter_frame (vf_scale.c:276)
==38450==    by 0x1007DA03: ff_filter_frame (avfilter.c:700)
==38450==    by 0x1007DA03: default_filter_frame (avfilter.c:640)
==38450==    by 0x10080283: ff_filter_frame (avfilter.c:700)
==38450==    by 0x10082B13: request_frame (buffersrc.c:399)
==38450== 
==38450== Invalid read of size 16
==38450==    at 0x10480BCC: get_pixels_vsx (pixblockdsp.c:139)
==38450==    by 0x1023BA83: dnxhd_get_blocks (dnxhdenc.c:578)
==38450==    by 0x1023BA83: dnxhd_encode_thread (dnxhdenc.c:674)
==38450==    by 0x1023DA4F: dnxhd_encode_picture (dnxhdenc.c:1071)
==38450==    by 0x10262EE3: avcodec_encode_video2 (encode.c:227)
==38450==    by 0x10263103: do_encode (encode.c:274)
==38450==    by 0x1026336F: avcodec_send_frame (encode.c:323)
==38450==    by 0x100775D7: do_video_out (avconv.c:587)
==38450==    by 0x100775D7: poll_filter (avconv.c:726)
==38450==    by 0x10077DAF: poll_filters (avconv.c:800)
==38450==    by 0x1005EA8B: transcode (avconv.c:2803)
==38450==    by 0x1005EA8B: main (avconv.c:2972)
==38450==  Address 0x16ee1918 is 460,792 bytes inside a block of size 460,800 alloc'd
==38450==    at 0x4088C90: memalign (vg_replace_malloc.c:857)
==38450==    by 0x4088DFF: posix_memalign (vg_replace_malloc.c:1020)
==38450==    by 0x108B2617: av_malloc (mem.c:71)
==38450==    by 0x1089E7E7: av_buffer_alloc (buffer.c:72)
==38450==    by 0x108A96F3: get_video_buffer (frame.c:119)
==38450==    by 0x108A96F3: av_frame_get_buffer (frame.c:196)
==38450==    by 0x1009C027: ff_default_get_video_buffer (video.c:55)
==38450==    by 0x1009C027: ff_get_video_buffer (video.c:73)
==38450==    by 0x1009C027: ff_null_get_video_buffer (video.c:33)
==38450==    by 0x1009BFB3: ff_get_video_buffer (video.c:70)
==38450==    by 0x1009BFB3: ff_null_get_video_buffer (video.c:33)
==38450==    by 0x1009C20B: ff_get_video_buffer (video.c:70)
==38450==    by 0x1009608F: filter_frame (vf_scale.c:276)
==38450==    by 0x1007DA03: ff_filter_frame (avfilter.c:700)
==38450==    by 0x1007DA03: default_filter_frame (avfilter.c:640)
==38450==    by 0x10080283: ff_filter_frame (avfilter.c:700)
==38450==    by 0x10082B13: request_frame (buffersrc.c:399)
==38450== 
==38450== Invalid read of size 16
==38450==    at 0x10480BCC: get_pixels_vsx (pixblockdsp.c:139)
==38450==    by 0x1023BAB3: dnxhd_get_blocks (dnxhdenc.c:580)
==38450==    by 0x1023BAB3: dnxhd_encode_thread (dnxhdenc.c:674)
==38450==    by 0x1023DA4F: dnxhd_encode_picture (dnxhdenc.c:1071)
==38450==    by 0x10262EE3: avcodec_encode_video2 (encode.c:227)
==38450==    by 0x10263103: do_encode (encode.c:274)
==38450==    by 0x1026336F: avcodec_send_frame (encode.c:323)
==38450==    by 0x100775D7: do_video_out (avconv.c:587)
==38450==    by 0x100775D7: poll_filter (avconv.c:726)
==38450==    by 0x10077DAF: poll_filters (avconv.c:800)
==38450==    by 0x1005EA8B: transcode (avconv.c:2803)
==38450==    by 0x1005EA8B: main (avconv.c:2972)
==38450==  Address 0x16f521b8 is 460,792 bytes inside a block of size 460,800 alloc'd
==38450==    at 0x4088C90: memalign (vg_replace_malloc.c:857)
==38450==    by 0x4088DFF: posix_memalign (vg_replace_malloc.c:1020)
==38450==    by 0x108B2617: av_malloc (mem.c:71)
==38450==    by 0x1089E7E7: av_buffer_alloc (buffer.c:72)
==38450==    by 0x108A96F3: get_video_buffer (frame.c:119)
==38450==    by 0x108A96F3: av_frame_get_buffer (frame.c:196)
==38450==    by 0x1009C027: ff_default_get_video_buffer (video.c:55)
==38450==    by 0x1009C027: ff_get_video_buffer (video.c:73)
==38450==    by 0x1009C027: ff_null_get_video_buffer (video.c:33)
==38450==    by 0x1009BFB3: ff_get_video_buffer (video.c:70)
==38450==    by 0x1009BFB3: ff_null_get_video_buffer (video.c:33)
==38450==    by 0x1009C20B: ff_get_video_buffer (video.c:70)
==38450==    by 0x1009608F: filter_frame (vf_scale.c:276)
==38450==    by 0x1007DA03: ff_filter_frame (avfilter.c:700)
==38450==    by 0x1007DA03: default_filter_frame (avfilter.c:640)
==38450==    by 0x10080283: ff_filter_frame (avfilter.c:700)
==38450==    by 0x10082B13: request_frame (buffersrc.c:399)
==38450== 
frame=    5 fps=  1 q=1.0 Lsize=    2240kB time=0.16 bitrate=114688.0kbits/s    
video:2240kB audio:0kB other streams:0kB global headers:0kB muxing overhead: 0.000000%
==38450== 
==38450== HEAP SUMMARY:
==38450==     in use at exit: 0 bytes in 0 blocks
==38450==   total heap usage: 1,765 allocs, 1,765 frees, 22,012,223 bytes allocated
==38450== 
==38450== All heap blocks were freed -- no leaks are possible
==38450== 
==38450== For counts of detected and suppressed errors, rerun with: -v
==38450== ERROR SUMMARY: 30 errors from 6 contexts (suppressed: 0 from 0)
diffstderrvsynth2-dnxhd-720p-rd1v12_dev0-1345-g0181ae9
--- /home/mik/src/fate/src/tests/ref/vsynth/vsynth2-dnxhd-720p-rd	2014-11-30 15:37:05.674204650 +0000
+++ tests/data/fate/vsynth2-dnxhd-720p-rd	2018-04-16 01:34:57.936382091 +0000
@@ -1,4 +0,0 @@
-819a7714098e098981bf08253ef2e490 *tests/data/fate/vsynth2-dnxhd-720p-rd.dnxhd
-2293760 tests/data/fate/vsynth2-dnxhd-720p-rd.dnxhd
-a05c35b99e5e74a9c8b3a9c66da01775 *tests/data/fate/vsynth2-dnxhd-720p-rd.out.rawvideo
-stddev:    1.53 PSNR: 44.39 MAXDIFF:   31 bytes:  7603200/   760320
==38465== Memcheck, a memory error detector
==38465== Copyright (C) 2002-2015, and GNU GPL'd, by Julian Seward et al.
==38465== Using Valgrind-3.12.0.SVN and LibVEX; rerun with -h for copyright info
==38465== Command: /home/mik/src/fate/ppc64-linux-gcc-valgrind/build/avconv -nostats -cpuflags all -f rawvideo -s 352x288 -pix_fmt yuv420p -threads 1 -idct simple -flags +bitexact -sws_flags +accurate_rnd+bitexact -fflags +bitexact -hwaccel none -threads 1 -thread_type frame+slice -i /home/mik/src/fate/ppc64-linux-gcc-valgrind/build/tests/data/vsynth2.yuv -threads 1 -idct simple -dct fastint -c dnxhd -s hd720 -b 90M -threads 4 -mbd rd -pix_fmt yuv422p -frames 5 -flags +bitexact -sws_flags +accurate_rnd+bitexact -fflags +bitexact -f dnxhd -y /home/mik/src/fate/ppc64-linux-gcc-valgrind/build/tests/data/fate/vsynth2-dnxhd-720p-rd.dnxhd
==38465== 
avconv version v13_dev0-1531-g347aa8f, Copyright (c) 2000-2018 the Libav developers
  built on Apr 16 2018 01:11:25 with gcc 5.5.0 (GCC)
[rawvideo @ 0x46caec0] Estimating duration from bitrate, this may be inaccurate
Input #0, rawvideo, from '/home/mik/src/fate/ppc64-linux-gcc-valgrind/build/tests/data/vsynth2.yuv':
  Duration: N/A, start: 0.000000, bitrate: N/A
    Stream #0:0: Video: rawvideo
      yuv420p, 352x288
      25 fps, 25 tbn
Stream mapping:
  Stream #0:0 -> #0:0 (rawvideo (native) -> dnxhd (native))
Press ctrl-c to stop encoding
Output #0, dnxhd, to '/home/mik/src/fate/ppc64-linux-gcc-valgrind/build/tests/data/fate/vsynth2-dnxhd-720p-rd.dnxhd':
    Stream #0:0: Video: dnxhd
      yuv422p, 1280x720, q=2-31, 90000 kb/s
      25 tbn
    Metadata:
      encoder         : dnxhd
==38465== Thread 67:
==38465== Invalid read of size 16
==38465==    at 0x10480BCC: get_pixels_vsx (pixblockdsp.c:139)
==38465==    by 0x1023C3AF: dnxhd_get_blocks (dnxhdenc.c:576)
==38465==    by 0x1023C3AF: dnxhd_calc_bits_thread (dnxhdenc.c:619)
==38465==    by 0x43DC95B: start_thread (in /usr/lib64/libpthread-2.17.so)
==38465==    by 0x4563BBB: clone (in /usr/lib64/libc-2.17.so)
==38465==  Address 0x17e71078 is 921,592 bytes inside a block of size 921,600 alloc'd
==38465==    at 0x4088C90: memalign (vg_replace_malloc.c:857)
==38465==    by 0x4088DFF: posix_memalign (vg_replace_malloc.c:1020)
==38465==    by 0x108B2617: av_malloc (mem.c:71)
==38465==    by 0x1089E7E7: av_buffer_alloc (buffer.c:72)
==38465==    by 0x108A96F3: get_video_buffer (frame.c:119)
==38465==    by 0x108A96F3: av_frame_get_buffer (frame.c:196)
==38465==    by 0x1009C027: ff_default_get_video_buffer (video.c:55)
==38465==    by 0x1009C027: ff_get_video_buffer (video.c:73)
==38465==    by 0x1009C027: ff_null_get_video_buffer (video.c:33)
==38465==    by 0x1009BFB3: ff_get_video_buffer (video.c:70)
==38465==    by 0x1009BFB3: ff_null_get_video_buffer (video.c:33)
==38465==    by 0x1009C20B: ff_get_video_buffer (video.c:70)
==38465==    by 0x1009608F: filter_frame (vf_scale.c:276)
==38465==    by 0x1007DA03: ff_filter_frame (avfilter.c:700)
==38465==    by 0x1007DA03: default_filter_frame (avfilter.c:640)
==38465==    by 0x10080283: ff_filter_frame (avfilter.c:700)
==38465==    by 0x10082B13: request_frame (buffersrc.c:399)
==38465== 
==38465== Invalid read of size 16
==38465==    at 0x10480BCC: get_pixels_vsx (pixblockdsp.c:139)
==38465==    by 0x1023C3DF: dnxhd_get_blocks (dnxhdenc.c:578)
==38465==    by 0x1023C3DF: dnxhd_calc_bits_thread (dnxhdenc.c:619)
==38465==    by 0x43DC95B: start_thread (in /usr/lib64/libpthread-2.17.so)
==38465==    by 0x4563BBB: clone (in /usr/lib64/libc-2.17.so)
==38465==  Address 0x17ee1918 is 460,792 bytes inside a block of size 460,800 alloc'd
==38465==    at 0x4088C90: memalign (vg_replace_malloc.c:857)
==38465==    by 0x4088DFF: posix_memalign (vg_replace_malloc.c:1020)
==38465==    by 0x108B2617: av_malloc (mem.c:71)
==38465==    by 0x1089E7E7: av_buffer_alloc (buffer.c:72)
==38465==    by 0x108A96F3: get_video_buffer (frame.c:119)
==38465==    by 0x108A96F3: av_frame_get_buffer (frame.c:196)
==38465==    by 0x1009C027: ff_default_get_video_buffer (video.c:55)
==38465==    by 0x1009C027: ff_get_video_buffer (video.c:73)
==38465==    by 0x1009C027: ff_null_get_video_buffer (video.c:33)
==38465==    by 0x1009BFB3: ff_get_video_buffer (video.c:70)
==38465==    by 0x1009BFB3: ff_null_get_video_buffer (video.c:33)
==38465==    by 0x1009C20B: ff_get_video_buffer (video.c:70)
==38465==    by 0x1009608F: filter_frame (vf_scale.c:276)
==38465==    by 0x1007DA03: ff_filter_frame (avfilter.c:700)
==38465==    by 0x1007DA03: default_filter_frame (avfilter.c:640)
==38465==    by 0x10080283: ff_filter_frame (avfilter.c:700)
==38465==    by 0x10082B13: request_frame (buffersrc.c:399)
==38465== 
==38465== Invalid read of size 16
==38465==    at 0x10480BCC: get_pixels_vsx (pixblockdsp.c:139)
==38465==    by 0x1023C40F: dnxhd_get_blocks (dnxhdenc.c:580)
==38465==    by 0x1023C40F: dnxhd_calc_bits_thread (dnxhdenc.c:619)
==38465==    by 0x43DC95B: start_thread (in /usr/lib64/libpthread-2.17.so)
==38465==    by 0x4563BBB: clone (in /usr/lib64/libc-2.17.so)
==38465==  Address 0x17f521b8 is 460,792 bytes inside a block of size 460,800 alloc'd
==38465==    at 0x4088C90: memalign (vg_replace_malloc.c:857)
==38465==    by 0x4088DFF: posix_memalign (vg_replace_malloc.c:1020)
==38465==    by 0x108B2617: av_malloc (mem.c:71)
==38465==    by 0x1089E7E7: av_buffer_alloc (buffer.c:72)
==38465==    by 0x108A96F3: get_video_buffer (frame.c:119)
==38465==    by 0x108A96F3: av_frame_get_buffer (frame.c:196)
==38465==    by 0x1009C027: ff_default_get_video_buffer (video.c:55)
==38465==    by 0x1009C027: ff_get_video_buffer (video.c:73)
==38465==    by 0x1009C027: ff_null_get_video_buffer (video.c:33)
==38465==    by 0x1009BFB3: ff_get_video_buffer (video.c:70)
==38465==    by 0x1009BFB3: ff_null_get_video_buffer (video.c:33)
==38465==    by 0x1009C20B: ff_get_video_buffer (video.c:70)
==38465==    by 0x1009608F: filter_frame (vf_scale.c:276)
==38465==    by 0x1007DA03: ff_filter_frame (avfilter.c:700)
==38465==    by 0x1007DA03: default_filter_frame (avfilter.c:640)
==38465==    by 0x10080283: ff_filter_frame (avfilter.c:700)
==38465==    by 0x10082B13: request_frame (buffersrc.c:399)
==38465== 
==38465== Thread 69:
==38465== Invalid read of size 16
==38465==    at 0x10480BCC: get_pixels_vsx (pixblockdsp.c:139)
==38465==    by 0x1023BA53: dnxhd_get_blocks (dnxhdenc.c:576)
==38465==    by 0x1023BA53: dnxhd_encode_thread (dnxhdenc.c:674)
==38465==    by 0x43DC95B: start_thread (in /usr/lib64/libpthread-2.17.so)
==38465==    by 0x4563BBB: clone (in /usr/lib64/libc-2.17.so)
==38465==  Address 0x17e71078 is 921,592 bytes inside a block of size 921,600 alloc'd
==38465==    at 0x4088C90: memalign (vg_replace_malloc.c:857)
==38465==    by 0x4088DFF: posix_memalign (vg_replace_malloc.c:1020)
==38465==    by 0x108B2617: av_malloc (mem.c:71)
==38465==    by 0x1089E7E7: av_buffer_alloc (buffer.c:72)
==38465==    by 0x108A96F3: get_video_buffer (frame.c:119)
==38465==    by 0x108A96F3: av_frame_get_buffer (frame.c:196)
==38465==    by 0x1009C027: ff_default_get_video_buffer (video.c:55)
==38465==    by 0x1009C027: ff_get_video_buffer (video.c:73)
==38465==    by 0x1009C027: ff_null_get_video_buffer (video.c:33)
==38465==    by 0x1009BFB3: ff_get_video_buffer (video.c:70)
==38465==    by 0x1009BFB3: ff_null_get_video_buffer (video.c:33)
==38465==    by 0x1009C20B: ff_get_video_buffer (video.c:70)
==38465==    by 0x1009608F: filter_frame (vf_scale.c:276)
==38465==    by 0x1007DA03: ff_filter_frame (avfilter.c:700)
==38465==    by 0x1007DA03: default_filter_frame (avfilter.c:640)
==38465==    by 0x10080283: ff_filter_frame (avfilter.c:700)
==38465==    by 0x10082B13: request_frame (buffersrc.c:399)
==38465== 
==38465== Invalid read of size 16
==38465==    at 0x10480BCC: get_pixels_vsx (pixblockdsp.c:139)
==38465==    by 0x1023BA83: dnxhd_get_blocks (dnxhdenc.c:578)
==38465==    by 0x1023BA83: dnxhd_encode_thread (dnxhdenc.c:674)
==38465==    by 0x43DC95B: start_thread (in /usr/lib64/libpthread-2.17.so)
==38465==    by 0x4563BBB: clone (in /usr/lib64/libc-2.17.so)
==38465==  Address 0x17ee1918 is 460,792 bytes inside a block of size 460,800 alloc'd
==38465==    at 0x4088C90: memalign (vg_replace_malloc.c:857)
==38465==    by 0x4088DFF: posix_memalign (vg_replace_malloc.c:1020)
==38465==    by 0x108B2617: av_malloc (mem.c:71)
==38465==    by 0x1089E7E7: av_buffer_alloc (buffer.c:72)
==38465==    by 0x108A96F3: get_video_buffer (frame.c:119)
==38465==    by 0x108A96F3: av_frame_get_buffer (frame.c:196)
==38465==    by 0x1009C027: ff_default_get_video_buffer (video.c:55)
==38465==    by 0x1009C027: ff_get_video_buffer (video.c:73)
==38465==    by 0x1009C027: ff_null_get_video_buffer (video.c:33)
==38465==    by 0x1009BFB3: ff_get_video_buffer (video.c:70)
==38465==    by 0x1009BFB3: ff_null_get_video_buffer (video.c:33)
==38465==    by 0x1009C20B: ff_get_video_buffer (video.c:70)
==38465==    by 0x1009608F: filter_frame (vf_scale.c:276)
==38465==    by 0x1007DA03: ff_filter_frame (avfilter.c:700)
==38465==    by 0x1007DA03: default_filter_frame (avfilter.c:640)
==38465==    by 0x10080283: ff_filter_frame (avfilter.c:700)
==38465==    by 0x10082B13: request_frame (buffersrc.c:399)
==38465== 
==38465== Invalid read of size 16
==38465==    at 0x10480BCC: get_pixels_vsx (pixblockdsp.c:139)
==38465==    by 0x1023BAB3: dnxhd_get_blocks (dnxhdenc.c:580)
==38465==    by 0x1023BAB3: dnxhd_encode_thread (dnxhdenc.c:674)
==38465==    by 0x43DC95B: start_thread (in /usr/lib64/libpthread-2.17.so)
==38465==    by 0x4563BBB: clone (in /usr/lib64/libc-2.17.so)
==38465==  Address 0x17f521b8 is 460,792 bytes inside a block of size 460,800 alloc'd
==38465==    at 0x4088C90: memalign (vg_replace_malloc.c:857)
==38465==    by 0x4088DFF: posix_memalign (vg_replace_malloc.c:1020)
==38465==    by 0x108B2617: av_malloc (mem.c:71)
==38465==    by 0x1089E7E7: av_buffer_alloc (buffer.c:72)
==38465==    by 0x108A96F3: get_video_buffer (frame.c:119)
==38465==    by 0x108A96F3: av_frame_get_buffer (frame.c:196)
==38465==    by 0x1009C027: ff_default_get_video_buffer (video.c:55)
==38465==    by 0x1009C027: ff_get_video_buffer (video.c:73)
==38465==    by 0x1009C027: ff_null_get_video_buffer (video.c:33)
==38465==    by 0x1009BFB3: ff_get_video_buffer (video.c:70)
==38465==    by 0x1009BFB3: ff_null_get_video_buffer (video.c:33)
==38465==    by 0x1009C20B: ff_get_video_buffer (video.c:70)
==38465==    by 0x1009608F: filter_frame (vf_scale.c:276)
==38465==    by 0x1007DA03: ff_filter_frame (avfilter.c:700)
==38465==    by 0x1007DA03: default_filter_frame (avfilter.c:640)
==38465==    by 0x10080283: ff_filter_frame (avfilter.c:700)
==38465==    by 0x10082B13: request_frame (buffersrc.c:399)
==38465== 
frame=    5 fps=  0 q=30.0 Lsize=    2240kB time=0.16 bitrate=114688.0kbits/s    
video:2240kB audio:0kB other streams:0kB global headers:0kB muxing overhead: 0.000000%
==38465== 
==38465== HEAP SUMMARY:
==38465==     in use at exit: 0 bytes in 0 blocks
==38465==   total heap usage: 1,790 allocs, 1,790 frees, 22,020,399 bytes allocated
==38465== 
==38465== All heap blocks were freed -- no leaks are possible
==38465== 
==38465== For counts of detected and suppressed errors, rerun with: -v
==38465== ERROR SUMMARY: 465 errors from 6 contexts (suppressed: 0 from 0)