ppc64-linux-gcc-valgrind v13_dev0-1502-g43778a5

Architectureppc
Variantppc64
CPUgeneric
OSlinux
Ownerkostylev
Compilergcc 5.5.0 (GCC)
Configuration--enable-gpl --prefix=/home/mik/src/fate/ppc64-linux-gcc-valgrind/install --samples=/home/mik/src/fate/fate-suite --cc=gcc-5 --target-exec='valgrind --leak-check=full --show-reachable=yes --error-exitcode=1 --malloc-fill=0x4a --undef-value-errors=no'
Commentvalgrind --undef-value-errors=no
Revisionv13_dev0-1502-g43778a5
Date2018-03-13 01:38:42
Status2142 / 2147
Warnings67
Logscompile configure test
5 failed testsStatusLast good rev
diffstderrsvq3-21n / a
--- /home/mik/src/fate/src/tests/ref/fate/svq3-2	2017-02-27 10:07:05.303380676 +0000
+++ tests/data/fate/svq3-2	2018-03-13 01:25:08.635421763 +0000
@@ -1,5 +1,5 @@
 #tb 0: 1/19200
-0,     -20000,     -20000,        0,   185280, 0x061c0d85
+0,     -20000,     -20000,        0,   185280, 0xc0bd953f
 0,     -19200,     -19200,        0,   185280, 0x427ef9a7
 0,     -18400,     -18400,        0,   185280, 0x64c74d6a
 0,     -17600,     -17600,        0,   185280, 0x5bfd0e5b
==60755== Memcheck, a memory error detector
==60755== Copyright (C) 2002-2015, and GNU GPL'd, by Julian Seward et al.
==60755== Using Valgrind-3.12.0.SVN and LibVEX; rerun with -h for copyright info
==60755== Command: /home/mik/src/fate/ppc64-linux-gcc-valgrind/build/avconv -nostats -cpuflags all -flags +bitexact -hwaccel none -threads 1 -thread_type frame+slice -i /home/mik/src/fate/fate-suite/svq3/svq3_decoding_regression.mov -an -f framecrc -
==60755== 
avconv version v13_dev0-1502-g43778a5, Copyright (c) 2000-2018 the Libav developers
  built on Mar 13 2018 01:11:36 with gcc 5.5.0 (GCC)
Input #0, mov,mp4,m4a,3gp,3g2,mj2, from '/home/mik/src/fate/fate-suite/svq3/svq3_decoding_regression.mov':
  Metadata:
    major_brand     : qt  
    minor_version   : 512
    compatible_brands: qt  
    artist          : Mark Strube - SupaDupaStrube@msn.com
    artist-eng      : Mark Strube - SupaDupaStrube@msn.com
    title           : Movie-List Presents: The Abyss
    title-eng       : Movie-List Presents: The Abyss
    encoder         : Lavf57.66.101
    copyright       : © 1989 Twentieth Century Fox
    copyright-eng   : © 1989 Twentieth Century Fox
  Duration: 00:00:00.83, bitrate: 2376 kb/s
    Stream #0:0(eng): Video: svq3 [SVQ3 / 0x33515653]
      yuvj420p, pc, 480x257, 2366 kb/s
      24 fps, 19200 tbn (default)
    Metadata:
      handler_name    : DataHandler
      encoder         : Sorenson Video 3
Stream mapping:
  Stream #0:0 -> #0:0 (svq3 (native) -> rawvideo (native))
Press ctrl-c to stop encoding
[svq3 @ 0x4727680] Missing reference frame.
Output #0, framecrc, to 'pipe:':
  Metadata:
    major_brand     : qt  
    minor_version   : 512
    compatible_brands: qt  
    artist          : Mark Strube - SupaDupaStrube@msn.com
    artist-eng      : Mark Strube - SupaDupaStrube@msn.com
    title           : Movie-List Presents: The Abyss
    title-eng       : Movie-List Presents: The Abyss
    copyright-eng   : © 1989 Twentieth Century Fox
    copyright       : © 1989 Twentieth Century Fox
    encoder         : Lavf58.1.0
    Stream #0:0(eng): Video: rawvideo [I420 / 0x30323449]
      yuvj420p, 480x257, q=2-31, 200 kb/s
      19200 tbn (default)
    Metadata:
      handler_name    : DataHandler
      encoder         : Sorenson Video 3
*** dropping frame 19 from stream 0 at ts -6400
frame=   19 fps=  0 q=-0.0 Lsize=       1kB time=10000000000.00 bitrate=   0.0kbits/s drop=1    
video:3438kB audio:0kB other streams:0kB global headers:0kB muxing overhead: unknown
==60755== 
==60755== HEAP SUMMARY:
==60755==     in use at exit: 0 bytes in 0 blocks
==60755==   total heap usage: 1,668 allocs, 1,668 frees, 8,678,242 bytes allocated
==60755== 
==60755== All heap blocks were freed -- no leaks are possible
==60755== 
==60755== For counts of detected and suppressed errors, rerun with: -v
==60755== ERROR SUMMARY: 0 errors from 0 contexts (suppressed: 0 from 0)
diffstderrvsynth1-dnxhd-720p1v12_dev0-1345-g0181ae9
--- /home/mik/src/fate/src/tests/ref/vsynth/vsynth1-dnxhd-720p	2014-01-10 11:16:55.734697630 +0000
+++ tests/data/fate/vsynth1-dnxhd-720p	2018-03-13 01:32:26.187259473 +0000
@@ -1,4 +0,0 @@
-81f5be451dc18cf8a1d333c7885de60b *tests/data/fate/vsynth1-dnxhd-720p.dnxhd
-2293760 tests/data/fate/vsynth1-dnxhd-720p.dnxhd
-94b21e5e68ccf9471eff74afd0ebe319 *tests/data/fate/vsynth1-dnxhd-720p.out.rawvideo
-stddev:    6.32 PSNR: 32.11 MAXDIFF:  183 bytes:  7603200/   760320
==25405== Memcheck, a memory error detector
==25405== Copyright (C) 2002-2015, and GNU GPL'd, by Julian Seward et al.
==25405== Using Valgrind-3.12.0.SVN and LibVEX; rerun with -h for copyright info
==25405== Command: /home/mik/src/fate/ppc64-linux-gcc-valgrind/build/avconv -nostats -cpuflags all -f rawvideo -s 352x288 -pix_fmt yuv420p -threads 1 -idct simple -flags +bitexact -sws_flags +accurate_rnd+bitexact -fflags +bitexact -hwaccel none -threads 1 -thread_type frame+slice -i /home/mik/src/fate/ppc64-linux-gcc-valgrind/build/tests/data/vsynth1.yuv -threads 1 -idct simple -dct fastint -c dnxhd -s hd720 -b 90M -pix_fmt yuv422p -frames 5 -flags +bitexact -sws_flags +accurate_rnd+bitexact -fflags +bitexact -f dnxhd -y /home/mik/src/fate/ppc64-linux-gcc-valgrind/build/tests/data/fate/vsynth1-dnxhd-720p.dnxhd
==25405== 
avconv version v13_dev0-1502-g43778a5, Copyright (c) 2000-2018 the Libav developers
  built on Mar 13 2018 01:11:36 with gcc 5.5.0 (GCC)
[rawvideo @ 0x46cae20] Estimating duration from bitrate, this may be inaccurate
Input #0, rawvideo, from '/home/mik/src/fate/ppc64-linux-gcc-valgrind/build/tests/data/vsynth1.yuv':
  Duration: N/A, start: 0.000000, bitrate: N/A
    Stream #0:0: Video: rawvideo
      yuv420p, 352x288
      25 fps, 25 tbn
Stream mapping:
  Stream #0:0 -> #0:0 (rawvideo (native) -> dnxhd (native))
Press ctrl-c to stop encoding
Output #0, dnxhd, to '/home/mik/src/fate/ppc64-linux-gcc-valgrind/build/tests/data/fate/vsynth1-dnxhd-720p.dnxhd':
    Stream #0:0: Video: dnxhd
      yuv422p, 1280x720, q=2-31, 90000 kb/s
      25 tbn
    Metadata:
      encoder         : dnxhd
==25405== Invalid read of size 16
==25405==    at 0x10480BCC: get_pixels_vsx (pixblockdsp.c:139)
==25405==    by 0x1023C3AF: dnxhd_get_blocks (dnxhdenc.c:576)
==25405==    by 0x1023C3AF: dnxhd_calc_bits_thread (dnxhdenc.c:619)
==25405==    by 0x1023D313: dnxhd_find_qscale (dnxhdenc.c:866)
==25405==    by 0x1023D313: dnxhd_encode_fast (dnxhdenc.c:969)
==25405==    by 0x1023D313: dnxhd_encode_picture (dnxhdenc.c:1055)
==25405==    by 0x10262EE3: avcodec_encode_video2 (encode.c:227)
==25405==    by 0x10263103: do_encode (encode.c:274)
==25405==    by 0x1026336F: avcodec_send_frame (encode.c:323)
==25405==    by 0x100775D7: do_video_out (avconv.c:587)
==25405==    by 0x100775D7: poll_filter (avconv.c:726)
==25405==    by 0x10077DAF: poll_filters (avconv.c:800)
==25405==    by 0x1005EA8B: transcode (avconv.c:2803)
==25405==    by 0x1005EA8B: main (avconv.c:2972)
==25405==  Address 0x16e71078 is 921,592 bytes inside a block of size 921,600 alloc'd
==25405==    at 0x4088C90: memalign (vg_replace_malloc.c:857)
==25405==    by 0x4088DFF: posix_memalign (vg_replace_malloc.c:1020)
==25405==    by 0x108B2617: av_malloc (mem.c:71)
==25405==    by 0x1089E7E7: av_buffer_alloc (buffer.c:72)
==25405==    by 0x108A96F3: get_video_buffer (frame.c:119)
==25405==    by 0x108A96F3: av_frame_get_buffer (frame.c:196)
==25405==    by 0x1009C027: ff_default_get_video_buffer (video.c:55)
==25405==    by 0x1009C027: ff_get_video_buffer (video.c:73)
==25405==    by 0x1009C027: ff_null_get_video_buffer (video.c:33)
==25405==    by 0x1009BFB3: ff_get_video_buffer (video.c:70)
==25405==    by 0x1009BFB3: ff_null_get_video_buffer (video.c:33)
==25405==    by 0x1009C20B: ff_get_video_buffer (video.c:70)
==25405==    by 0x1009608F: filter_frame (vf_scale.c:276)
==25405==    by 0x1007DA03: ff_filter_frame (avfilter.c:700)
==25405==    by 0x1007DA03: default_filter_frame (avfilter.c:640)
==25405==    by 0x10080283: ff_filter_frame (avfilter.c:700)
==25405==    by 0x10082B13: request_frame (buffersrc.c:399)
==25405== 
==25405== Invalid read of size 16
==25405==    at 0x10480BCC: get_pixels_vsx (pixblockdsp.c:139)
==25405==    by 0x1023C3DF: dnxhd_get_blocks (dnxhdenc.c:578)
==25405==    by 0x1023C3DF: dnxhd_calc_bits_thread (dnxhdenc.c:619)
==25405==    by 0x1023D313: dnxhd_find_qscale (dnxhdenc.c:866)
==25405==    by 0x1023D313: dnxhd_encode_fast (dnxhdenc.c:969)
==25405==    by 0x1023D313: dnxhd_encode_picture (dnxhdenc.c:1055)
==25405==    by 0x10262EE3: avcodec_encode_video2 (encode.c:227)
==25405==    by 0x10263103: do_encode (encode.c:274)
==25405==    by 0x1026336F: avcodec_send_frame (encode.c:323)
==25405==    by 0x100775D7: do_video_out (avconv.c:587)
==25405==    by 0x100775D7: poll_filter (avconv.c:726)
==25405==    by 0x10077DAF: poll_filters (avconv.c:800)
==25405==    by 0x1005EA8B: transcode (avconv.c:2803)
==25405==    by 0x1005EA8B: main (avconv.c:2972)
==25405==  Address 0x16ee1918 is 460,792 bytes inside a block of size 460,800 alloc'd
==25405==    at 0x4088C90: memalign (vg_replace_malloc.c:857)
==25405==    by 0x4088DFF: posix_memalign (vg_replace_malloc.c:1020)
==25405==    by 0x108B2617: av_malloc (mem.c:71)
==25405==    by 0x1089E7E7: av_buffer_alloc (buffer.c:72)
==25405==    by 0x108A96F3: get_video_buffer (frame.c:119)
==25405==    by 0x108A96F3: av_frame_get_buffer (frame.c:196)
==25405==    by 0x1009C027: ff_default_get_video_buffer (video.c:55)
==25405==    by 0x1009C027: ff_get_video_buffer (video.c:73)
==25405==    by 0x1009C027: ff_null_get_video_buffer (video.c:33)
==25405==    by 0x1009BFB3: ff_get_video_buffer (video.c:70)
==25405==    by 0x1009BFB3: ff_null_get_video_buffer (video.c:33)
==25405==    by 0x1009C20B: ff_get_video_buffer (video.c:70)
==25405==    by 0x1009608F: filter_frame (vf_scale.c:276)
==25405==    by 0x1007DA03: ff_filter_frame (avfilter.c:700)
==25405==    by 0x1007DA03: default_filter_frame (avfilter.c:640)
==25405==    by 0x10080283: ff_filter_frame (avfilter.c:700)
==25405==    by 0x10082B13: request_frame (buffersrc.c:399)
==25405== 
==25405== Invalid read of size 16
==25405==    at 0x10480BCC: get_pixels_vsx (pixblockdsp.c:139)
==25405==    by 0x1023C40F: dnxhd_get_blocks (dnxhdenc.c:580)
==25405==    by 0x1023C40F: dnxhd_calc_bits_thread (dnxhdenc.c:619)
==25405==    by 0x1023D313: dnxhd_find_qscale (dnxhdenc.c:866)
==25405==    by 0x1023D313: dnxhd_encode_fast (dnxhdenc.c:969)
==25405==    by 0x1023D313: dnxhd_encode_picture (dnxhdenc.c:1055)
==25405==    by 0x10262EE3: avcodec_encode_video2 (encode.c:227)
==25405==    by 0x10263103: do_encode (encode.c:274)
==25405==    by 0x1026336F: avcodec_send_frame (encode.c:323)
==25405==    by 0x100775D7: do_video_out (avconv.c:587)
==25405==    by 0x100775D7: poll_filter (avconv.c:726)
==25405==    by 0x10077DAF: poll_filters (avconv.c:800)
==25405==    by 0x1005EA8B: transcode (avconv.c:2803)
==25405==    by 0x1005EA8B: main (avconv.c:2972)
==25405==  Address 0x16f521b8 is 460,792 bytes inside a block of size 460,800 alloc'd
==25405==    at 0x4088C90: memalign (vg_replace_malloc.c:857)
==25405==    by 0x4088DFF: posix_memalign (vg_replace_malloc.c:1020)
==25405==    by 0x108B2617: av_malloc (mem.c:71)
==25405==    by 0x1089E7E7: av_buffer_alloc (buffer.c:72)
==25405==    by 0x108A96F3: get_video_buffer (frame.c:119)
==25405==    by 0x108A96F3: av_frame_get_buffer (frame.c:196)
==25405==    by 0x1009C027: ff_default_get_video_buffer (video.c:55)
==25405==    by 0x1009C027: ff_get_video_buffer (video.c:73)
==25405==    by 0x1009C027: ff_null_get_video_buffer (video.c:33)
==25405==    by 0x1009BFB3: ff_get_video_buffer (video.c:70)
==25405==    by 0x1009BFB3: ff_null_get_video_buffer (video.c:33)
==25405==    by 0x1009C20B: ff_get_video_buffer (video.c:70)
==25405==    by 0x1009608F: filter_frame (vf_scale.c:276)
==25405==    by 0x1007DA03: ff_filter_frame (avfilter.c:700)
==25405==    by 0x1007DA03: default_filter_frame (avfilter.c:640)
==25405==    by 0x10080283: ff_filter_frame (avfilter.c:700)
==25405==    by 0x10082B13: request_frame (buffersrc.c:399)
==25405== 
==25405== Invalid read of size 16
==25405==    at 0x10480BCC: get_pixels_vsx (pixblockdsp.c:139)
==25405==    by 0x1023BA53: dnxhd_get_blocks (dnxhdenc.c:576)
==25405==    by 0x1023BA53: dnxhd_encode_thread (dnxhdenc.c:674)
==25405==    by 0x1023DA4F: dnxhd_encode_picture (dnxhdenc.c:1071)
==25405==    by 0x10262EE3: avcodec_encode_video2 (encode.c:227)
==25405==    by 0x10263103: do_encode (encode.c:274)
==25405==    by 0x1026336F: avcodec_send_frame (encode.c:323)
==25405==    by 0x100775D7: do_video_out (avconv.c:587)
==25405==    by 0x100775D7: poll_filter (avconv.c:726)
==25405==    by 0x10077DAF: poll_filters (avconv.c:800)
==25405==    by 0x1005EA8B: transcode (avconv.c:2803)
==25405==    by 0x1005EA8B: main (avconv.c:2972)
==25405==  Address 0x16e71078 is 921,592 bytes inside a block of size 921,600 alloc'd
==25405==    at 0x4088C90: memalign (vg_replace_malloc.c:857)
==25405==    by 0x4088DFF: posix_memalign (vg_replace_malloc.c:1020)
==25405==    by 0x108B2617: av_malloc (mem.c:71)
==25405==    by 0x1089E7E7: av_buffer_alloc (buffer.c:72)
==25405==    by 0x108A96F3: get_video_buffer (frame.c:119)
==25405==    by 0x108A96F3: av_frame_get_buffer (frame.c:196)
==25405==    by 0x1009C027: ff_default_get_video_buffer (video.c:55)
==25405==    by 0x1009C027: ff_get_video_buffer (video.c:73)
==25405==    by 0x1009C027: ff_null_get_video_buffer (video.c:33)
==25405==    by 0x1009BFB3: ff_get_video_buffer (video.c:70)
==25405==    by 0x1009BFB3: ff_null_get_video_buffer (video.c:33)
==25405==    by 0x1009C20B: ff_get_video_buffer (video.c:70)
==25405==    by 0x1009608F: filter_frame (vf_scale.c:276)
==25405==    by 0x1007DA03: ff_filter_frame (avfilter.c:700)
==25405==    by 0x1007DA03: default_filter_frame (avfilter.c:640)
==25405==    by 0x10080283: ff_filter_frame (avfilter.c:700)
==25405==    by 0x10082B13: request_frame (buffersrc.c:399)
==25405== 
==25405== Invalid read of size 16
==25405==    at 0x10480BCC: get_pixels_vsx (pixblockdsp.c:139)
==25405==    by 0x1023BA83: dnxhd_get_blocks (dnxhdenc.c:578)
==25405==    by 0x1023BA83: dnxhd_encode_thread (dnxhdenc.c:674)
==25405==    by 0x1023DA4F: dnxhd_encode_picture (dnxhdenc.c:1071)
==25405==    by 0x10262EE3: avcodec_encode_video2 (encode.c:227)
==25405==    by 0x10263103: do_encode (encode.c:274)
==25405==    by 0x1026336F: avcodec_send_frame (encode.c:323)
==25405==    by 0x100775D7: do_video_out (avconv.c:587)
==25405==    by 0x100775D7: poll_filter (avconv.c:726)
==25405==    by 0x10077DAF: poll_filters (avconv.c:800)
==25405==    by 0x1005EA8B: transcode (avconv.c:2803)
==25405==    by 0x1005EA8B: main (avconv.c:2972)
==25405==  Address 0x16ee1918 is 460,792 bytes inside a block of size 460,800 alloc'd
==25405==    at 0x4088C90: memalign (vg_replace_malloc.c:857)
==25405==    by 0x4088DFF: posix_memalign (vg_replace_malloc.c:1020)
==25405==    by 0x108B2617: av_malloc (mem.c:71)
==25405==    by 0x1089E7E7: av_buffer_alloc (buffer.c:72)
==25405==    by 0x108A96F3: get_video_buffer (frame.c:119)
==25405==    by 0x108A96F3: av_frame_get_buffer (frame.c:196)
==25405==    by 0x1009C027: ff_default_get_video_buffer (video.c:55)
==25405==    by 0x1009C027: ff_get_video_buffer (video.c:73)
==25405==    by 0x1009C027: ff_null_get_video_buffer (video.c:33)
==25405==    by 0x1009BFB3: ff_get_video_buffer (video.c:70)
==25405==    by 0x1009BFB3: ff_null_get_video_buffer (video.c:33)
==25405==    by 0x1009C20B: ff_get_video_buffer (video.c:70)
==25405==    by 0x1009608F: filter_frame (vf_scale.c:276)
==25405==    by 0x1007DA03: ff_filter_frame (avfilter.c:700)
==25405==    by 0x1007DA03: default_filter_frame (avfilter.c:640)
==25405==    by 0x10080283: ff_filter_frame (avfilter.c:700)
==25405==    by 0x10082B13: request_frame (buffersrc.c:399)
==25405== 
==25405== Invalid read of size 16
==25405==    at 0x10480BCC: get_pixels_vsx (pixblockdsp.c:139)
==25405==    by 0x1023BAB3: dnxhd_get_blocks (dnxhdenc.c:580)
==25405==    by 0x1023BAB3: dnxhd_encode_thread (dnxhdenc.c:674)
==25405==    by 0x1023DA4F: dnxhd_encode_picture (dnxhdenc.c:1071)
==25405==    by 0x10262EE3: avcodec_encode_video2 (encode.c:227)
==25405==    by 0x10263103: do_encode (encode.c:274)
==25405==    by 0x1026336F: avcodec_send_frame (encode.c:323)
==25405==    by 0x100775D7: do_video_out (avconv.c:587)
==25405==    by 0x100775D7: poll_filter (avconv.c:726)
==25405==    by 0x10077DAF: poll_filters (avconv.c:800)
==25405==    by 0x1005EA8B: transcode (avconv.c:2803)
==25405==    by 0x1005EA8B: main (avconv.c:2972)
==25405==  Address 0x16f521b8 is 460,792 bytes inside a block of size 460,800 alloc'd
==25405==    at 0x4088C90: memalign (vg_replace_malloc.c:857)
==25405==    by 0x4088DFF: posix_memalign (vg_replace_malloc.c:1020)
==25405==    by 0x108B2617: av_malloc (mem.c:71)
==25405==    by 0x1089E7E7: av_buffer_alloc (buffer.c:72)
==25405==    by 0x108A96F3: get_video_buffer (frame.c:119)
==25405==    by 0x108A96F3: av_frame_get_buffer (frame.c:196)
==25405==    by 0x1009C027: ff_default_get_video_buffer (video.c:55)
==25405==    by 0x1009C027: ff_get_video_buffer (video.c:73)
==25405==    by 0x1009C027: ff_null_get_video_buffer (video.c:33)
==25405==    by 0x1009BFB3: ff_get_video_buffer (video.c:70)
==25405==    by 0x1009BFB3: ff_null_get_video_buffer (video.c:33)
==25405==    by 0x1009C20B: ff_get_video_buffer (video.c:70)
==25405==    by 0x1009608F: filter_frame (vf_scale.c:276)
==25405==    by 0x1007DA03: ff_filter_frame (avfilter.c:700)
==25405==    by 0x1007DA03: default_filter_frame (avfilter.c:640)
==25405==    by 0x10080283: ff_filter_frame (avfilter.c:700)
==25405==    by 0x10082B13: request_frame (buffersrc.c:399)
==25405== 
frame=    5 fps=  0 q=1.0 Lsize=    2240kB time=0.16 bitrate=114688.0kbits/s    
video:2240kB audio:0kB other streams:0kB global headers:0kB muxing overhead: 0.000000%
==25405== 
==25405== HEAP SUMMARY:
==25405==     in use at exit: 0 bytes in 0 blocks
==25405==   total heap usage: 1,770 allocs, 1,770 frees, 22,156,223 bytes allocated
==25405== 
==25405== All heap blocks were freed -- no leaks are possible
==25405== 
==25405== For counts of detected and suppressed errors, rerun with: -v
==25405== ERROR SUMMARY: 45 errors from 6 contexts (suppressed: 0 from 0)
diffstderrvsynth1-dnxhd-720p-rd1v12_dev0-1345-g0181ae9
--- /home/mik/src/fate/src/tests/ref/vsynth/vsynth1-dnxhd-720p-rd	2014-01-10 11:16:55.734697630 +0000
+++ tests/data/fate/vsynth1-dnxhd-720p-rd	2018-03-13 01:32:27.857266487 +0000
@@ -1,4 +0,0 @@
-1dc6e95925c4f3a230848ec17c02abed *tests/data/fate/vsynth1-dnxhd-720p-rd.dnxhd
-2293760 tests/data/fate/vsynth1-dnxhd-720p-rd.dnxhd
-02972d2aec120ec1577ec9053d68ae0f *tests/data/fate/vsynth1-dnxhd-720p-rd.out.rawvideo
-stddev:    6.26 PSNR: 32.19 MAXDIFF:   65 bytes:  7603200/   760320
==25869== Memcheck, a memory error detector
==25869== Copyright (C) 2002-2015, and GNU GPL'd, by Julian Seward et al.
==25869== Using Valgrind-3.12.0.SVN and LibVEX; rerun with -h for copyright info
==25869== Command: /home/mik/src/fate/ppc64-linux-gcc-valgrind/build/avconv -nostats -cpuflags all -f rawvideo -s 352x288 -pix_fmt yuv420p -threads 1 -idct simple -flags +bitexact -sws_flags +accurate_rnd+bitexact -fflags +bitexact -hwaccel none -threads 1 -thread_type frame+slice -i /home/mik/src/fate/ppc64-linux-gcc-valgrind/build/tests/data/vsynth1.yuv -threads 1 -idct simple -dct fastint -c dnxhd -s hd720 -b 90M -threads 4 -mbd rd -pix_fmt yuv422p -frames 5 -flags +bitexact -sws_flags +accurate_rnd+bitexact -fflags +bitexact -f dnxhd -y /home/mik/src/fate/ppc64-linux-gcc-valgrind/build/tests/data/fate/vsynth1-dnxhd-720p-rd.dnxhd
==25869== 
avconv version v13_dev0-1502-g43778a5, Copyright (c) 2000-2018 the Libav developers
  built on Mar 13 2018 01:11:36 with gcc 5.5.0 (GCC)
[rawvideo @ 0x46caec0] Estimating duration from bitrate, this may be inaccurate
Input #0, rawvideo, from '/home/mik/src/fate/ppc64-linux-gcc-valgrind/build/tests/data/vsynth1.yuv':
  Duration: N/A, start: 0.000000, bitrate: N/A
    Stream #0:0: Video: rawvideo
      yuv420p, 352x288
      25 fps, 25 tbn
Stream mapping:
  Stream #0:0 -> #0:0 (rawvideo (native) -> dnxhd (native))
Press ctrl-c to stop encoding
Output #0, dnxhd, to '/home/mik/src/fate/ppc64-linux-gcc-valgrind/build/tests/data/fate/vsynth1-dnxhd-720p-rd.dnxhd':
    Stream #0:0: Video: dnxhd
      yuv422p, 1280x720, q=2-31, 90000 kb/s
      25 tbn
    Metadata:
      encoder         : dnxhd
==25869== Thread 70:
==25869== Invalid read of size 16
==25869==    at 0x10480BCC: get_pixels_vsx (pixblockdsp.c:139)
==25869==    by 0x1023C3AF: dnxhd_get_blocks (dnxhdenc.c:576)
==25869==    by 0x1023C3AF: dnxhd_calc_bits_thread (dnxhdenc.c:619)
==25869==    by 0x43DC95B: start_thread (in /usr/lib64/libpthread-2.17.so)
==25869==    by 0x4563BBB: clone (in /usr/lib64/libc-2.17.so)
==25869==  Address 0x17e71078 is 921,592 bytes inside a block of size 921,600 alloc'd
==25869==    at 0x4088C90: memalign (vg_replace_malloc.c:857)
==25869==    by 0x4088DFF: posix_memalign (vg_replace_malloc.c:1020)
==25869==    by 0x108B2617: av_malloc (mem.c:71)
==25869==    by 0x1089E7E7: av_buffer_alloc (buffer.c:72)
==25869==    by 0x108A96F3: get_video_buffer (frame.c:119)
==25869==    by 0x108A96F3: av_frame_get_buffer (frame.c:196)
==25869==    by 0x1009C027: ff_default_get_video_buffer (video.c:55)
==25869==    by 0x1009C027: ff_get_video_buffer (video.c:73)
==25869==    by 0x1009C027: ff_null_get_video_buffer (video.c:33)
==25869==    by 0x1009BFB3: ff_get_video_buffer (video.c:70)
==25869==    by 0x1009BFB3: ff_null_get_video_buffer (video.c:33)
==25869==    by 0x1009C20B: ff_get_video_buffer (video.c:70)
==25869==    by 0x1009608F: filter_frame (vf_scale.c:276)
==25869==    by 0x1007DA03: ff_filter_frame (avfilter.c:700)
==25869==    by 0x1007DA03: default_filter_frame (avfilter.c:640)
==25869==    by 0x10080283: ff_filter_frame (avfilter.c:700)
==25869==    by 0x10082B13: request_frame (buffersrc.c:399)
==25869== 
==25869== Invalid read of size 16
==25869==    at 0x10480BCC: get_pixels_vsx (pixblockdsp.c:139)
==25869==    by 0x1023C3DF: dnxhd_get_blocks (dnxhdenc.c:578)
==25869==    by 0x1023C3DF: dnxhd_calc_bits_thread (dnxhdenc.c:619)
==25869==    by 0x43DC95B: start_thread (in /usr/lib64/libpthread-2.17.so)
==25869==    by 0x4563BBB: clone (in /usr/lib64/libc-2.17.so)
==25869==  Address 0x17ee1918 is 460,792 bytes inside a block of size 460,800 alloc'd
==25869==    at 0x4088C90: memalign (vg_replace_malloc.c:857)
==25869==    by 0x4088DFF: posix_memalign (vg_replace_malloc.c:1020)
==25869==    by 0x108B2617: av_malloc (mem.c:71)
==25869==    by 0x1089E7E7: av_buffer_alloc (buffer.c:72)
==25869==    by 0x108A96F3: get_video_buffer (frame.c:119)
==25869==    by 0x108A96F3: av_frame_get_buffer (frame.c:196)
==25869==    by 0x1009C027: ff_default_get_video_buffer (video.c:55)
==25869==    by 0x1009C027: ff_get_video_buffer (video.c:73)
==25869==    by 0x1009C027: ff_null_get_video_buffer (video.c:33)
==25869==    by 0x1009BFB3: ff_get_video_buffer (video.c:70)
==25869==    by 0x1009BFB3: ff_null_get_video_buffer (video.c:33)
==25869==    by 0x1009C20B: ff_get_video_buffer (video.c:70)
==25869==    by 0x1009608F: filter_frame (vf_scale.c:276)
==25869==    by 0x1007DA03: ff_filter_frame (avfilter.c:700)
==25869==    by 0x1007DA03: default_filter_frame (avfilter.c:640)
==25869==    by 0x10080283: ff_filter_frame (avfilter.c:700)
==25869==    by 0x10082B13: request_frame (buffersrc.c:399)
==25869== 
==25869== Invalid read of size 16
==25869==    at 0x10480BCC: get_pixels_vsx (pixblockdsp.c:139)
==25869==    by 0x1023C40F: dnxhd_get_blocks (dnxhdenc.c:580)
==25869==    by 0x1023C40F: dnxhd_calc_bits_thread (dnxhdenc.c:619)
==25869==    by 0x43DC95B: start_thread (in /usr/lib64/libpthread-2.17.so)
==25869==    by 0x4563BBB: clone (in /usr/lib64/libc-2.17.so)
==25869==  Address 0x17f521b8 is 460,792 bytes inside a block of size 460,800 alloc'd
==25869==    at 0x4088C90: memalign (vg_replace_malloc.c:857)
==25869==    by 0x4088DFF: posix_memalign (vg_replace_malloc.c:1020)
==25869==    by 0x108B2617: av_malloc (mem.c:71)
==25869==    by 0x1089E7E7: av_buffer_alloc (buffer.c:72)
==25869==    by 0x108A96F3: get_video_buffer (frame.c:119)
==25869==    by 0x108A96F3: av_frame_get_buffer (frame.c:196)
==25869==    by 0x1009C027: ff_default_get_video_buffer (video.c:55)
==25869==    by 0x1009C027: ff_get_video_buffer (video.c:73)
==25869==    by 0x1009C027: ff_null_get_video_buffer (video.c:33)
==25869==    by 0x1009BFB3: ff_get_video_buffer (video.c:70)
==25869==    by 0x1009BFB3: ff_null_get_video_buffer (video.c:33)
==25869==    by 0x1009C20B: ff_get_video_buffer (video.c:70)
==25869==    by 0x1009608F: filter_frame (vf_scale.c:276)
==25869==    by 0x1007DA03: ff_filter_frame (avfilter.c:700)
==25869==    by 0x1007DA03: default_filter_frame (avfilter.c:640)
==25869==    by 0x10080283: ff_filter_frame (avfilter.c:700)
==25869==    by 0x10082B13: request_frame (buffersrc.c:399)
==25869== 
==25869== Thread 67:
==25869== Invalid read of size 16
==25869==    at 0x10480BCC: get_pixels_vsx (pixblockdsp.c:139)
==25869==    by 0x1023BA53: dnxhd_get_blocks (dnxhdenc.c:576)
==25869==    by 0x1023BA53: dnxhd_encode_thread (dnxhdenc.c:674)
==25869==    by 0x43DC95B: start_thread (in /usr/lib64/libpthread-2.17.so)
==25869==    by 0x4563BBB: clone (in /usr/lib64/libc-2.17.so)
==25869==  Address 0x17e71078 is 921,592 bytes inside a block of size 921,600 alloc'd
==25869==    at 0x4088C90: memalign (vg_replace_malloc.c:857)
==25869==    by 0x4088DFF: posix_memalign (vg_replace_malloc.c:1020)
==25869==    by 0x108B2617: av_malloc (mem.c:71)
==25869==    by 0x1089E7E7: av_buffer_alloc (buffer.c:72)
==25869==    by 0x108A96F3: get_video_buffer (frame.c:119)
==25869==    by 0x108A96F3: av_frame_get_buffer (frame.c:196)
==25869==    by 0x1009C027: ff_default_get_video_buffer (video.c:55)
==25869==    by 0x1009C027: ff_get_video_buffer (video.c:73)
==25869==    by 0x1009C027: ff_null_get_video_buffer (video.c:33)
==25869==    by 0x1009BFB3: ff_get_video_buffer (video.c:70)
==25869==    by 0x1009BFB3: ff_null_get_video_buffer (video.c:33)
==25869==    by 0x1009C20B: ff_get_video_buffer (video.c:70)
==25869==    by 0x1009608F: filter_frame (vf_scale.c:276)
==25869==    by 0x1007DA03: ff_filter_frame (avfilter.c:700)
==25869==    by 0x1007DA03: default_filter_frame (avfilter.c:640)
==25869==    by 0x10080283: ff_filter_frame (avfilter.c:700)
==25869==    by 0x10082B13: request_frame (buffersrc.c:399)
==25869== 
==25869== Invalid read of size 16
==25869==    at 0x10480BCC: get_pixels_vsx (pixblockdsp.c:139)
==25869==    by 0x1023BA83: dnxhd_get_blocks (dnxhdenc.c:578)
==25869==    by 0x1023BA83: dnxhd_encode_thread (dnxhdenc.c:674)
==25869==    by 0x43DC95B: start_thread (in /usr/lib64/libpthread-2.17.so)
==25869==    by 0x4563BBB: clone (in /usr/lib64/libc-2.17.so)
==25869==  Address 0x17ee1918 is 460,792 bytes inside a block of size 460,800 alloc'd
==25869==    at 0x4088C90: memalign (vg_replace_malloc.c:857)
==25869==    by 0x4088DFF: posix_memalign (vg_replace_malloc.c:1020)
==25869==    by 0x108B2617: av_malloc (mem.c:71)
==25869==    by 0x1089E7E7: av_buffer_alloc (buffer.c:72)
==25869==    by 0x108A96F3: get_video_buffer (frame.c:119)
==25869==    by 0x108A96F3: av_frame_get_buffer (frame.c:196)
==25869==    by 0x1009C027: ff_default_get_video_buffer (video.c:55)
==25869==    by 0x1009C027: ff_get_video_buffer (video.c:73)
==25869==    by 0x1009C027: ff_null_get_video_buffer (video.c:33)
==25869==    by 0x1009BFB3: ff_get_video_buffer (video.c:70)
==25869==    by 0x1009BFB3: ff_null_get_video_buffer (video.c:33)
==25869==    by 0x1009C20B: ff_get_video_buffer (video.c:70)
==25869==    by 0x1009608F: filter_frame (vf_scale.c:276)
==25869==    by 0x1007DA03: ff_filter_frame (avfilter.c:700)
==25869==    by 0x1007DA03: default_filter_frame (avfilter.c:640)
==25869==    by 0x10080283: ff_filter_frame (avfilter.c:700)
==25869==    by 0x10082B13: request_frame (buffersrc.c:399)
==25869== 
==25869== Invalid read of size 16
==25869==    at 0x10480BCC: get_pixels_vsx (pixblockdsp.c:139)
==25869==    by 0x1023BAB3: dnxhd_get_blocks (dnxhdenc.c:580)
==25869==    by 0x1023BAB3: dnxhd_encode_thread (dnxhdenc.c:674)
==25869==    by 0x43DC95B: start_thread (in /usr/lib64/libpthread-2.17.so)
==25869==    by 0x4563BBB: clone (in /usr/lib64/libc-2.17.so)
==25869==  Address 0x17f521b8 is 460,792 bytes inside a block of size 460,800 alloc'd
==25869==    at 0x4088C90: memalign (vg_replace_malloc.c:857)
==25869==    by 0x4088DFF: posix_memalign (vg_replace_malloc.c:1020)
==25869==    by 0x108B2617: av_malloc (mem.c:71)
==25869==    by 0x1089E7E7: av_buffer_alloc (buffer.c:72)
==25869==    by 0x108A96F3: get_video_buffer (frame.c:119)
==25869==    by 0x108A96F3: av_frame_get_buffer (frame.c:196)
==25869==    by 0x1009C027: ff_default_get_video_buffer (video.c:55)
==25869==    by 0x1009C027: ff_get_video_buffer (video.c:73)
==25869==    by 0x1009C027: ff_null_get_video_buffer (video.c:33)
==25869==    by 0x1009BFB3: ff_get_video_buffer (video.c:70)
==25869==    by 0x1009BFB3: ff_null_get_video_buffer (video.c:33)
==25869==    by 0x1009C20B: ff_get_video_buffer (video.c:70)
==25869==    by 0x1009608F: filter_frame (vf_scale.c:276)
==25869==    by 0x1007DA03: ff_filter_frame (avfilter.c:700)
==25869==    by 0x1007DA03: default_filter_frame (avfilter.c:640)
==25869==    by 0x10080283: ff_filter_frame (avfilter.c:700)
==25869==    by 0x10082B13: request_frame (buffersrc.c:399)
==25869== 
frame=    5 fps=  0 q=30.0 Lsize=    2240kB time=0.16 bitrate=114688.0kbits/s    
video:2240kB audio:0kB other streams:0kB global headers:0kB muxing overhead: 0.000000%
==25869== 
==25869== HEAP SUMMARY:
==25869==     in use at exit: 0 bytes in 0 blocks
==25869==   total heap usage: 1,790 allocs, 1,790 frees, 22,020,399 bytes allocated
==25869== 
==25869== All heap blocks were freed -- no leaks are possible
==25869== 
==25869== For counts of detected and suppressed errors, rerun with: -v
==25869== ERROR SUMMARY: 465 errors from 6 contexts (suppressed: 0 from 0)
diffstderrvsynth2-dnxhd-720p1v12_dev0-1345-g0181ae9
--- /home/mik/src/fate/src/tests/ref/vsynth/vsynth2-dnxhd-720p	2014-11-30 15:37:05.674204650 +0000
+++ tests/data/fate/vsynth2-dnxhd-720p	2018-03-13 01:35:17.287978093 +0000
@@ -1,4 +0,0 @@
-71c7491a41545882b36f07ee98021b4b *tests/data/fate/vsynth2-dnxhd-720p.dnxhd
-2293760 tests/data/fate/vsynth2-dnxhd-720p.dnxhd
-adef978dc9c9e4f10dc7c30418af62af *tests/data/fate/vsynth2-dnxhd-720p.out.rawvideo
-stddev:    6.69 PSNR: 31.62 MAXDIFF:  171 bytes:  7603200/   760320
==48221== Memcheck, a memory error detector
==48221== Copyright (C) 2002-2015, and GNU GPL'd, by Julian Seward et al.
==48221== Using Valgrind-3.12.0.SVN and LibVEX; rerun with -h for copyright info
==48221== Command: /home/mik/src/fate/ppc64-linux-gcc-valgrind/build/avconv -nostats -cpuflags all -f rawvideo -s 352x288 -pix_fmt yuv420p -threads 1 -idct simple -flags +bitexact -sws_flags +accurate_rnd+bitexact -fflags +bitexact -hwaccel none -threads 1 -thread_type frame+slice -i /home/mik/src/fate/ppc64-linux-gcc-valgrind/build/tests/data/vsynth2.yuv -threads 1 -idct simple -dct fastint -c dnxhd -s hd720 -b 90M -pix_fmt yuv422p -frames 5 -flags +bitexact -sws_flags +accurate_rnd+bitexact -fflags +bitexact -f dnxhd -y /home/mik/src/fate/ppc64-linux-gcc-valgrind/build/tests/data/fate/vsynth2-dnxhd-720p.dnxhd
==48221== 
avconv version v13_dev0-1502-g43778a5, Copyright (c) 2000-2018 the Libav developers
  built on Mar 13 2018 01:11:36 with gcc 5.5.0 (GCC)
[rawvideo @ 0x46cae20] Estimating duration from bitrate, this may be inaccurate
Input #0, rawvideo, from '/home/mik/src/fate/ppc64-linux-gcc-valgrind/build/tests/data/vsynth2.yuv':
  Duration: N/A, start: 0.000000, bitrate: N/A
    Stream #0:0: Video: rawvideo
      yuv420p, 352x288
      25 fps, 25 tbn
Stream mapping:
  Stream #0:0 -> #0:0 (rawvideo (native) -> dnxhd (native))
Press ctrl-c to stop encoding
Output #0, dnxhd, to '/home/mik/src/fate/ppc64-linux-gcc-valgrind/build/tests/data/fate/vsynth2-dnxhd-720p.dnxhd':
    Stream #0:0: Video: dnxhd
      yuv422p, 1280x720, q=2-31, 90000 kb/s
      25 tbn
    Metadata:
      encoder         : dnxhd
==48221== Invalid read of size 16
==48221==    at 0x10480BCC: get_pixels_vsx (pixblockdsp.c:139)
==48221==    by 0x1023C3AF: dnxhd_get_blocks (dnxhdenc.c:576)
==48221==    by 0x1023C3AF: dnxhd_calc_bits_thread (dnxhdenc.c:619)
==48221==    by 0x1023D313: dnxhd_find_qscale (dnxhdenc.c:866)
==48221==    by 0x1023D313: dnxhd_encode_fast (dnxhdenc.c:969)
==48221==    by 0x1023D313: dnxhd_encode_picture (dnxhdenc.c:1055)
==48221==    by 0x10262EE3: avcodec_encode_video2 (encode.c:227)
==48221==    by 0x10263103: do_encode (encode.c:274)
==48221==    by 0x1026336F: avcodec_send_frame (encode.c:323)
==48221==    by 0x100775D7: do_video_out (avconv.c:587)
==48221==    by 0x100775D7: poll_filter (avconv.c:726)
==48221==    by 0x10077DAF: poll_filters (avconv.c:800)
==48221==    by 0x1005EA8B: transcode (avconv.c:2803)
==48221==    by 0x1005EA8B: main (avconv.c:2972)
==48221==  Address 0x16e71078 is 921,592 bytes inside a block of size 921,600 alloc'd
==48221==    at 0x4088C90: memalign (vg_replace_malloc.c:857)
==48221==    by 0x4088DFF: posix_memalign (vg_replace_malloc.c:1020)
==48221==    by 0x108B2617: av_malloc (mem.c:71)
==48221==    by 0x1089E7E7: av_buffer_alloc (buffer.c:72)
==48221==    by 0x108A96F3: get_video_buffer (frame.c:119)
==48221==    by 0x108A96F3: av_frame_get_buffer (frame.c:196)
==48221==    by 0x1009C027: ff_default_get_video_buffer (video.c:55)
==48221==    by 0x1009C027: ff_get_video_buffer (video.c:73)
==48221==    by 0x1009C027: ff_null_get_video_buffer (video.c:33)
==48221==    by 0x1009BFB3: ff_get_video_buffer (video.c:70)
==48221==    by 0x1009BFB3: ff_null_get_video_buffer (video.c:33)
==48221==    by 0x1009C20B: ff_get_video_buffer (video.c:70)
==48221==    by 0x1009608F: filter_frame (vf_scale.c:276)
==48221==    by 0x1007DA03: ff_filter_frame (avfilter.c:700)
==48221==    by 0x1007DA03: default_filter_frame (avfilter.c:640)
==48221==    by 0x10080283: ff_filter_frame (avfilter.c:700)
==48221==    by 0x10082B13: request_frame (buffersrc.c:399)
==48221== 
==48221== Invalid read of size 16
==48221==    at 0x10480BCC: get_pixels_vsx (pixblockdsp.c:139)
==48221==    by 0x1023C3DF: dnxhd_get_blocks (dnxhdenc.c:578)
==48221==    by 0x1023C3DF: dnxhd_calc_bits_thread (dnxhdenc.c:619)
==48221==    by 0x1023D313: dnxhd_find_qscale (dnxhdenc.c:866)
==48221==    by 0x1023D313: dnxhd_encode_fast (dnxhdenc.c:969)
==48221==    by 0x1023D313: dnxhd_encode_picture (dnxhdenc.c:1055)
==48221==    by 0x10262EE3: avcodec_encode_video2 (encode.c:227)
==48221==    by 0x10263103: do_encode (encode.c:274)
==48221==    by 0x1026336F: avcodec_send_frame (encode.c:323)
==48221==    by 0x100775D7: do_video_out (avconv.c:587)
==48221==    by 0x100775D7: poll_filter (avconv.c:726)
==48221==    by 0x10077DAF: poll_filters (avconv.c:800)
==48221==    by 0x1005EA8B: transcode (avconv.c:2803)
==48221==    by 0x1005EA8B: main (avconv.c:2972)
==48221==  Address 0x16ee1918 is 460,792 bytes inside a block of size 460,800 alloc'd
==48221==    at 0x4088C90: memalign (vg_replace_malloc.c:857)
==48221==    by 0x4088DFF: posix_memalign (vg_replace_malloc.c:1020)
==48221==    by 0x108B2617: av_malloc (mem.c:71)
==48221==    by 0x1089E7E7: av_buffer_alloc (buffer.c:72)
==48221==    by 0x108A96F3: get_video_buffer (frame.c:119)
==48221==    by 0x108A96F3: av_frame_get_buffer (frame.c:196)
==48221==    by 0x1009C027: ff_default_get_video_buffer (video.c:55)
==48221==    by 0x1009C027: ff_get_video_buffer (video.c:73)
==48221==    by 0x1009C027: ff_null_get_video_buffer (video.c:33)
==48221==    by 0x1009BFB3: ff_get_video_buffer (video.c:70)
==48221==    by 0x1009BFB3: ff_null_get_video_buffer (video.c:33)
==48221==    by 0x1009C20B: ff_get_video_buffer (video.c:70)
==48221==    by 0x1009608F: filter_frame (vf_scale.c:276)
==48221==    by 0x1007DA03: ff_filter_frame (avfilter.c:700)
==48221==    by 0x1007DA03: default_filter_frame (avfilter.c:640)
==48221==    by 0x10080283: ff_filter_frame (avfilter.c:700)
==48221==    by 0x10082B13: request_frame (buffersrc.c:399)
==48221== 
==48221== Invalid read of size 16
==48221==    at 0x10480BCC: get_pixels_vsx (pixblockdsp.c:139)
==48221==    by 0x1023C40F: dnxhd_get_blocks (dnxhdenc.c:580)
==48221==    by 0x1023C40F: dnxhd_calc_bits_thread (dnxhdenc.c:619)
==48221==    by 0x1023D313: dnxhd_find_qscale (dnxhdenc.c:866)
==48221==    by 0x1023D313: dnxhd_encode_fast (dnxhdenc.c:969)
==48221==    by 0x1023D313: dnxhd_encode_picture (dnxhdenc.c:1055)
==48221==    by 0x10262EE3: avcodec_encode_video2 (encode.c:227)
==48221==    by 0x10263103: do_encode (encode.c:274)
==48221==    by 0x1026336F: avcodec_send_frame (encode.c:323)
==48221==    by 0x100775D7: do_video_out (avconv.c:587)
==48221==    by 0x100775D7: poll_filter (avconv.c:726)
==48221==    by 0x10077DAF: poll_filters (avconv.c:800)
==48221==    by 0x1005EA8B: transcode (avconv.c:2803)
==48221==    by 0x1005EA8B: main (avconv.c:2972)
==48221==  Address 0x16f521b8 is 460,792 bytes inside a block of size 460,800 alloc'd
==48221==    at 0x4088C90: memalign (vg_replace_malloc.c:857)
==48221==    by 0x4088DFF: posix_memalign (vg_replace_malloc.c:1020)
==48221==    by 0x108B2617: av_malloc (mem.c:71)
==48221==    by 0x1089E7E7: av_buffer_alloc (buffer.c:72)
==48221==    by 0x108A96F3: get_video_buffer (frame.c:119)
==48221==    by 0x108A96F3: av_frame_get_buffer (frame.c:196)
==48221==    by 0x1009C027: ff_default_get_video_buffer (video.c:55)
==48221==    by 0x1009C027: ff_get_video_buffer (video.c:73)
==48221==    by 0x1009C027: ff_null_get_video_buffer (video.c:33)
==48221==    by 0x1009BFB3: ff_get_video_buffer (video.c:70)
==48221==    by 0x1009BFB3: ff_null_get_video_buffer (video.c:33)
==48221==    by 0x1009C20B: ff_get_video_buffer (video.c:70)
==48221==    by 0x1009608F: filter_frame (vf_scale.c:276)
==48221==    by 0x1007DA03: ff_filter_frame (avfilter.c:700)
==48221==    by 0x1007DA03: default_filter_frame (avfilter.c:640)
==48221==    by 0x10080283: ff_filter_frame (avfilter.c:700)
==48221==    by 0x10082B13: request_frame (buffersrc.c:399)
==48221== 
==48221== Invalid read of size 16
==48221==    at 0x10480BCC: get_pixels_vsx (pixblockdsp.c:139)
==48221==    by 0x1023BA53: dnxhd_get_blocks (dnxhdenc.c:576)
==48221==    by 0x1023BA53: dnxhd_encode_thread (dnxhdenc.c:674)
==48221==    by 0x1023DA4F: dnxhd_encode_picture (dnxhdenc.c:1071)
==48221==    by 0x10262EE3: avcodec_encode_video2 (encode.c:227)
==48221==    by 0x10263103: do_encode (encode.c:274)
==48221==    by 0x1026336F: avcodec_send_frame (encode.c:323)
==48221==    by 0x100775D7: do_video_out (avconv.c:587)
==48221==    by 0x100775D7: poll_filter (avconv.c:726)
==48221==    by 0x10077DAF: poll_filters (avconv.c:800)
==48221==    by 0x1005EA8B: transcode (avconv.c:2803)
==48221==    by 0x1005EA8B: main (avconv.c:2972)
==48221==  Address 0x16e71078 is 921,592 bytes inside a block of size 921,600 alloc'd
==48221==    at 0x4088C90: memalign (vg_replace_malloc.c:857)
==48221==    by 0x4088DFF: posix_memalign (vg_replace_malloc.c:1020)
==48221==    by 0x108B2617: av_malloc (mem.c:71)
==48221==    by 0x1089E7E7: av_buffer_alloc (buffer.c:72)
==48221==    by 0x108A96F3: get_video_buffer (frame.c:119)
==48221==    by 0x108A96F3: av_frame_get_buffer (frame.c:196)
==48221==    by 0x1009C027: ff_default_get_video_buffer (video.c:55)
==48221==    by 0x1009C027: ff_get_video_buffer (video.c:73)
==48221==    by 0x1009C027: ff_null_get_video_buffer (video.c:33)
==48221==    by 0x1009BFB3: ff_get_video_buffer (video.c:70)
==48221==    by 0x1009BFB3: ff_null_get_video_buffer (video.c:33)
==48221==    by 0x1009C20B: ff_get_video_buffer (video.c:70)
==48221==    by 0x1009608F: filter_frame (vf_scale.c:276)
==48221==    by 0x1007DA03: ff_filter_frame (avfilter.c:700)
==48221==    by 0x1007DA03: default_filter_frame (avfilter.c:640)
==48221==    by 0x10080283: ff_filter_frame (avfilter.c:700)
==48221==    by 0x10082B13: request_frame (buffersrc.c:399)
==48221== 
==48221== Invalid read of size 16
==48221==    at 0x10480BCC: get_pixels_vsx (pixblockdsp.c:139)
==48221==    by 0x1023BA83: dnxhd_get_blocks (dnxhdenc.c:578)
==48221==    by 0x1023BA83: dnxhd_encode_thread (dnxhdenc.c:674)
==48221==    by 0x1023DA4F: dnxhd_encode_picture (dnxhdenc.c:1071)
==48221==    by 0x10262EE3: avcodec_encode_video2 (encode.c:227)
==48221==    by 0x10263103: do_encode (encode.c:274)
==48221==    by 0x1026336F: avcodec_send_frame (encode.c:323)
==48221==    by 0x100775D7: do_video_out (avconv.c:587)
==48221==    by 0x100775D7: poll_filter (avconv.c:726)
==48221==    by 0x10077DAF: poll_filters (avconv.c:800)
==48221==    by 0x1005EA8B: transcode (avconv.c:2803)
==48221==    by 0x1005EA8B: main (avconv.c:2972)
==48221==  Address 0x16ee1918 is 460,792 bytes inside a block of size 460,800 alloc'd
==48221==    at 0x4088C90: memalign (vg_replace_malloc.c:857)
==48221==    by 0x4088DFF: posix_memalign (vg_replace_malloc.c:1020)
==48221==    by 0x108B2617: av_malloc (mem.c:71)
==48221==    by 0x1089E7E7: av_buffer_alloc (buffer.c:72)
==48221==    by 0x108A96F3: get_video_buffer (frame.c:119)
==48221==    by 0x108A96F3: av_frame_get_buffer (frame.c:196)
==48221==    by 0x1009C027: ff_default_get_video_buffer (video.c:55)
==48221==    by 0x1009C027: ff_get_video_buffer (video.c:73)
==48221==    by 0x1009C027: ff_null_get_video_buffer (video.c:33)
==48221==    by 0x1009BFB3: ff_get_video_buffer (video.c:70)
==48221==    by 0x1009BFB3: ff_null_get_video_buffer (video.c:33)
==48221==    by 0x1009C20B: ff_get_video_buffer (video.c:70)
==48221==    by 0x1009608F: filter_frame (vf_scale.c:276)
==48221==    by 0x1007DA03: ff_filter_frame (avfilter.c:700)
==48221==    by 0x1007DA03: default_filter_frame (avfilter.c:640)
==48221==    by 0x10080283: ff_filter_frame (avfilter.c:700)
==48221==    by 0x10082B13: request_frame (buffersrc.c:399)
==48221== 
==48221== Invalid read of size 16
==48221==    at 0x10480BCC: get_pixels_vsx (pixblockdsp.c:139)
==48221==    by 0x1023BAB3: dnxhd_get_blocks (dnxhdenc.c:580)
==48221==    by 0x1023BAB3: dnxhd_encode_thread (dnxhdenc.c:674)
==48221==    by 0x1023DA4F: dnxhd_encode_picture (dnxhdenc.c:1071)
==48221==    by 0x10262EE3: avcodec_encode_video2 (encode.c:227)
==48221==    by 0x10263103: do_encode (encode.c:274)
==48221==    by 0x1026336F: avcodec_send_frame (encode.c:323)
==48221==    by 0x100775D7: do_video_out (avconv.c:587)
==48221==    by 0x100775D7: poll_filter (avconv.c:726)
==48221==    by 0x10077DAF: poll_filters (avconv.c:800)
==48221==    by 0x1005EA8B: transcode (avconv.c:2803)
==48221==    by 0x1005EA8B: main (avconv.c:2972)
==48221==  Address 0x16f521b8 is 460,792 bytes inside a block of size 460,800 alloc'd
==48221==    at 0x4088C90: memalign (vg_replace_malloc.c:857)
==48221==    by 0x4088DFF: posix_memalign (vg_replace_malloc.c:1020)
==48221==    by 0x108B2617: av_malloc (mem.c:71)
==48221==    by 0x1089E7E7: av_buffer_alloc (buffer.c:72)
==48221==    by 0x108A96F3: get_video_buffer (frame.c:119)
==48221==    by 0x108A96F3: av_frame_get_buffer (frame.c:196)
==48221==    by 0x1009C027: ff_default_get_video_buffer (video.c:55)
==48221==    by 0x1009C027: ff_get_video_buffer (video.c:73)
==48221==    by 0x1009C027: ff_null_get_video_buffer (video.c:33)
==48221==    by 0x1009BFB3: ff_get_video_buffer (video.c:70)
==48221==    by 0x1009BFB3: ff_null_get_video_buffer (video.c:33)
==48221==    by 0x1009C20B: ff_get_video_buffer (video.c:70)
==48221==    by 0x1009608F: filter_frame (vf_scale.c:276)
==48221==    by 0x1007DA03: ff_filter_frame (avfilter.c:700)
==48221==    by 0x1007DA03: default_filter_frame (avfilter.c:640)
==48221==    by 0x10080283: ff_filter_frame (avfilter.c:700)
==48221==    by 0x10082B13: request_frame (buffersrc.c:399)
==48221== 
frame=    5 fps=  1 q=1.0 Lsize=    2240kB time=0.16 bitrate=114688.0kbits/s    
video:2240kB audio:0kB other streams:0kB global headers:0kB muxing overhead: 0.000000%
==48221== 
==48221== HEAP SUMMARY:
==48221==     in use at exit: 0 bytes in 0 blocks
==48221==   total heap usage: 1,765 allocs, 1,765 frees, 22,012,223 bytes allocated
==48221== 
==48221== All heap blocks were freed -- no leaks are possible
==48221== 
==48221== For counts of detected and suppressed errors, rerun with: -v
==48221== ERROR SUMMARY: 30 errors from 6 contexts (suppressed: 0 from 0)
diffstderrvsynth2-dnxhd-720p-rd1v12_dev0-1345-g0181ae9
--- /home/mik/src/fate/src/tests/ref/vsynth/vsynth2-dnxhd-720p-rd	2014-11-30 15:37:05.674204650 +0000
+++ tests/data/fate/vsynth2-dnxhd-720p-rd	2018-03-13 01:35:19.107985737 +0000
@@ -1,4 +0,0 @@
-819a7714098e098981bf08253ef2e490 *tests/data/fate/vsynth2-dnxhd-720p-rd.dnxhd
-2293760 tests/data/fate/vsynth2-dnxhd-720p-rd.dnxhd
-a05c35b99e5e74a9c8b3a9c66da01775 *tests/data/fate/vsynth2-dnxhd-720p-rd.out.rawvideo
-stddev:    1.53 PSNR: 44.39 MAXDIFF:   31 bytes:  7603200/   760320
==48530== Memcheck, a memory error detector
==48530== Copyright (C) 2002-2015, and GNU GPL'd, by Julian Seward et al.
==48530== Using Valgrind-3.12.0.SVN and LibVEX; rerun with -h for copyright info
==48530== Command: /home/mik/src/fate/ppc64-linux-gcc-valgrind/build/avconv -nostats -cpuflags all -f rawvideo -s 352x288 -pix_fmt yuv420p -threads 1 -idct simple -flags +bitexact -sws_flags +accurate_rnd+bitexact -fflags +bitexact -hwaccel none -threads 1 -thread_type frame+slice -i /home/mik/src/fate/ppc64-linux-gcc-valgrind/build/tests/data/vsynth2.yuv -threads 1 -idct simple -dct fastint -c dnxhd -s hd720 -b 90M -threads 4 -mbd rd -pix_fmt yuv422p -frames 5 -flags +bitexact -sws_flags +accurate_rnd+bitexact -fflags +bitexact -f dnxhd -y /home/mik/src/fate/ppc64-linux-gcc-valgrind/build/tests/data/fate/vsynth2-dnxhd-720p-rd.dnxhd
==48530== 
avconv version v13_dev0-1502-g43778a5, Copyright (c) 2000-2018 the Libav developers
  built on Mar 13 2018 01:11:36 with gcc 5.5.0 (GCC)
[rawvideo @ 0x46caec0] Estimating duration from bitrate, this may be inaccurate
Input #0, rawvideo, from '/home/mik/src/fate/ppc64-linux-gcc-valgrind/build/tests/data/vsynth2.yuv':
  Duration: N/A, start: 0.000000, bitrate: N/A
    Stream #0:0: Video: rawvideo
      yuv420p, 352x288
      25 fps, 25 tbn
Stream mapping:
  Stream #0:0 -> #0:0 (rawvideo (native) -> dnxhd (native))
Press ctrl-c to stop encoding
Output #0, dnxhd, to '/home/mik/src/fate/ppc64-linux-gcc-valgrind/build/tests/data/fate/vsynth2-dnxhd-720p-rd.dnxhd':
    Stream #0:0: Video: dnxhd
      yuv422p, 1280x720, q=2-31, 90000 kb/s
      25 tbn
    Metadata:
      encoder         : dnxhd
==48530== Thread 69:
==48530== Invalid read of size 16
==48530==    at 0x10480BCC: get_pixels_vsx (pixblockdsp.c:139)
==48530==    by 0x1023C3AF: dnxhd_get_blocks (dnxhdenc.c:576)
==48530==    by 0x1023C3AF: dnxhd_calc_bits_thread (dnxhdenc.c:619)
==48530==    by 0x43DC95B: start_thread (in /usr/lib64/libpthread-2.17.so)
==48530==    by 0x4563BBB: clone (in /usr/lib64/libc-2.17.so)
==48530==  Address 0x17e71078 is 921,592 bytes inside a block of size 921,600 alloc'd
==48530==    at 0x4088C90: memalign (vg_replace_malloc.c:857)
==48530==    by 0x4088DFF: posix_memalign (vg_replace_malloc.c:1020)
==48530==    by 0x108B2617: av_malloc (mem.c:71)
==48530==    by 0x1089E7E7: av_buffer_alloc (buffer.c:72)
==48530==    by 0x108A96F3: get_video_buffer (frame.c:119)
==48530==    by 0x108A96F3: av_frame_get_buffer (frame.c:196)
==48530==    by 0x1009C027: ff_default_get_video_buffer (video.c:55)
==48530==    by 0x1009C027: ff_get_video_buffer (video.c:73)
==48530==    by 0x1009C027: ff_null_get_video_buffer (video.c:33)
==48530==    by 0x1009BFB3: ff_get_video_buffer (video.c:70)
==48530==    by 0x1009BFB3: ff_null_get_video_buffer (video.c:33)
==48530==    by 0x1009C20B: ff_get_video_buffer (video.c:70)
==48530==    by 0x1009608F: filter_frame (vf_scale.c:276)
==48530==    by 0x1007DA03: ff_filter_frame (avfilter.c:700)
==48530==    by 0x1007DA03: default_filter_frame (avfilter.c:640)
==48530==    by 0x10080283: ff_filter_frame (avfilter.c:700)
==48530==    by 0x10082B13: request_frame (buffersrc.c:399)
==48530== 
==48530== Invalid read of size 16
==48530==    at 0x10480BCC: get_pixels_vsx (pixblockdsp.c:139)
==48530==    by 0x1023C3DF: dnxhd_get_blocks (dnxhdenc.c:578)
==48530==    by 0x1023C3DF: dnxhd_calc_bits_thread (dnxhdenc.c:619)
==48530==    by 0x43DC95B: start_thread (in /usr/lib64/libpthread-2.17.so)
==48530==    by 0x4563BBB: clone (in /usr/lib64/libc-2.17.so)
==48530==  Address 0x17ee1918 is 460,792 bytes inside a block of size 460,800 alloc'd
==48530==    at 0x4088C90: memalign (vg_replace_malloc.c:857)
==48530==    by 0x4088DFF: posix_memalign (vg_replace_malloc.c:1020)
==48530==    by 0x108B2617: av_malloc (mem.c:71)
==48530==    by 0x1089E7E7: av_buffer_alloc (buffer.c:72)
==48530==    by 0x108A96F3: get_video_buffer (frame.c:119)
==48530==    by 0x108A96F3: av_frame_get_buffer (frame.c:196)
==48530==    by 0x1009C027: ff_default_get_video_buffer (video.c:55)
==48530==    by 0x1009C027: ff_get_video_buffer (video.c:73)
==48530==    by 0x1009C027: ff_null_get_video_buffer (video.c:33)
==48530==    by 0x1009BFB3: ff_get_video_buffer (video.c:70)
==48530==    by 0x1009BFB3: ff_null_get_video_buffer (video.c:33)
==48530==    by 0x1009C20B: ff_get_video_buffer (video.c:70)
==48530==    by 0x1009608F: filter_frame (vf_scale.c:276)
==48530==    by 0x1007DA03: ff_filter_frame (avfilter.c:700)
==48530==    by 0x1007DA03: default_filter_frame (avfilter.c:640)
==48530==    by 0x10080283: ff_filter_frame (avfilter.c:700)
==48530==    by 0x10082B13: request_frame (buffersrc.c:399)
==48530== 
==48530== Invalid read of size 16
==48530==    at 0x10480BCC: get_pixels_vsx (pixblockdsp.c:139)
==48530==    by 0x1023C40F: dnxhd_get_blocks (dnxhdenc.c:580)
==48530==    by 0x1023C40F: dnxhd_calc_bits_thread (dnxhdenc.c:619)
==48530==    by 0x43DC95B: start_thread (in /usr/lib64/libpthread-2.17.so)
==48530==    by 0x4563BBB: clone (in /usr/lib64/libc-2.17.so)
==48530==  Address 0x17f521b8 is 460,792 bytes inside a block of size 460,800 alloc'd
==48530==    at 0x4088C90: memalign (vg_replace_malloc.c:857)
==48530==    by 0x4088DFF: posix_memalign (vg_replace_malloc.c:1020)
==48530==    by 0x108B2617: av_malloc (mem.c:71)
==48530==    by 0x1089E7E7: av_buffer_alloc (buffer.c:72)
==48530==    by 0x108A96F3: get_video_buffer (frame.c:119)
==48530==    by 0x108A96F3: av_frame_get_buffer (frame.c:196)
==48530==    by 0x1009C027: ff_default_get_video_buffer (video.c:55)
==48530==    by 0x1009C027: ff_get_video_buffer (video.c:73)
==48530==    by 0x1009C027: ff_null_get_video_buffer (video.c:33)
==48530==    by 0x1009BFB3: ff_get_video_buffer (video.c:70)
==48530==    by 0x1009BFB3: ff_null_get_video_buffer (video.c:33)
==48530==    by 0x1009C20B: ff_get_video_buffer (video.c:70)
==48530==    by 0x1009608F: filter_frame (vf_scale.c:276)
==48530==    by 0x1007DA03: ff_filter_frame (avfilter.c:700)
==48530==    by 0x1007DA03: default_filter_frame (avfilter.c:640)
==48530==    by 0x10080283: ff_filter_frame (avfilter.c:700)
==48530==    by 0x10082B13: request_frame (buffersrc.c:399)
==48530== 
==48530== Thread 68:
==48530== Invalid read of size 16
==48530==    at 0x10480BCC: get_pixels_vsx (pixblockdsp.c:139)
==48530==    by 0x1023BA53: dnxhd_get_blocks (dnxhdenc.c:576)
==48530==    by 0x1023BA53: dnxhd_encode_thread (dnxhdenc.c:674)
==48530==    by 0x43DC95B: start_thread (in /usr/lib64/libpthread-2.17.so)
==48530==    by 0x4563BBB: clone (in /usr/lib64/libc-2.17.so)
==48530==  Address 0x17e71078 is 921,592 bytes inside a block of size 921,600 alloc'd
==48530==    at 0x4088C90: memalign (vg_replace_malloc.c:857)
==48530==    by 0x4088DFF: posix_memalign (vg_replace_malloc.c:1020)
==48530==    by 0x108B2617: av_malloc (mem.c:71)
==48530==    by 0x1089E7E7: av_buffer_alloc (buffer.c:72)
==48530==    by 0x108A96F3: get_video_buffer (frame.c:119)
==48530==    by 0x108A96F3: av_frame_get_buffer (frame.c:196)
==48530==    by 0x1009C027: ff_default_get_video_buffer (video.c:55)
==48530==    by 0x1009C027: ff_get_video_buffer (video.c:73)
==48530==    by 0x1009C027: ff_null_get_video_buffer (video.c:33)
==48530==    by 0x1009BFB3: ff_get_video_buffer (video.c:70)
==48530==    by 0x1009BFB3: ff_null_get_video_buffer (video.c:33)
==48530==    by 0x1009C20B: ff_get_video_buffer (video.c:70)
==48530==    by 0x1009608F: filter_frame (vf_scale.c:276)
==48530==    by 0x1007DA03: ff_filter_frame (avfilter.c:700)
==48530==    by 0x1007DA03: default_filter_frame (avfilter.c:640)
==48530==    by 0x10080283: ff_filter_frame (avfilter.c:700)
==48530==    by 0x10082B13: request_frame (buffersrc.c:399)
==48530== 
==48530== Invalid read of size 16
==48530==    at 0x10480BCC: get_pixels_vsx (pixblockdsp.c:139)
==48530==    by 0x1023BA83: dnxhd_get_blocks (dnxhdenc.c:578)
==48530==    by 0x1023BA83: dnxhd_encode_thread (dnxhdenc.c:674)
==48530==    by 0x43DC95B: start_thread (in /usr/lib64/libpthread-2.17.so)
==48530==    by 0x4563BBB: clone (in /usr/lib64/libc-2.17.so)
==48530==  Address 0x17ee1918 is 460,792 bytes inside a block of size 460,800 alloc'd
==48530==    at 0x4088C90: memalign (vg_replace_malloc.c:857)
==48530==    by 0x4088DFF: posix_memalign (vg_replace_malloc.c:1020)
==48530==    by 0x108B2617: av_malloc (mem.c:71)
==48530==    by 0x1089E7E7: av_buffer_alloc (buffer.c:72)
==48530==    by 0x108A96F3: get_video_buffer (frame.c:119)
==48530==    by 0x108A96F3: av_frame_get_buffer (frame.c:196)
==48530==    by 0x1009C027: ff_default_get_video_buffer (video.c:55)
==48530==    by 0x1009C027: ff_get_video_buffer (video.c:73)
==48530==    by 0x1009C027: ff_null_get_video_buffer (video.c:33)
==48530==    by 0x1009BFB3: ff_get_video_buffer (video.c:70)
==48530==    by 0x1009BFB3: ff_null_get_video_buffer (video.c:33)
==48530==    by 0x1009C20B: ff_get_video_buffer (video.c:70)
==48530==    by 0x1009608F: filter_frame (vf_scale.c:276)
==48530==    by 0x1007DA03: ff_filter_frame (avfilter.c:700)
==48530==    by 0x1007DA03: default_filter_frame (avfilter.c:640)
==48530==    by 0x10080283: ff_filter_frame (avfilter.c:700)
==48530==    by 0x10082B13: request_frame (buffersrc.c:399)
==48530== 
==48530== Invalid read of size 16
==48530==    at 0x10480BCC: get_pixels_vsx (pixblockdsp.c:139)
==48530==    by 0x1023BAB3: dnxhd_get_blocks (dnxhdenc.c:580)
==48530==    by 0x1023BAB3: dnxhd_encode_thread (dnxhdenc.c:674)
==48530==    by 0x43DC95B: start_thread (in /usr/lib64/libpthread-2.17.so)
==48530==    by 0x4563BBB: clone (in /usr/lib64/libc-2.17.so)
==48530==  Address 0x17f521b8 is 460,792 bytes inside a block of size 460,800 alloc'd
==48530==    at 0x4088C90: memalign (vg_replace_malloc.c:857)
==48530==    by 0x4088DFF: posix_memalign (vg_replace_malloc.c:1020)
==48530==    by 0x108B2617: av_malloc (mem.c:71)
==48530==    by 0x1089E7E7: av_buffer_alloc (buffer.c:72)
==48530==    by 0x108A96F3: get_video_buffer (frame.c:119)
==48530==    by 0x108A96F3: av_frame_get_buffer (frame.c:196)
==48530==    by 0x1009C027: ff_default_get_video_buffer (video.c:55)
==48530==    by 0x1009C027: ff_get_video_buffer (video.c:73)
==48530==    by 0x1009C027: ff_null_get_video_buffer (video.c:33)
==48530==    by 0x1009BFB3: ff_get_video_buffer (video.c:70)
==48530==    by 0x1009BFB3: ff_null_get_video_buffer (video.c:33)
==48530==    by 0x1009C20B: ff_get_video_buffer (video.c:70)
==48530==    by 0x1009608F: filter_frame (vf_scale.c:276)
==48530==    by 0x1007DA03: ff_filter_frame (avfilter.c:700)
==48530==    by 0x1007DA03: default_filter_frame (avfilter.c:640)
==48530==    by 0x10080283: ff_filter_frame (avfilter.c:700)
==48530==    by 0x10082B13: request_frame (buffersrc.c:399)
==48530== 
frame=    5 fps=  0 q=30.0 Lsize=    2240kB time=0.16 bitrate=114688.0kbits/s    
video:2240kB audio:0kB other streams:0kB global headers:0kB muxing overhead: 0.000000%
==48530== 
==48530== HEAP SUMMARY:
==48530==     in use at exit: 0 bytes in 0 blocks
==48530==   total heap usage: 1,790 allocs, 1,790 frees, 22,020,399 bytes allocated
==48530== 
==48530== All heap blocks were freed -- no leaks are possible
==48530== 
==48530== For counts of detected and suppressed errors, rerun with: -v
==48530== ERROR SUMMARY: 465 errors from 6 contexts (suppressed: 0 from 0)