ppc64-linux-gcc-valgrind v13_dev0-1441-gcbe28bc

Architectureppc
Variantppc64
CPUgeneric
OSlinux
Ownerkostylev
Compilergcc 5.5.0 (GCC)
Configuration--prefix=/home/mik/src/fate/ppc64-linux-gcc-valgrind/install --samples=/home/mik/src/fate/fate-suite --enable-gpl --cc=gcc-5 --target-exec='valgrind --leak-check=full --show-reachable=yes --error-exitcode=1 --malloc-fill=0x4a --undef-value-errors=no'
Commentvalgrind --undef-value-errors=no
Revisionv13_dev0-1441-gcbe28bc
Date2018-01-12 01:27:45
Status2142 / 2147
Warnings67
Logscompile configure test
5 failed testsStatusLast good rev
diffstderrsvq3-21n / a
--- /home/mik/src/fate/src/tests/ref/fate/svq3-2	2017-02-27 10:07:05.303380676 +0000
+++ tests/data/fate/svq3-2	2018-01-12 01:13:49.248098255 +0000
@@ -1,5 +1,5 @@
 #tb 0: 1/19200
-0,     -20000,     -20000,        0,   185280, 0x061c0d85
+0,     -20000,     -20000,        0,   185280, 0xc0bd953f
 0,     -19200,     -19200,        0,   185280, 0x427ef9a7
 0,     -18400,     -18400,        0,   185280, 0x64c74d6a
 0,     -17600,     -17600,        0,   185280, 0x5bfd0e5b
==54612== Memcheck, a memory error detector
==54612== Copyright (C) 2002-2015, and GNU GPL'd, by Julian Seward et al.
==54612== Using Valgrind-3.12.0.SVN and LibVEX; rerun with -h for copyright info
==54612== Command: /home/mik/src/fate/ppc64-linux-gcc-valgrind/build/avconv -nostats -cpuflags all -flags +bitexact -hwaccel none -threads 1 -thread_type frame+slice -i /home/mik/src/fate/fate-suite/svq3/svq3_decoding_regression.mov -an -f framecrc -
==54612== 
avconv version v13_dev0-1441-gcbe28bc, Copyright (c) 2000-2018 the Libav developers
  built on Jan 12 2018 01:01:36 with gcc 5.5.0 (GCC)
Input #0, mov,mp4,m4a,3gp,3g2,mj2, from '/home/mik/src/fate/fate-suite/svq3/svq3_decoding_regression.mov':
  Metadata:
    major_brand     : qt  
    minor_version   : 512
    compatible_brands: qt  
    artist          : Mark Strube - SupaDupaStrube@msn.com
    artist-eng      : Mark Strube - SupaDupaStrube@msn.com
    title           : Movie-List Presents: The Abyss
    title-eng       : Movie-List Presents: The Abyss
    encoder         : Lavf57.66.101
    copyright       : © 1989 Twentieth Century Fox
    copyright-eng   : © 1989 Twentieth Century Fox
  Duration: 00:00:00.83, bitrate: 2376 kb/s
    Stream #0:0(eng): Video: svq3 [SVQ3 / 0x33515653]
      yuvj420p, pc, 480x257, 2366 kb/s
      24 fps, 19200 tbn (default)
    Metadata:
      handler_name    : DataHandler
      encoder         : Sorenson Video 3
Stream mapping:
  Stream #0:0 -> #0:0 (svq3 (native) -> rawvideo (native))
Press ctrl-c to stop encoding
[svq3 @ 0x4727680] Missing reference frame.
Output #0, framecrc, to 'pipe:':
  Metadata:
    major_brand     : qt  
    minor_version   : 512
    compatible_brands: qt  
    artist          : Mark Strube - SupaDupaStrube@msn.com
    artist-eng      : Mark Strube - SupaDupaStrube@msn.com
    title           : Movie-List Presents: The Abyss
    title-eng       : Movie-List Presents: The Abyss
    copyright-eng   : © 1989 Twentieth Century Fox
    copyright       : © 1989 Twentieth Century Fox
    encoder         : Lavf58.1.0
    Stream #0:0(eng): Video: rawvideo [I420 / 0x30323449]
      yuvj420p, 480x257, q=2-31, 200 kb/s
      19200 tbn (default)
    Metadata:
      handler_name    : DataHandler
      encoder         : Sorenson Video 3
*** dropping frame 19 from stream 0 at ts -6400
frame=   19 fps=  0 q=-0.0 Lsize=       1kB time=10000000000.00 bitrate=   0.0kbits/s drop=1    
video:3438kB audio:0kB other streams:0kB global headers:0kB muxing overhead: unknown
==54612== 
==54612== HEAP SUMMARY:
==54612==     in use at exit: 0 bytes in 0 blocks
==54612==   total heap usage: 1,668 allocs, 1,668 frees, 8,678,210 bytes allocated
==54612== 
==54612== All heap blocks were freed -- no leaks are possible
==54612== 
==54612== For counts of detected and suppressed errors, rerun with: -v
==54612== ERROR SUMMARY: 0 errors from 0 contexts (suppressed: 0 from 0)
diffstderrvsynth1-dnxhd-720p1v12_dev0-1345-g0181ae9
--- /home/mik/src/fate/src/tests/ref/vsynth/vsynth1-dnxhd-720p	2014-01-10 11:16:55.734697630 +0000
+++ tests/data/fate/vsynth1-dnxhd-720p	2018-01-12 01:21:38.559177668 +0000
@@ -1,4 +0,0 @@
-81f5be451dc18cf8a1d333c7885de60b *tests/data/fate/vsynth1-dnxhd-720p.dnxhd
-2293760 tests/data/fate/vsynth1-dnxhd-720p.dnxhd
-94b21e5e68ccf9471eff74afd0ebe319 *tests/data/fate/vsynth1-dnxhd-720p.out.rawvideo
-stddev:    6.32 PSNR: 32.11 MAXDIFF:  183 bytes:  7603200/   760320
==21172== Memcheck, a memory error detector
==21172== Copyright (C) 2002-2015, and GNU GPL'd, by Julian Seward et al.
==21172== Using Valgrind-3.12.0.SVN and LibVEX; rerun with -h for copyright info
==21172== Command: /home/mik/src/fate/ppc64-linux-gcc-valgrind/build/avconv -nostats -cpuflags all -f rawvideo -s 352x288 -pix_fmt yuv420p -threads 1 -idct simple -flags +bitexact -sws_flags +accurate_rnd+bitexact -fflags +bitexact -hwaccel none -threads 1 -thread_type frame+slice -i /home/mik/src/fate/ppc64-linux-gcc-valgrind/build/tests/data/vsynth1.yuv -threads 1 -idct simple -dct fastint -c dnxhd -s hd720 -b 90M -pix_fmt yuv422p -frames 5 -flags +bitexact -sws_flags +accurate_rnd+bitexact -fflags +bitexact -f dnxhd -y /home/mik/src/fate/ppc64-linux-gcc-valgrind/build/tests/data/fate/vsynth1-dnxhd-720p.dnxhd
==21172== 
avconv version v13_dev0-1441-gcbe28bc, Copyright (c) 2000-2018 the Libav developers
  built on Jan 12 2018 01:01:36 with gcc 5.5.0 (GCC)
[rawvideo @ 0x46cae20] Estimating duration from bitrate, this may be inaccurate
Input #0, rawvideo, from '/home/mik/src/fate/ppc64-linux-gcc-valgrind/build/tests/data/vsynth1.yuv':
  Duration: N/A, start: 0.000000, bitrate: N/A
    Stream #0:0: Video: rawvideo
      yuv420p, 352x288
      25 fps, 25 tbn
Stream mapping:
  Stream #0:0 -> #0:0 (rawvideo (native) -> dnxhd (native))
Press ctrl-c to stop encoding
Output #0, dnxhd, to '/home/mik/src/fate/ppc64-linux-gcc-valgrind/build/tests/data/fate/vsynth1-dnxhd-720p.dnxhd':
    Stream #0:0: Video: dnxhd
      yuv422p, 1280x720, q=2-31, 90000 kb/s
      25 tbn
    Metadata:
      encoder         : dnxhd
==21172== Invalid read of size 16
==21172==    at 0x1048108C: get_pixels_vsx (pixblockdsp.c:139)
==21172==    by 0x1023C30F: dnxhd_get_blocks (dnxhdenc.c:576)
==21172==    by 0x1023C30F: dnxhd_calc_bits_thread (dnxhdenc.c:619)
==21172==    by 0x1023D273: dnxhd_find_qscale (dnxhdenc.c:866)
==21172==    by 0x1023D273: dnxhd_encode_fast (dnxhdenc.c:969)
==21172==    by 0x1023D273: dnxhd_encode_picture (dnxhdenc.c:1055)
==21172==    by 0x10262E43: avcodec_encode_video2 (encode.c:227)
==21172==    by 0x10263063: do_encode (encode.c:274)
==21172==    by 0x102632CF: avcodec_send_frame (encode.c:323)
==21172==    by 0x10077637: do_video_out (avconv.c:587)
==21172==    by 0x10077637: poll_filter (avconv.c:726)
==21172==    by 0x10077E0F: poll_filters (avconv.c:800)
==21172==    by 0x1005EAEB: transcode (avconv.c:2803)
==21172==    by 0x1005EAEB: main (avconv.c:2972)
==21172==  Address 0x16e71078 is 921,592 bytes inside a block of size 921,600 alloc'd
==21172==    at 0x4088C90: memalign (vg_replace_malloc.c:857)
==21172==    by 0x4088DFF: posix_memalign (vg_replace_malloc.c:1020)
==21172==    by 0x108B2ED7: av_malloc (mem.c:71)
==21172==    by 0x1089F147: av_buffer_alloc (buffer.c:72)
==21172==    by 0x108AA053: get_video_buffer (frame.c:119)
==21172==    by 0x108AA053: av_frame_get_buffer (frame.c:196)
==21172==    by 0x1009BFA7: ff_default_get_video_buffer (video.c:55)
==21172==    by 0x1009BFA7: ff_get_video_buffer (video.c:73)
==21172==    by 0x1009BFA7: ff_null_get_video_buffer (video.c:33)
==21172==    by 0x1009BF33: ff_get_video_buffer (video.c:70)
==21172==    by 0x1009BF33: ff_null_get_video_buffer (video.c:33)
==21172==    by 0x1009C18B: ff_get_video_buffer (video.c:70)
==21172==    by 0x1009601F: filter_frame (vf_scale.c:276)
==21172==    by 0x1007DA63: ff_filter_frame (avfilter.c:698)
==21172==    by 0x1007DA63: default_filter_frame (avfilter.c:638)
==21172==    by 0x100802E3: ff_filter_frame (avfilter.c:698)
==21172==    by 0x10082AD3: request_frame (buffersrc.c:399)
==21172== 
==21172== Invalid read of size 16
==21172==    at 0x1048108C: get_pixels_vsx (pixblockdsp.c:139)
==21172==    by 0x1023C33F: dnxhd_get_blocks (dnxhdenc.c:578)
==21172==    by 0x1023C33F: dnxhd_calc_bits_thread (dnxhdenc.c:619)
==21172==    by 0x1023D273: dnxhd_find_qscale (dnxhdenc.c:866)
==21172==    by 0x1023D273: dnxhd_encode_fast (dnxhdenc.c:969)
==21172==    by 0x1023D273: dnxhd_encode_picture (dnxhdenc.c:1055)
==21172==    by 0x10262E43: avcodec_encode_video2 (encode.c:227)
==21172==    by 0x10263063: do_encode (encode.c:274)
==21172==    by 0x102632CF: avcodec_send_frame (encode.c:323)
==21172==    by 0x10077637: do_video_out (avconv.c:587)
==21172==    by 0x10077637: poll_filter (avconv.c:726)
==21172==    by 0x10077E0F: poll_filters (avconv.c:800)
==21172==    by 0x1005EAEB: transcode (avconv.c:2803)
==21172==    by 0x1005EAEB: main (avconv.c:2972)
==21172==  Address 0x16ee1918 is 460,792 bytes inside a block of size 460,800 alloc'd
==21172==    at 0x4088C90: memalign (vg_replace_malloc.c:857)
==21172==    by 0x4088DFF: posix_memalign (vg_replace_malloc.c:1020)
==21172==    by 0x108B2ED7: av_malloc (mem.c:71)
==21172==    by 0x1089F147: av_buffer_alloc (buffer.c:72)
==21172==    by 0x108AA053: get_video_buffer (frame.c:119)
==21172==    by 0x108AA053: av_frame_get_buffer (frame.c:196)
==21172==    by 0x1009BFA7: ff_default_get_video_buffer (video.c:55)
==21172==    by 0x1009BFA7: ff_get_video_buffer (video.c:73)
==21172==    by 0x1009BFA7: ff_null_get_video_buffer (video.c:33)
==21172==    by 0x1009BF33: ff_get_video_buffer (video.c:70)
==21172==    by 0x1009BF33: ff_null_get_video_buffer (video.c:33)
==21172==    by 0x1009C18B: ff_get_video_buffer (video.c:70)
==21172==    by 0x1009601F: filter_frame (vf_scale.c:276)
==21172==    by 0x1007DA63: ff_filter_frame (avfilter.c:698)
==21172==    by 0x1007DA63: default_filter_frame (avfilter.c:638)
==21172==    by 0x100802E3: ff_filter_frame (avfilter.c:698)
==21172==    by 0x10082AD3: request_frame (buffersrc.c:399)
==21172== 
==21172== Invalid read of size 16
==21172==    at 0x1048108C: get_pixels_vsx (pixblockdsp.c:139)
==21172==    by 0x1023C36F: dnxhd_get_blocks (dnxhdenc.c:580)
==21172==    by 0x1023C36F: dnxhd_calc_bits_thread (dnxhdenc.c:619)
==21172==    by 0x1023D273: dnxhd_find_qscale (dnxhdenc.c:866)
==21172==    by 0x1023D273: dnxhd_encode_fast (dnxhdenc.c:969)
==21172==    by 0x1023D273: dnxhd_encode_picture (dnxhdenc.c:1055)
==21172==    by 0x10262E43: avcodec_encode_video2 (encode.c:227)
==21172==    by 0x10263063: do_encode (encode.c:274)
==21172==    by 0x102632CF: avcodec_send_frame (encode.c:323)
==21172==    by 0x10077637: do_video_out (avconv.c:587)
==21172==    by 0x10077637: poll_filter (avconv.c:726)
==21172==    by 0x10077E0F: poll_filters (avconv.c:800)
==21172==    by 0x1005EAEB: transcode (avconv.c:2803)
==21172==    by 0x1005EAEB: main (avconv.c:2972)
==21172==  Address 0x16f521b8 is 460,792 bytes inside a block of size 460,800 alloc'd
==21172==    at 0x4088C90: memalign (vg_replace_malloc.c:857)
==21172==    by 0x4088DFF: posix_memalign (vg_replace_malloc.c:1020)
==21172==    by 0x108B2ED7: av_malloc (mem.c:71)
==21172==    by 0x1089F147: av_buffer_alloc (buffer.c:72)
==21172==    by 0x108AA053: get_video_buffer (frame.c:119)
==21172==    by 0x108AA053: av_frame_get_buffer (frame.c:196)
==21172==    by 0x1009BFA7: ff_default_get_video_buffer (video.c:55)
==21172==    by 0x1009BFA7: ff_get_video_buffer (video.c:73)
==21172==    by 0x1009BFA7: ff_null_get_video_buffer (video.c:33)
==21172==    by 0x1009BF33: ff_get_video_buffer (video.c:70)
==21172==    by 0x1009BF33: ff_null_get_video_buffer (video.c:33)
==21172==    by 0x1009C18B: ff_get_video_buffer (video.c:70)
==21172==    by 0x1009601F: filter_frame (vf_scale.c:276)
==21172==    by 0x1007DA63: ff_filter_frame (avfilter.c:698)
==21172==    by 0x1007DA63: default_filter_frame (avfilter.c:638)
==21172==    by 0x100802E3: ff_filter_frame (avfilter.c:698)
==21172==    by 0x10082AD3: request_frame (buffersrc.c:399)
==21172== 
==21172== Invalid read of size 16
==21172==    at 0x1048108C: get_pixels_vsx (pixblockdsp.c:139)
==21172==    by 0x1023B9B3: dnxhd_get_blocks (dnxhdenc.c:576)
==21172==    by 0x1023B9B3: dnxhd_encode_thread (dnxhdenc.c:674)
==21172==    by 0x1023D9AF: dnxhd_encode_picture (dnxhdenc.c:1071)
==21172==    by 0x10262E43: avcodec_encode_video2 (encode.c:227)
==21172==    by 0x10263063: do_encode (encode.c:274)
==21172==    by 0x102632CF: avcodec_send_frame (encode.c:323)
==21172==    by 0x10077637: do_video_out (avconv.c:587)
==21172==    by 0x10077637: poll_filter (avconv.c:726)
==21172==    by 0x10077E0F: poll_filters (avconv.c:800)
==21172==    by 0x1005EAEB: transcode (avconv.c:2803)
==21172==    by 0x1005EAEB: main (avconv.c:2972)
==21172==  Address 0x16e71078 is 921,592 bytes inside a block of size 921,600 alloc'd
==21172==    at 0x4088C90: memalign (vg_replace_malloc.c:857)
==21172==    by 0x4088DFF: posix_memalign (vg_replace_malloc.c:1020)
==21172==    by 0x108B2ED7: av_malloc (mem.c:71)
==21172==    by 0x1089F147: av_buffer_alloc (buffer.c:72)
==21172==    by 0x108AA053: get_video_buffer (frame.c:119)
==21172==    by 0x108AA053: av_frame_get_buffer (frame.c:196)
==21172==    by 0x1009BFA7: ff_default_get_video_buffer (video.c:55)
==21172==    by 0x1009BFA7: ff_get_video_buffer (video.c:73)
==21172==    by 0x1009BFA7: ff_null_get_video_buffer (video.c:33)
==21172==    by 0x1009BF33: ff_get_video_buffer (video.c:70)
==21172==    by 0x1009BF33: ff_null_get_video_buffer (video.c:33)
==21172==    by 0x1009C18B: ff_get_video_buffer (video.c:70)
==21172==    by 0x1009601F: filter_frame (vf_scale.c:276)
==21172==    by 0x1007DA63: ff_filter_frame (avfilter.c:698)
==21172==    by 0x1007DA63: default_filter_frame (avfilter.c:638)
==21172==    by 0x100802E3: ff_filter_frame (avfilter.c:698)
==21172==    by 0x10082AD3: request_frame (buffersrc.c:399)
==21172== 
==21172== Invalid read of size 16
==21172==    at 0x1048108C: get_pixels_vsx (pixblockdsp.c:139)
==21172==    by 0x1023B9E3: dnxhd_get_blocks (dnxhdenc.c:578)
==21172==    by 0x1023B9E3: dnxhd_encode_thread (dnxhdenc.c:674)
==21172==    by 0x1023D9AF: dnxhd_encode_picture (dnxhdenc.c:1071)
==21172==    by 0x10262E43: avcodec_encode_video2 (encode.c:227)
==21172==    by 0x10263063: do_encode (encode.c:274)
==21172==    by 0x102632CF: avcodec_send_frame (encode.c:323)
==21172==    by 0x10077637: do_video_out (avconv.c:587)
==21172==    by 0x10077637: poll_filter (avconv.c:726)
==21172==    by 0x10077E0F: poll_filters (avconv.c:800)
==21172==    by 0x1005EAEB: transcode (avconv.c:2803)
==21172==    by 0x1005EAEB: main (avconv.c:2972)
==21172==  Address 0x16ee1918 is 460,792 bytes inside a block of size 460,800 alloc'd
==21172==    at 0x4088C90: memalign (vg_replace_malloc.c:857)
==21172==    by 0x4088DFF: posix_memalign (vg_replace_malloc.c:1020)
==21172==    by 0x108B2ED7: av_malloc (mem.c:71)
==21172==    by 0x1089F147: av_buffer_alloc (buffer.c:72)
==21172==    by 0x108AA053: get_video_buffer (frame.c:119)
==21172==    by 0x108AA053: av_frame_get_buffer (frame.c:196)
==21172==    by 0x1009BFA7: ff_default_get_video_buffer (video.c:55)
==21172==    by 0x1009BFA7: ff_get_video_buffer (video.c:73)
==21172==    by 0x1009BFA7: ff_null_get_video_buffer (video.c:33)
==21172==    by 0x1009BF33: ff_get_video_buffer (video.c:70)
==21172==    by 0x1009BF33: ff_null_get_video_buffer (video.c:33)
==21172==    by 0x1009C18B: ff_get_video_buffer (video.c:70)
==21172==    by 0x1009601F: filter_frame (vf_scale.c:276)
==21172==    by 0x1007DA63: ff_filter_frame (avfilter.c:698)
==21172==    by 0x1007DA63: default_filter_frame (avfilter.c:638)
==21172==    by 0x100802E3: ff_filter_frame (avfilter.c:698)
==21172==    by 0x10082AD3: request_frame (buffersrc.c:399)
==21172== 
==21172== Invalid read of size 16
==21172==    at 0x1048108C: get_pixels_vsx (pixblockdsp.c:139)
==21172==    by 0x1023BA13: dnxhd_get_blocks (dnxhdenc.c:580)
==21172==    by 0x1023BA13: dnxhd_encode_thread (dnxhdenc.c:674)
==21172==    by 0x1023D9AF: dnxhd_encode_picture (dnxhdenc.c:1071)
==21172==    by 0x10262E43: avcodec_encode_video2 (encode.c:227)
==21172==    by 0x10263063: do_encode (encode.c:274)
==21172==    by 0x102632CF: avcodec_send_frame (encode.c:323)
==21172==    by 0x10077637: do_video_out (avconv.c:587)
==21172==    by 0x10077637: poll_filter (avconv.c:726)
==21172==    by 0x10077E0F: poll_filters (avconv.c:800)
==21172==    by 0x1005EAEB: transcode (avconv.c:2803)
==21172==    by 0x1005EAEB: main (avconv.c:2972)
==21172==  Address 0x16f521b8 is 460,792 bytes inside a block of size 460,800 alloc'd
==21172==    at 0x4088C90: memalign (vg_replace_malloc.c:857)
==21172==    by 0x4088DFF: posix_memalign (vg_replace_malloc.c:1020)
==21172==    by 0x108B2ED7: av_malloc (mem.c:71)
==21172==    by 0x1089F147: av_buffer_alloc (buffer.c:72)
==21172==    by 0x108AA053: get_video_buffer (frame.c:119)
==21172==    by 0x108AA053: av_frame_get_buffer (frame.c:196)
==21172==    by 0x1009BFA7: ff_default_get_video_buffer (video.c:55)
==21172==    by 0x1009BFA7: ff_get_video_buffer (video.c:73)
==21172==    by 0x1009BFA7: ff_null_get_video_buffer (video.c:33)
==21172==    by 0x1009BF33: ff_get_video_buffer (video.c:70)
==21172==    by 0x1009BF33: ff_null_get_video_buffer (video.c:33)
==21172==    by 0x1009C18B: ff_get_video_buffer (video.c:70)
==21172==    by 0x1009601F: filter_frame (vf_scale.c:276)
==21172==    by 0x1007DA63: ff_filter_frame (avfilter.c:698)
==21172==    by 0x1007DA63: default_filter_frame (avfilter.c:638)
==21172==    by 0x100802E3: ff_filter_frame (avfilter.c:698)
==21172==    by 0x10082AD3: request_frame (buffersrc.c:399)
==21172== 
frame=    5 fps=  0 q=1.0 Lsize=    2240kB time=0.16 bitrate=114688.0kbits/s    
video:2240kB audio:0kB other streams:0kB global headers:0kB muxing overhead: 0.000000%
==21172== 
==21172== HEAP SUMMARY:
==21172==     in use at exit: 0 bytes in 0 blocks
==21172==   total heap usage: 1,770 allocs, 1,770 frees, 22,156,175 bytes allocated
==21172== 
==21172== All heap blocks were freed -- no leaks are possible
==21172== 
==21172== For counts of detected and suppressed errors, rerun with: -v
==21172== ERROR SUMMARY: 45 errors from 6 contexts (suppressed: 0 from 0)
diffstderrvsynth1-dnxhd-720p-rd1v12_dev0-1345-g0181ae9
--- /home/mik/src/fate/src/tests/ref/vsynth/vsynth1-dnxhd-720p-rd	2014-01-10 11:16:55.734697630 +0000
+++ tests/data/fate/vsynth1-dnxhd-720p-rd	2018-01-12 01:21:39.679180244 +0000
@@ -1,4 +0,0 @@
-1dc6e95925c4f3a230848ec17c02abed *tests/data/fate/vsynth1-dnxhd-720p-rd.dnxhd
-2293760 tests/data/fate/vsynth1-dnxhd-720p-rd.dnxhd
-02972d2aec120ec1577ec9053d68ae0f *tests/data/fate/vsynth1-dnxhd-720p-rd.out.rawvideo
-stddev:    6.26 PSNR: 32.19 MAXDIFF:   65 bytes:  7603200/   760320
==21437== Memcheck, a memory error detector
==21437== Copyright (C) 2002-2015, and GNU GPL'd, by Julian Seward et al.
==21437== Using Valgrind-3.12.0.SVN and LibVEX; rerun with -h for copyright info
==21437== Command: /home/mik/src/fate/ppc64-linux-gcc-valgrind/build/avconv -nostats -cpuflags all -f rawvideo -s 352x288 -pix_fmt yuv420p -threads 1 -idct simple -flags +bitexact -sws_flags +accurate_rnd+bitexact -fflags +bitexact -hwaccel none -threads 1 -thread_type frame+slice -i /home/mik/src/fate/ppc64-linux-gcc-valgrind/build/tests/data/vsynth1.yuv -threads 1 -idct simple -dct fastint -c dnxhd -s hd720 -b 90M -threads 4 -mbd rd -pix_fmt yuv422p -frames 5 -flags +bitexact -sws_flags +accurate_rnd+bitexact -fflags +bitexact -f dnxhd -y /home/mik/src/fate/ppc64-linux-gcc-valgrind/build/tests/data/fate/vsynth1-dnxhd-720p-rd.dnxhd
==21437== 
avconv version v13_dev0-1441-gcbe28bc, Copyright (c) 2000-2018 the Libav developers
  built on Jan 12 2018 01:01:36 with gcc 5.5.0 (GCC)
[rawvideo @ 0x46caec0] Estimating duration from bitrate, this may be inaccurate
Input #0, rawvideo, from '/home/mik/src/fate/ppc64-linux-gcc-valgrind/build/tests/data/vsynth1.yuv':
  Duration: N/A, start: 0.000000, bitrate: N/A
    Stream #0:0: Video: rawvideo
      yuv420p, 352x288
      25 fps, 25 tbn
Stream mapping:
  Stream #0:0 -> #0:0 (rawvideo (native) -> dnxhd (native))
Press ctrl-c to stop encoding
Output #0, dnxhd, to '/home/mik/src/fate/ppc64-linux-gcc-valgrind/build/tests/data/fate/vsynth1-dnxhd-720p-rd.dnxhd':
    Stream #0:0: Video: dnxhd
      yuv422p, 1280x720, q=2-31, 90000 kb/s
      25 tbn
    Metadata:
      encoder         : dnxhd
==21437== Thread 67:
==21437== Invalid read of size 16
==21437==    at 0x1048108C: get_pixels_vsx (pixblockdsp.c:139)
==21437==    by 0x1023C30F: dnxhd_get_blocks (dnxhdenc.c:576)
==21437==    by 0x1023C30F: dnxhd_calc_bits_thread (dnxhdenc.c:619)
==21437==    by 0x43DC95B: start_thread (in /usr/lib64/libpthread-2.17.so)
==21437==    by 0x4563BBB: clone (in /usr/lib64/libc-2.17.so)
==21437==  Address 0x17e71078 is 921,592 bytes inside a block of size 921,600 alloc'd
==21437==    at 0x4088C90: memalign (vg_replace_malloc.c:857)
==21437==    by 0x4088DFF: posix_memalign (vg_replace_malloc.c:1020)
==21437==    by 0x108B2ED7: av_malloc (mem.c:71)
==21437==    by 0x1089F147: av_buffer_alloc (buffer.c:72)
==21437==    by 0x108AA053: get_video_buffer (frame.c:119)
==21437==    by 0x108AA053: av_frame_get_buffer (frame.c:196)
==21437==    by 0x1009BFA7: ff_default_get_video_buffer (video.c:55)
==21437==    by 0x1009BFA7: ff_get_video_buffer (video.c:73)
==21437==    by 0x1009BFA7: ff_null_get_video_buffer (video.c:33)
==21437==    by 0x1009BF33: ff_get_video_buffer (video.c:70)
==21437==    by 0x1009BF33: ff_null_get_video_buffer (video.c:33)
==21437==    by 0x1009C18B: ff_get_video_buffer (video.c:70)
==21437==    by 0x1009601F: filter_frame (vf_scale.c:276)
==21437==    by 0x1007DA63: ff_filter_frame (avfilter.c:698)
==21437==    by 0x1007DA63: default_filter_frame (avfilter.c:638)
==21437==    by 0x100802E3: ff_filter_frame (avfilter.c:698)
==21437==    by 0x10082AD3: request_frame (buffersrc.c:399)
==21437== 
==21437== Invalid read of size 16
==21437==    at 0x1048108C: get_pixels_vsx (pixblockdsp.c:139)
==21437==    by 0x1023C33F: dnxhd_get_blocks (dnxhdenc.c:578)
==21437==    by 0x1023C33F: dnxhd_calc_bits_thread (dnxhdenc.c:619)
==21437==    by 0x43DC95B: start_thread (in /usr/lib64/libpthread-2.17.so)
==21437==    by 0x4563BBB: clone (in /usr/lib64/libc-2.17.so)
==21437==  Address 0x17ee1918 is 460,792 bytes inside a block of size 460,800 alloc'd
==21437==    at 0x4088C90: memalign (vg_replace_malloc.c:857)
==21437==    by 0x4088DFF: posix_memalign (vg_replace_malloc.c:1020)
==21437==    by 0x108B2ED7: av_malloc (mem.c:71)
==21437==    by 0x1089F147: av_buffer_alloc (buffer.c:72)
==21437==    by 0x108AA053: get_video_buffer (frame.c:119)
==21437==    by 0x108AA053: av_frame_get_buffer (frame.c:196)
==21437==    by 0x1009BFA7: ff_default_get_video_buffer (video.c:55)
==21437==    by 0x1009BFA7: ff_get_video_buffer (video.c:73)
==21437==    by 0x1009BFA7: ff_null_get_video_buffer (video.c:33)
==21437==    by 0x1009BF33: ff_get_video_buffer (video.c:70)
==21437==    by 0x1009BF33: ff_null_get_video_buffer (video.c:33)
==21437==    by 0x1009C18B: ff_get_video_buffer (video.c:70)
==21437==    by 0x1009601F: filter_frame (vf_scale.c:276)
==21437==    by 0x1007DA63: ff_filter_frame (avfilter.c:698)
==21437==    by 0x1007DA63: default_filter_frame (avfilter.c:638)
==21437==    by 0x100802E3: ff_filter_frame (avfilter.c:698)
==21437==    by 0x10082AD3: request_frame (buffersrc.c:399)
==21437== 
==21437== Invalid read of size 16
==21437==    at 0x1048108C: get_pixels_vsx (pixblockdsp.c:139)
==21437==    by 0x1023C36F: dnxhd_get_blocks (dnxhdenc.c:580)
==21437==    by 0x1023C36F: dnxhd_calc_bits_thread (dnxhdenc.c:619)
==21437==    by 0x43DC95B: start_thread (in /usr/lib64/libpthread-2.17.so)
==21437==    by 0x4563BBB: clone (in /usr/lib64/libc-2.17.so)
==21437==  Address 0x17f521b8 is 460,792 bytes inside a block of size 460,800 alloc'd
==21437==    at 0x4088C90: memalign (vg_replace_malloc.c:857)
==21437==    by 0x4088DFF: posix_memalign (vg_replace_malloc.c:1020)
==21437==    by 0x108B2ED7: av_malloc (mem.c:71)
==21437==    by 0x1089F147: av_buffer_alloc (buffer.c:72)
==21437==    by 0x108AA053: get_video_buffer (frame.c:119)
==21437==    by 0x108AA053: av_frame_get_buffer (frame.c:196)
==21437==    by 0x1009BFA7: ff_default_get_video_buffer (video.c:55)
==21437==    by 0x1009BFA7: ff_get_video_buffer (video.c:73)
==21437==    by 0x1009BFA7: ff_null_get_video_buffer (video.c:33)
==21437==    by 0x1009BF33: ff_get_video_buffer (video.c:70)
==21437==    by 0x1009BF33: ff_null_get_video_buffer (video.c:33)
==21437==    by 0x1009C18B: ff_get_video_buffer (video.c:70)
==21437==    by 0x1009601F: filter_frame (vf_scale.c:276)
==21437==    by 0x1007DA63: ff_filter_frame (avfilter.c:698)
==21437==    by 0x1007DA63: default_filter_frame (avfilter.c:638)
==21437==    by 0x100802E3: ff_filter_frame (avfilter.c:698)
==21437==    by 0x10082AD3: request_frame (buffersrc.c:399)
==21437== 
==21437== Thread 68:
==21437== Invalid read of size 16
==21437==    at 0x1048108C: get_pixels_vsx (pixblockdsp.c:139)
==21437==    by 0x1023B9B3: dnxhd_get_blocks (dnxhdenc.c:576)
==21437==    by 0x1023B9B3: dnxhd_encode_thread (dnxhdenc.c:674)
==21437==    by 0x43DC95B: start_thread (in /usr/lib64/libpthread-2.17.so)
==21437==    by 0x4563BBB: clone (in /usr/lib64/libc-2.17.so)
==21437==  Address 0x17e71078 is 921,592 bytes inside a block of size 921,600 alloc'd
==21437==    at 0x4088C90: memalign (vg_replace_malloc.c:857)
==21437==    by 0x4088DFF: posix_memalign (vg_replace_malloc.c:1020)
==21437==    by 0x108B2ED7: av_malloc (mem.c:71)
==21437==    by 0x1089F147: av_buffer_alloc (buffer.c:72)
==21437==    by 0x108AA053: get_video_buffer (frame.c:119)
==21437==    by 0x108AA053: av_frame_get_buffer (frame.c:196)
==21437==    by 0x1009BFA7: ff_default_get_video_buffer (video.c:55)
==21437==    by 0x1009BFA7: ff_get_video_buffer (video.c:73)
==21437==    by 0x1009BFA7: ff_null_get_video_buffer (video.c:33)
==21437==    by 0x1009BF33: ff_get_video_buffer (video.c:70)
==21437==    by 0x1009BF33: ff_null_get_video_buffer (video.c:33)
==21437==    by 0x1009C18B: ff_get_video_buffer (video.c:70)
==21437==    by 0x1009601F: filter_frame (vf_scale.c:276)
==21437==    by 0x1007DA63: ff_filter_frame (avfilter.c:698)
==21437==    by 0x1007DA63: default_filter_frame (avfilter.c:638)
==21437==    by 0x100802E3: ff_filter_frame (avfilter.c:698)
==21437==    by 0x10082AD3: request_frame (buffersrc.c:399)
==21437== 
==21437== Invalid read of size 16
==21437==    at 0x1048108C: get_pixels_vsx (pixblockdsp.c:139)
==21437==    by 0x1023B9E3: dnxhd_get_blocks (dnxhdenc.c:578)
==21437==    by 0x1023B9E3: dnxhd_encode_thread (dnxhdenc.c:674)
==21437==    by 0x43DC95B: start_thread (in /usr/lib64/libpthread-2.17.so)
==21437==    by 0x4563BBB: clone (in /usr/lib64/libc-2.17.so)
==21437==  Address 0x17ee1918 is 460,792 bytes inside a block of size 460,800 alloc'd
==21437==    at 0x4088C90: memalign (vg_replace_malloc.c:857)
==21437==    by 0x4088DFF: posix_memalign (vg_replace_malloc.c:1020)
==21437==    by 0x108B2ED7: av_malloc (mem.c:71)
==21437==    by 0x1089F147: av_buffer_alloc (buffer.c:72)
==21437==    by 0x108AA053: get_video_buffer (frame.c:119)
==21437==    by 0x108AA053: av_frame_get_buffer (frame.c:196)
==21437==    by 0x1009BFA7: ff_default_get_video_buffer (video.c:55)
==21437==    by 0x1009BFA7: ff_get_video_buffer (video.c:73)
==21437==    by 0x1009BFA7: ff_null_get_video_buffer (video.c:33)
==21437==    by 0x1009BF33: ff_get_video_buffer (video.c:70)
==21437==    by 0x1009BF33: ff_null_get_video_buffer (video.c:33)
==21437==    by 0x1009C18B: ff_get_video_buffer (video.c:70)
==21437==    by 0x1009601F: filter_frame (vf_scale.c:276)
==21437==    by 0x1007DA63: ff_filter_frame (avfilter.c:698)
==21437==    by 0x1007DA63: default_filter_frame (avfilter.c:638)
==21437==    by 0x100802E3: ff_filter_frame (avfilter.c:698)
==21437==    by 0x10082AD3: request_frame (buffersrc.c:399)
==21437== 
==21437== Invalid read of size 16
==21437==    at 0x1048108C: get_pixels_vsx (pixblockdsp.c:139)
==21437==    by 0x1023BA13: dnxhd_get_blocks (dnxhdenc.c:580)
==21437==    by 0x1023BA13: dnxhd_encode_thread (dnxhdenc.c:674)
==21437==    by 0x43DC95B: start_thread (in /usr/lib64/libpthread-2.17.so)
==21437==    by 0x4563BBB: clone (in /usr/lib64/libc-2.17.so)
==21437==  Address 0x17f521b8 is 460,792 bytes inside a block of size 460,800 alloc'd
==21437==    at 0x4088C90: memalign (vg_replace_malloc.c:857)
==21437==    by 0x4088DFF: posix_memalign (vg_replace_malloc.c:1020)
==21437==    by 0x108B2ED7: av_malloc (mem.c:71)
==21437==    by 0x1089F147: av_buffer_alloc (buffer.c:72)
==21437==    by 0x108AA053: get_video_buffer (frame.c:119)
==21437==    by 0x108AA053: av_frame_get_buffer (frame.c:196)
==21437==    by 0x1009BFA7: ff_default_get_video_buffer (video.c:55)
==21437==    by 0x1009BFA7: ff_get_video_buffer (video.c:73)
==21437==    by 0x1009BFA7: ff_null_get_video_buffer (video.c:33)
==21437==    by 0x1009BF33: ff_get_video_buffer (video.c:70)
==21437==    by 0x1009BF33: ff_null_get_video_buffer (video.c:33)
==21437==    by 0x1009C18B: ff_get_video_buffer (video.c:70)
==21437==    by 0x1009601F: filter_frame (vf_scale.c:276)
==21437==    by 0x1007DA63: ff_filter_frame (avfilter.c:698)
==21437==    by 0x1007DA63: default_filter_frame (avfilter.c:638)
==21437==    by 0x100802E3: ff_filter_frame (avfilter.c:698)
==21437==    by 0x10082AD3: request_frame (buffersrc.c:399)
==21437== 
frame=    5 fps=  0 q=30.0 Lsize=    2240kB time=0.16 bitrate=114688.0kbits/s    
video:2240kB audio:0kB other streams:0kB global headers:0kB muxing overhead: 0.000000%
==21437== 
==21437== HEAP SUMMARY:
==21437==     in use at exit: 0 bytes in 0 blocks
==21437==   total heap usage: 1,790 allocs, 1,790 frees, 22,020,351 bytes allocated
==21437== 
==21437== All heap blocks were freed -- no leaks are possible
==21437== 
==21437== For counts of detected and suppressed errors, rerun with: -v
==21437== ERROR SUMMARY: 465 errors from 6 contexts (suppressed: 0 from 0)
diffstderrvsynth2-dnxhd-720p1v12_dev0-1345-g0181ae9
--- /home/mik/src/fate/src/tests/ref/vsynth/vsynth2-dnxhd-720p	2014-11-30 15:37:05.674204650 +0000
+++ tests/data/fate/vsynth2-dnxhd-720p	2018-01-12 01:24:25.629561929 +0000
@@ -1,4 +0,0 @@
-71c7491a41545882b36f07ee98021b4b *tests/data/fate/vsynth2-dnxhd-720p.dnxhd
-2293760 tests/data/fate/vsynth2-dnxhd-720p.dnxhd
-adef978dc9c9e4f10dc7c30418af62af *tests/data/fate/vsynth2-dnxhd-720p.out.rawvideo
-stddev:    6.69 PSNR: 31.62 MAXDIFF:  171 bytes:  7603200/   760320
==38197== Memcheck, a memory error detector
==38197== Copyright (C) 2002-2015, and GNU GPL'd, by Julian Seward et al.
==38197== Using Valgrind-3.12.0.SVN and LibVEX; rerun with -h for copyright info
==38197== Command: /home/mik/src/fate/ppc64-linux-gcc-valgrind/build/avconv -nostats -cpuflags all -f rawvideo -s 352x288 -pix_fmt yuv420p -threads 1 -idct simple -flags +bitexact -sws_flags +accurate_rnd+bitexact -fflags +bitexact -hwaccel none -threads 1 -thread_type frame+slice -i /home/mik/src/fate/ppc64-linux-gcc-valgrind/build/tests/data/vsynth2.yuv -threads 1 -idct simple -dct fastint -c dnxhd -s hd720 -b 90M -pix_fmt yuv422p -frames 5 -flags +bitexact -sws_flags +accurate_rnd+bitexact -fflags +bitexact -f dnxhd -y /home/mik/src/fate/ppc64-linux-gcc-valgrind/build/tests/data/fate/vsynth2-dnxhd-720p.dnxhd
==38197== 
avconv version v13_dev0-1441-gcbe28bc, Copyright (c) 2000-2018 the Libav developers
  built on Jan 12 2018 01:01:36 with gcc 5.5.0 (GCC)
[rawvideo @ 0x46cae20] Estimating duration from bitrate, this may be inaccurate
Input #0, rawvideo, from '/home/mik/src/fate/ppc64-linux-gcc-valgrind/build/tests/data/vsynth2.yuv':
  Duration: N/A, start: 0.000000, bitrate: N/A
    Stream #0:0: Video: rawvideo
      yuv420p, 352x288
      25 fps, 25 tbn
Stream mapping:
  Stream #0:0 -> #0:0 (rawvideo (native) -> dnxhd (native))
Press ctrl-c to stop encoding
Output #0, dnxhd, to '/home/mik/src/fate/ppc64-linux-gcc-valgrind/build/tests/data/fate/vsynth2-dnxhd-720p.dnxhd':
    Stream #0:0: Video: dnxhd
      yuv422p, 1280x720, q=2-31, 90000 kb/s
      25 tbn
    Metadata:
      encoder         : dnxhd
==38197== Invalid read of size 16
==38197==    at 0x1048108C: get_pixels_vsx (pixblockdsp.c:139)
==38197==    by 0x1023C30F: dnxhd_get_blocks (dnxhdenc.c:576)
==38197==    by 0x1023C30F: dnxhd_calc_bits_thread (dnxhdenc.c:619)
==38197==    by 0x1023D273: dnxhd_find_qscale (dnxhdenc.c:866)
==38197==    by 0x1023D273: dnxhd_encode_fast (dnxhdenc.c:969)
==38197==    by 0x1023D273: dnxhd_encode_picture (dnxhdenc.c:1055)
==38197==    by 0x10262E43: avcodec_encode_video2 (encode.c:227)
==38197==    by 0x10263063: do_encode (encode.c:274)
==38197==    by 0x102632CF: avcodec_send_frame (encode.c:323)
==38197==    by 0x10077637: do_video_out (avconv.c:587)
==38197==    by 0x10077637: poll_filter (avconv.c:726)
==38197==    by 0x10077E0F: poll_filters (avconv.c:800)
==38197==    by 0x1005EAEB: transcode (avconv.c:2803)
==38197==    by 0x1005EAEB: main (avconv.c:2972)
==38197==  Address 0x16e71078 is 921,592 bytes inside a block of size 921,600 alloc'd
==38197==    at 0x4088C90: memalign (vg_replace_malloc.c:857)
==38197==    by 0x4088DFF: posix_memalign (vg_replace_malloc.c:1020)
==38197==    by 0x108B2ED7: av_malloc (mem.c:71)
==38197==    by 0x1089F147: av_buffer_alloc (buffer.c:72)
==38197==    by 0x108AA053: get_video_buffer (frame.c:119)
==38197==    by 0x108AA053: av_frame_get_buffer (frame.c:196)
==38197==    by 0x1009BFA7: ff_default_get_video_buffer (video.c:55)
==38197==    by 0x1009BFA7: ff_get_video_buffer (video.c:73)
==38197==    by 0x1009BFA7: ff_null_get_video_buffer (video.c:33)
==38197==    by 0x1009BF33: ff_get_video_buffer (video.c:70)
==38197==    by 0x1009BF33: ff_null_get_video_buffer (video.c:33)
==38197==    by 0x1009C18B: ff_get_video_buffer (video.c:70)
==38197==    by 0x1009601F: filter_frame (vf_scale.c:276)
==38197==    by 0x1007DA63: ff_filter_frame (avfilter.c:698)
==38197==    by 0x1007DA63: default_filter_frame (avfilter.c:638)
==38197==    by 0x100802E3: ff_filter_frame (avfilter.c:698)
==38197==    by 0x10082AD3: request_frame (buffersrc.c:399)
==38197== 
==38197== Invalid read of size 16
==38197==    at 0x1048108C: get_pixels_vsx (pixblockdsp.c:139)
==38197==    by 0x1023C33F: dnxhd_get_blocks (dnxhdenc.c:578)
==38197==    by 0x1023C33F: dnxhd_calc_bits_thread (dnxhdenc.c:619)
==38197==    by 0x1023D273: dnxhd_find_qscale (dnxhdenc.c:866)
==38197==    by 0x1023D273: dnxhd_encode_fast (dnxhdenc.c:969)
==38197==    by 0x1023D273: dnxhd_encode_picture (dnxhdenc.c:1055)
==38197==    by 0x10262E43: avcodec_encode_video2 (encode.c:227)
==38197==    by 0x10263063: do_encode (encode.c:274)
==38197==    by 0x102632CF: avcodec_send_frame (encode.c:323)
==38197==    by 0x10077637: do_video_out (avconv.c:587)
==38197==    by 0x10077637: poll_filter (avconv.c:726)
==38197==    by 0x10077E0F: poll_filters (avconv.c:800)
==38197==    by 0x1005EAEB: transcode (avconv.c:2803)
==38197==    by 0x1005EAEB: main (avconv.c:2972)
==38197==  Address 0x16ee1918 is 460,792 bytes inside a block of size 460,800 alloc'd
==38197==    at 0x4088C90: memalign (vg_replace_malloc.c:857)
==38197==    by 0x4088DFF: posix_memalign (vg_replace_malloc.c:1020)
==38197==    by 0x108B2ED7: av_malloc (mem.c:71)
==38197==    by 0x1089F147: av_buffer_alloc (buffer.c:72)
==38197==    by 0x108AA053: get_video_buffer (frame.c:119)
==38197==    by 0x108AA053: av_frame_get_buffer (frame.c:196)
==38197==    by 0x1009BFA7: ff_default_get_video_buffer (video.c:55)
==38197==    by 0x1009BFA7: ff_get_video_buffer (video.c:73)
==38197==    by 0x1009BFA7: ff_null_get_video_buffer (video.c:33)
==38197==    by 0x1009BF33: ff_get_video_buffer (video.c:70)
==38197==    by 0x1009BF33: ff_null_get_video_buffer (video.c:33)
==38197==    by 0x1009C18B: ff_get_video_buffer (video.c:70)
==38197==    by 0x1009601F: filter_frame (vf_scale.c:276)
==38197==    by 0x1007DA63: ff_filter_frame (avfilter.c:698)
==38197==    by 0x1007DA63: default_filter_frame (avfilter.c:638)
==38197==    by 0x100802E3: ff_filter_frame (avfilter.c:698)
==38197==    by 0x10082AD3: request_frame (buffersrc.c:399)
==38197== 
==38197== Invalid read of size 16
==38197==    at 0x1048108C: get_pixels_vsx (pixblockdsp.c:139)
==38197==    by 0x1023C36F: dnxhd_get_blocks (dnxhdenc.c:580)
==38197==    by 0x1023C36F: dnxhd_calc_bits_thread (dnxhdenc.c:619)
==38197==    by 0x1023D273: dnxhd_find_qscale (dnxhdenc.c:866)
==38197==    by 0x1023D273: dnxhd_encode_fast (dnxhdenc.c:969)
==38197==    by 0x1023D273: dnxhd_encode_picture (dnxhdenc.c:1055)
==38197==    by 0x10262E43: avcodec_encode_video2 (encode.c:227)
==38197==    by 0x10263063: do_encode (encode.c:274)
==38197==    by 0x102632CF: avcodec_send_frame (encode.c:323)
==38197==    by 0x10077637: do_video_out (avconv.c:587)
==38197==    by 0x10077637: poll_filter (avconv.c:726)
==38197==    by 0x10077E0F: poll_filters (avconv.c:800)
==38197==    by 0x1005EAEB: transcode (avconv.c:2803)
==38197==    by 0x1005EAEB: main (avconv.c:2972)
==38197==  Address 0x16f521b8 is 460,792 bytes inside a block of size 460,800 alloc'd
==38197==    at 0x4088C90: memalign (vg_replace_malloc.c:857)
==38197==    by 0x4088DFF: posix_memalign (vg_replace_malloc.c:1020)
==38197==    by 0x108B2ED7: av_malloc (mem.c:71)
==38197==    by 0x1089F147: av_buffer_alloc (buffer.c:72)
==38197==    by 0x108AA053: get_video_buffer (frame.c:119)
==38197==    by 0x108AA053: av_frame_get_buffer (frame.c:196)
==38197==    by 0x1009BFA7: ff_default_get_video_buffer (video.c:55)
==38197==    by 0x1009BFA7: ff_get_video_buffer (video.c:73)
==38197==    by 0x1009BFA7: ff_null_get_video_buffer (video.c:33)
==38197==    by 0x1009BF33: ff_get_video_buffer (video.c:70)
==38197==    by 0x1009BF33: ff_null_get_video_buffer (video.c:33)
==38197==    by 0x1009C18B: ff_get_video_buffer (video.c:70)
==38197==    by 0x1009601F: filter_frame (vf_scale.c:276)
==38197==    by 0x1007DA63: ff_filter_frame (avfilter.c:698)
==38197==    by 0x1007DA63: default_filter_frame (avfilter.c:638)
==38197==    by 0x100802E3: ff_filter_frame (avfilter.c:698)
==38197==    by 0x10082AD3: request_frame (buffersrc.c:399)
==38197== 
==38197== Invalid read of size 16
==38197==    at 0x1048108C: get_pixels_vsx (pixblockdsp.c:139)
==38197==    by 0x1023B9B3: dnxhd_get_blocks (dnxhdenc.c:576)
==38197==    by 0x1023B9B3: dnxhd_encode_thread (dnxhdenc.c:674)
==38197==    by 0x1023D9AF: dnxhd_encode_picture (dnxhdenc.c:1071)
==38197==    by 0x10262E43: avcodec_encode_video2 (encode.c:227)
==38197==    by 0x10263063: do_encode (encode.c:274)
==38197==    by 0x102632CF: avcodec_send_frame (encode.c:323)
==38197==    by 0x10077637: do_video_out (avconv.c:587)
==38197==    by 0x10077637: poll_filter (avconv.c:726)
==38197==    by 0x10077E0F: poll_filters (avconv.c:800)
==38197==    by 0x1005EAEB: transcode (avconv.c:2803)
==38197==    by 0x1005EAEB: main (avconv.c:2972)
==38197==  Address 0x16e71078 is 921,592 bytes inside a block of size 921,600 alloc'd
==38197==    at 0x4088C90: memalign (vg_replace_malloc.c:857)
==38197==    by 0x4088DFF: posix_memalign (vg_replace_malloc.c:1020)
==38197==    by 0x108B2ED7: av_malloc (mem.c:71)
==38197==    by 0x1089F147: av_buffer_alloc (buffer.c:72)
==38197==    by 0x108AA053: get_video_buffer (frame.c:119)
==38197==    by 0x108AA053: av_frame_get_buffer (frame.c:196)
==38197==    by 0x1009BFA7: ff_default_get_video_buffer (video.c:55)
==38197==    by 0x1009BFA7: ff_get_video_buffer (video.c:73)
==38197==    by 0x1009BFA7: ff_null_get_video_buffer (video.c:33)
==38197==    by 0x1009BF33: ff_get_video_buffer (video.c:70)
==38197==    by 0x1009BF33: ff_null_get_video_buffer (video.c:33)
==38197==    by 0x1009C18B: ff_get_video_buffer (video.c:70)
==38197==    by 0x1009601F: filter_frame (vf_scale.c:276)
==38197==    by 0x1007DA63: ff_filter_frame (avfilter.c:698)
==38197==    by 0x1007DA63: default_filter_frame (avfilter.c:638)
==38197==    by 0x100802E3: ff_filter_frame (avfilter.c:698)
==38197==    by 0x10082AD3: request_frame (buffersrc.c:399)
==38197== 
==38197== Invalid read of size 16
==38197==    at 0x1048108C: get_pixels_vsx (pixblockdsp.c:139)
==38197==    by 0x1023B9E3: dnxhd_get_blocks (dnxhdenc.c:578)
==38197==    by 0x1023B9E3: dnxhd_encode_thread (dnxhdenc.c:674)
==38197==    by 0x1023D9AF: dnxhd_encode_picture (dnxhdenc.c:1071)
==38197==    by 0x10262E43: avcodec_encode_video2 (encode.c:227)
==38197==    by 0x10263063: do_encode (encode.c:274)
==38197==    by 0x102632CF: avcodec_send_frame (encode.c:323)
==38197==    by 0x10077637: do_video_out (avconv.c:587)
==38197==    by 0x10077637: poll_filter (avconv.c:726)
==38197==    by 0x10077E0F: poll_filters (avconv.c:800)
==38197==    by 0x1005EAEB: transcode (avconv.c:2803)
==38197==    by 0x1005EAEB: main (avconv.c:2972)
==38197==  Address 0x16ee1918 is 460,792 bytes inside a block of size 460,800 alloc'd
==38197==    at 0x4088C90: memalign (vg_replace_malloc.c:857)
==38197==    by 0x4088DFF: posix_memalign (vg_replace_malloc.c:1020)
==38197==    by 0x108B2ED7: av_malloc (mem.c:71)
==38197==    by 0x1089F147: av_buffer_alloc (buffer.c:72)
==38197==    by 0x108AA053: get_video_buffer (frame.c:119)
==38197==    by 0x108AA053: av_frame_get_buffer (frame.c:196)
==38197==    by 0x1009BFA7: ff_default_get_video_buffer (video.c:55)
==38197==    by 0x1009BFA7: ff_get_video_buffer (video.c:73)
==38197==    by 0x1009BFA7: ff_null_get_video_buffer (video.c:33)
==38197==    by 0x1009BF33: ff_get_video_buffer (video.c:70)
==38197==    by 0x1009BF33: ff_null_get_video_buffer (video.c:33)
==38197==    by 0x1009C18B: ff_get_video_buffer (video.c:70)
==38197==    by 0x1009601F: filter_frame (vf_scale.c:276)
==38197==    by 0x1007DA63: ff_filter_frame (avfilter.c:698)
==38197==    by 0x1007DA63: default_filter_frame (avfilter.c:638)
==38197==    by 0x100802E3: ff_filter_frame (avfilter.c:698)
==38197==    by 0x10082AD3: request_frame (buffersrc.c:399)
==38197== 
==38197== Invalid read of size 16
==38197==    at 0x1048108C: get_pixels_vsx (pixblockdsp.c:139)
==38197==    by 0x1023BA13: dnxhd_get_blocks (dnxhdenc.c:580)
==38197==    by 0x1023BA13: dnxhd_encode_thread (dnxhdenc.c:674)
==38197==    by 0x1023D9AF: dnxhd_encode_picture (dnxhdenc.c:1071)
==38197==    by 0x10262E43: avcodec_encode_video2 (encode.c:227)
==38197==    by 0x10263063: do_encode (encode.c:274)
==38197==    by 0x102632CF: avcodec_send_frame (encode.c:323)
==38197==    by 0x10077637: do_video_out (avconv.c:587)
==38197==    by 0x10077637: poll_filter (avconv.c:726)
==38197==    by 0x10077E0F: poll_filters (avconv.c:800)
==38197==    by 0x1005EAEB: transcode (avconv.c:2803)
==38197==    by 0x1005EAEB: main (avconv.c:2972)
==38197==  Address 0x16f521b8 is 460,792 bytes inside a block of size 460,800 alloc'd
==38197==    at 0x4088C90: memalign (vg_replace_malloc.c:857)
==38197==    by 0x4088DFF: posix_memalign (vg_replace_malloc.c:1020)
==38197==    by 0x108B2ED7: av_malloc (mem.c:71)
==38197==    by 0x1089F147: av_buffer_alloc (buffer.c:72)
==38197==    by 0x108AA053: get_video_buffer (frame.c:119)
==38197==    by 0x108AA053: av_frame_get_buffer (frame.c:196)
==38197==    by 0x1009BFA7: ff_default_get_video_buffer (video.c:55)
==38197==    by 0x1009BFA7: ff_get_video_buffer (video.c:73)
==38197==    by 0x1009BFA7: ff_null_get_video_buffer (video.c:33)
==38197==    by 0x1009BF33: ff_get_video_buffer (video.c:70)
==38197==    by 0x1009BF33: ff_null_get_video_buffer (video.c:33)
==38197==    by 0x1009C18B: ff_get_video_buffer (video.c:70)
==38197==    by 0x1009601F: filter_frame (vf_scale.c:276)
==38197==    by 0x1007DA63: ff_filter_frame (avfilter.c:698)
==38197==    by 0x1007DA63: default_filter_frame (avfilter.c:638)
==38197==    by 0x100802E3: ff_filter_frame (avfilter.c:698)
==38197==    by 0x10082AD3: request_frame (buffersrc.c:399)
==38197== 
frame=    5 fps=  1 q=1.0 Lsize=    2240kB time=0.16 bitrate=114688.0kbits/s    
video:2240kB audio:0kB other streams:0kB global headers:0kB muxing overhead: 0.000000%
==38197== 
==38197== HEAP SUMMARY:
==38197==     in use at exit: 0 bytes in 0 blocks
==38197==   total heap usage: 1,765 allocs, 1,765 frees, 22,012,175 bytes allocated
==38197== 
==38197== All heap blocks were freed -- no leaks are possible
==38197== 
==38197== For counts of detected and suppressed errors, rerun with: -v
==38197== ERROR SUMMARY: 30 errors from 6 contexts (suppressed: 0 from 0)
diffstderrvsynth2-dnxhd-720p-rd1v12_dev0-1345-g0181ae9
--- /home/mik/src/fate/src/tests/ref/vsynth/vsynth2-dnxhd-720p-rd	2014-11-30 15:37:05.674204650 +0000
+++ tests/data/fate/vsynth2-dnxhd-720p-rd	2018-01-12 01:24:27.669566621 +0000
@@ -1,4 +0,0 @@
-819a7714098e098981bf08253ef2e490 *tests/data/fate/vsynth2-dnxhd-720p-rd.dnxhd
-2293760 tests/data/fate/vsynth2-dnxhd-720p-rd.dnxhd
-a05c35b99e5e74a9c8b3a9c66da01775 *tests/data/fate/vsynth2-dnxhd-720p-rd.out.rawvideo
-stddev:    1.53 PSNR: 44.39 MAXDIFF:   31 bytes:  7603200/   760320
==38547== Memcheck, a memory error detector
==38547== Copyright (C) 2002-2015, and GNU GPL'd, by Julian Seward et al.
==38547== Using Valgrind-3.12.0.SVN and LibVEX; rerun with -h for copyright info
==38547== Command: /home/mik/src/fate/ppc64-linux-gcc-valgrind/build/avconv -nostats -cpuflags all -f rawvideo -s 352x288 -pix_fmt yuv420p -threads 1 -idct simple -flags +bitexact -sws_flags +accurate_rnd+bitexact -fflags +bitexact -hwaccel none -threads 1 -thread_type frame+slice -i /home/mik/src/fate/ppc64-linux-gcc-valgrind/build/tests/data/vsynth2.yuv -threads 1 -idct simple -dct fastint -c dnxhd -s hd720 -b 90M -threads 4 -mbd rd -pix_fmt yuv422p -frames 5 -flags +bitexact -sws_flags +accurate_rnd+bitexact -fflags +bitexact -f dnxhd -y /home/mik/src/fate/ppc64-linux-gcc-valgrind/build/tests/data/fate/vsynth2-dnxhd-720p-rd.dnxhd
==38547== 
avconv version v13_dev0-1441-gcbe28bc, Copyright (c) 2000-2018 the Libav developers
  built on Jan 12 2018 01:01:36 with gcc 5.5.0 (GCC)
[rawvideo @ 0x46caec0] Estimating duration from bitrate, this may be inaccurate
Input #0, rawvideo, from '/home/mik/src/fate/ppc64-linux-gcc-valgrind/build/tests/data/vsynth2.yuv':
  Duration: N/A, start: 0.000000, bitrate: N/A
    Stream #0:0: Video: rawvideo
      yuv420p, 352x288
      25 fps, 25 tbn
Stream mapping:
  Stream #0:0 -> #0:0 (rawvideo (native) -> dnxhd (native))
Press ctrl-c to stop encoding
Output #0, dnxhd, to '/home/mik/src/fate/ppc64-linux-gcc-valgrind/build/tests/data/fate/vsynth2-dnxhd-720p-rd.dnxhd':
    Stream #0:0: Video: dnxhd
      yuv422p, 1280x720, q=2-31, 90000 kb/s
      25 tbn
    Metadata:
      encoder         : dnxhd
==38547== Thread 68:
==38547== Invalid read of size 16
==38547==    at 0x1048108C: get_pixels_vsx (pixblockdsp.c:139)
==38547==    by 0x1023C30F: dnxhd_get_blocks (dnxhdenc.c:576)
==38547==    by 0x1023C30F: dnxhd_calc_bits_thread (dnxhdenc.c:619)
==38547==    by 0x43DC95B: start_thread (in /usr/lib64/libpthread-2.17.so)
==38547==    by 0x4563BBB: clone (in /usr/lib64/libc-2.17.so)
==38547==  Address 0x17e71078 is 921,592 bytes inside a block of size 921,600 alloc'd
==38547==    at 0x4088C90: memalign (vg_replace_malloc.c:857)
==38547==    by 0x4088DFF: posix_memalign (vg_replace_malloc.c:1020)
==38547==    by 0x108B2ED7: av_malloc (mem.c:71)
==38547==    by 0x1089F147: av_buffer_alloc (buffer.c:72)
==38547==    by 0x108AA053: get_video_buffer (frame.c:119)
==38547==    by 0x108AA053: av_frame_get_buffer (frame.c:196)
==38547==    by 0x1009BFA7: ff_default_get_video_buffer (video.c:55)
==38547==    by 0x1009BFA7: ff_get_video_buffer (video.c:73)
==38547==    by 0x1009BFA7: ff_null_get_video_buffer (video.c:33)
==38547==    by 0x1009BF33: ff_get_video_buffer (video.c:70)
==38547==    by 0x1009BF33: ff_null_get_video_buffer (video.c:33)
==38547==    by 0x1009C18B: ff_get_video_buffer (video.c:70)
==38547==    by 0x1009601F: filter_frame (vf_scale.c:276)
==38547==    by 0x1007DA63: ff_filter_frame (avfilter.c:698)
==38547==    by 0x1007DA63: default_filter_frame (avfilter.c:638)
==38547==    by 0x100802E3: ff_filter_frame (avfilter.c:698)
==38547==    by 0x10082AD3: request_frame (buffersrc.c:399)
==38547== 
==38547== Invalid read of size 16
==38547==    at 0x1048108C: get_pixels_vsx (pixblockdsp.c:139)
==38547==    by 0x1023C33F: dnxhd_get_blocks (dnxhdenc.c:578)
==38547==    by 0x1023C33F: dnxhd_calc_bits_thread (dnxhdenc.c:619)
==38547==    by 0x43DC95B: start_thread (in /usr/lib64/libpthread-2.17.so)
==38547==    by 0x4563BBB: clone (in /usr/lib64/libc-2.17.so)
==38547==  Address 0x17ee1918 is 460,792 bytes inside a block of size 460,800 alloc'd
==38547==    at 0x4088C90: memalign (vg_replace_malloc.c:857)
==38547==    by 0x4088DFF: posix_memalign (vg_replace_malloc.c:1020)
==38547==    by 0x108B2ED7: av_malloc (mem.c:71)
==38547==    by 0x1089F147: av_buffer_alloc (buffer.c:72)
==38547==    by 0x108AA053: get_video_buffer (frame.c:119)
==38547==    by 0x108AA053: av_frame_get_buffer (frame.c:196)
==38547==    by 0x1009BFA7: ff_default_get_video_buffer (video.c:55)
==38547==    by 0x1009BFA7: ff_get_video_buffer (video.c:73)
==38547==    by 0x1009BFA7: ff_null_get_video_buffer (video.c:33)
==38547==    by 0x1009BF33: ff_get_video_buffer (video.c:70)
==38547==    by 0x1009BF33: ff_null_get_video_buffer (video.c:33)
==38547==    by 0x1009C18B: ff_get_video_buffer (video.c:70)
==38547==    by 0x1009601F: filter_frame (vf_scale.c:276)
==38547==    by 0x1007DA63: ff_filter_frame (avfilter.c:698)
==38547==    by 0x1007DA63: default_filter_frame (avfilter.c:638)
==38547==    by 0x100802E3: ff_filter_frame (avfilter.c:698)
==38547==    by 0x10082AD3: request_frame (buffersrc.c:399)
==38547== 
==38547== Invalid read of size 16
==38547==    at 0x1048108C: get_pixels_vsx (pixblockdsp.c:139)
==38547==    by 0x1023C36F: dnxhd_get_blocks (dnxhdenc.c:580)
==38547==    by 0x1023C36F: dnxhd_calc_bits_thread (dnxhdenc.c:619)
==38547==    by 0x43DC95B: start_thread (in /usr/lib64/libpthread-2.17.so)
==38547==    by 0x4563BBB: clone (in /usr/lib64/libc-2.17.so)
==38547==  Address 0x17f521b8 is 460,792 bytes inside a block of size 460,800 alloc'd
==38547==    at 0x4088C90: memalign (vg_replace_malloc.c:857)
==38547==    by 0x4088DFF: posix_memalign (vg_replace_malloc.c:1020)
==38547==    by 0x108B2ED7: av_malloc (mem.c:71)
==38547==    by 0x1089F147: av_buffer_alloc (buffer.c:72)
==38547==    by 0x108AA053: get_video_buffer (frame.c:119)
==38547==    by 0x108AA053: av_frame_get_buffer (frame.c:196)
==38547==    by 0x1009BFA7: ff_default_get_video_buffer (video.c:55)
==38547==    by 0x1009BFA7: ff_get_video_buffer (video.c:73)
==38547==    by 0x1009BFA7: ff_null_get_video_buffer (video.c:33)
==38547==    by 0x1009BF33: ff_get_video_buffer (video.c:70)
==38547==    by 0x1009BF33: ff_null_get_video_buffer (video.c:33)
==38547==    by 0x1009C18B: ff_get_video_buffer (video.c:70)
==38547==    by 0x1009601F: filter_frame (vf_scale.c:276)
==38547==    by 0x1007DA63: ff_filter_frame (avfilter.c:698)
==38547==    by 0x1007DA63: default_filter_frame (avfilter.c:638)
==38547==    by 0x100802E3: ff_filter_frame (avfilter.c:698)
==38547==    by 0x10082AD3: request_frame (buffersrc.c:399)
==38547== 
==38547== Invalid read of size 16
==38547==    at 0x1048108C: get_pixels_vsx (pixblockdsp.c:139)
==38547==    by 0x1023B9B3: dnxhd_get_blocks (dnxhdenc.c:576)
==38547==    by 0x1023B9B3: dnxhd_encode_thread (dnxhdenc.c:674)
==38547==    by 0x43DC95B: start_thread (in /usr/lib64/libpthread-2.17.so)
==38547==    by 0x4563BBB: clone (in /usr/lib64/libc-2.17.so)
==38547==  Address 0x17e71078 is 921,592 bytes inside a block of size 921,600 alloc'd
==38547==    at 0x4088C90: memalign (vg_replace_malloc.c:857)
==38547==    by 0x4088DFF: posix_memalign (vg_replace_malloc.c:1020)
==38547==    by 0x108B2ED7: av_malloc (mem.c:71)
==38547==    by 0x1089F147: av_buffer_alloc (buffer.c:72)
==38547==    by 0x108AA053: get_video_buffer (frame.c:119)
==38547==    by 0x108AA053: av_frame_get_buffer (frame.c:196)
==38547==    by 0x1009BFA7: ff_default_get_video_buffer (video.c:55)
==38547==    by 0x1009BFA7: ff_get_video_buffer (video.c:73)
==38547==    by 0x1009BFA7: ff_null_get_video_buffer (video.c:33)
==38547==    by 0x1009BF33: ff_get_video_buffer (video.c:70)
==38547==    by 0x1009BF33: ff_null_get_video_buffer (video.c:33)
==38547==    by 0x1009C18B: ff_get_video_buffer (video.c:70)
==38547==    by 0x1009601F: filter_frame (vf_scale.c:276)
==38547==    by 0x1007DA63: ff_filter_frame (avfilter.c:698)
==38547==    by 0x1007DA63: default_filter_frame (avfilter.c:638)
==38547==    by 0x100802E3: ff_filter_frame (avfilter.c:698)
==38547==    by 0x10082AD3: request_frame (buffersrc.c:399)
==38547== 
==38547== Invalid read of size 16
==38547==    at 0x1048108C: get_pixels_vsx (pixblockdsp.c:139)
==38547==    by 0x1023B9E3: dnxhd_get_blocks (dnxhdenc.c:578)
==38547==    by 0x1023B9E3: dnxhd_encode_thread (dnxhdenc.c:674)
==38547==    by 0x43DC95B: start_thread (in /usr/lib64/libpthread-2.17.so)
==38547==    by 0x4563BBB: clone (in /usr/lib64/libc-2.17.so)
==38547==  Address 0x17ee1918 is 460,792 bytes inside a block of size 460,800 alloc'd
==38547==    at 0x4088C90: memalign (vg_replace_malloc.c:857)
==38547==    by 0x4088DFF: posix_memalign (vg_replace_malloc.c:1020)
==38547==    by 0x108B2ED7: av_malloc (mem.c:71)
==38547==    by 0x1089F147: av_buffer_alloc (buffer.c:72)
==38547==    by 0x108AA053: get_video_buffer (frame.c:119)
==38547==    by 0x108AA053: av_frame_get_buffer (frame.c:196)
==38547==    by 0x1009BFA7: ff_default_get_video_buffer (video.c:55)
==38547==    by 0x1009BFA7: ff_get_video_buffer (video.c:73)
==38547==    by 0x1009BFA7: ff_null_get_video_buffer (video.c:33)
==38547==    by 0x1009BF33: ff_get_video_buffer (video.c:70)
==38547==    by 0x1009BF33: ff_null_get_video_buffer (video.c:33)
==38547==    by 0x1009C18B: ff_get_video_buffer (video.c:70)
==38547==    by 0x1009601F: filter_frame (vf_scale.c:276)
==38547==    by 0x1007DA63: ff_filter_frame (avfilter.c:698)
==38547==    by 0x1007DA63: default_filter_frame (avfilter.c:638)
==38547==    by 0x100802E3: ff_filter_frame (avfilter.c:698)
==38547==    by 0x10082AD3: request_frame (buffersrc.c:399)
==38547== 
==38547== Invalid read of size 16
==38547==    at 0x1048108C: get_pixels_vsx (pixblockdsp.c:139)
==38547==    by 0x1023BA13: dnxhd_get_blocks (dnxhdenc.c:580)
==38547==    by 0x1023BA13: dnxhd_encode_thread (dnxhdenc.c:674)
==38547==    by 0x43DC95B: start_thread (in /usr/lib64/libpthread-2.17.so)
==38547==    by 0x4563BBB: clone (in /usr/lib64/libc-2.17.so)
==38547==  Address 0x17f521b8 is 460,792 bytes inside a block of size 460,800 alloc'd
==38547==    at 0x4088C90: memalign (vg_replace_malloc.c:857)
==38547==    by 0x4088DFF: posix_memalign (vg_replace_malloc.c:1020)
==38547==    by 0x108B2ED7: av_malloc (mem.c:71)
==38547==    by 0x1089F147: av_buffer_alloc (buffer.c:72)
==38547==    by 0x108AA053: get_video_buffer (frame.c:119)
==38547==    by 0x108AA053: av_frame_get_buffer (frame.c:196)
==38547==    by 0x1009BFA7: ff_default_get_video_buffer (video.c:55)
==38547==    by 0x1009BFA7: ff_get_video_buffer (video.c:73)
==38547==    by 0x1009BFA7: ff_null_get_video_buffer (video.c:33)
==38547==    by 0x1009BF33: ff_get_video_buffer (video.c:70)
==38547==    by 0x1009BF33: ff_null_get_video_buffer (video.c:33)
==38547==    by 0x1009C18B: ff_get_video_buffer (video.c:70)
==38547==    by 0x1009601F: filter_frame (vf_scale.c:276)
==38547==    by 0x1007DA63: ff_filter_frame (avfilter.c:698)
==38547==    by 0x1007DA63: default_filter_frame (avfilter.c:638)
==38547==    by 0x100802E3: ff_filter_frame (avfilter.c:698)
==38547==    by 0x10082AD3: request_frame (buffersrc.c:399)
==38547== 
frame=    5 fps=  0 q=30.0 Lsize=    2240kB time=0.16 bitrate=114688.0kbits/s    
video:2240kB audio:0kB other streams:0kB global headers:0kB muxing overhead: 0.000000%
==38547== 
==38547== HEAP SUMMARY:
==38547==     in use at exit: 0 bytes in 0 blocks
==38547==   total heap usage: 1,790 allocs, 1,790 frees, 22,020,351 bytes allocated
==38547== 
==38547== All heap blocks were freed -- no leaks are possible
==38547== 
==38547== For counts of detected and suppressed errors, rerun with: -v
==38547== ERROR SUMMARY: 465 errors from 6 contexts (suppressed: 0 from 0)