ppc64-linux-gcc-valgrind v13_dev0-1417-g3ff8fbb

Architectureppc
Variantppc64
CPUgeneric
OSlinux
Ownerkostylev
Compilergcc 5.5.0 (GCC)
Configuration--prefix=/home/mik/src/fate/ppc64-linux-gcc-valgrind/install --samples=/home/mik/src/fate/fate-suite --enable-gpl --cc=gcc-5 --target-exec='valgrind --leak-check=full --show-reachable=yes --error-exitcode=1 --malloc-fill=0x4a --undef-value-errors=no'
Commentvalgrind --undef-value-errors=no
Revisionv13_dev0-1417-g3ff8fbb
Date2017-12-07 01:26:43
Status2142 / 2147
Warnings67
Logscompile configure test
5 failed testsStatusLast good rev
diffstderrsvq3-21n / a
--- /home/mik/src/fate/src/tests/ref/fate/svq3-2	2017-02-27 10:07:05.303380676 +0000
+++ tests/data/fate/svq3-2	2017-12-07 01:17:49.046042423 +0000
@@ -1,5 +1,5 @@
 #tb 0: 1/19200
-0,     -20000,     -20000,        0,   185280, 0x061c0d85
+0,     -20000,     -20000,        0,   185280, 0xc0bd953f
 0,     -19200,     -19200,        0,   185280, 0x427ef9a7
 0,     -18400,     -18400,        0,   185280, 0x64c74d6a
 0,     -17600,     -17600,        0,   185280, 0x5bfd0e5b
==50756== Memcheck, a memory error detector
==50756== Copyright (C) 2002-2015, and GNU GPL'd, by Julian Seward et al.
==50756== Using Valgrind-3.12.0.SVN and LibVEX; rerun with -h for copyright info
==50756== Command: /home/mik/src/fate/ppc64-linux-gcc-valgrind/build/avconv -nostats -cpuflags all -flags +bitexact -hwaccel none -threads 1 -thread_type frame+slice -i /home/mik/src/fate/fate-suite/svq3/svq3_decoding_regression.mov -an -f framecrc -
==50756== 
avconv version v13_dev0-1417-g3ff8fbb, Copyright (c) 2000-2017 the Libav developers
  built on Dec  7 2017 01:00:30 with gcc 5.5.0 (GCC)
Input #0, mov,mp4,m4a,3gp,3g2,mj2, from '/home/mik/src/fate/fate-suite/svq3/svq3_decoding_regression.mov':
  Metadata:
    major_brand     : qt  
    minor_version   : 512
    compatible_brands: qt  
    artist          : Mark Strube - SupaDupaStrube@msn.com
    artist-eng      : Mark Strube - SupaDupaStrube@msn.com
    title           : Movie-List Presents: The Abyss
    title-eng       : Movie-List Presents: The Abyss
    encoder         : Lavf57.66.101
    copyright       : © 1989 Twentieth Century Fox
    copyright-eng   : © 1989 Twentieth Century Fox
  Duration: 00:00:00.83, bitrate: 2376 kb/s
    Stream #0:0(eng): Video: svq3 [SVQ3 / 0x33515653]
      yuvj420p, pc, 480x257, 2366 kb/s
      24 fps, 19200 tbn (default)
    Metadata:
      handler_name    : DataHandler
      encoder         : Sorenson Video 3
Stream mapping:
  Stream #0:0 -> #0:0 (svq3 (native) -> rawvideo (native))
Press ctrl-c to stop encoding
[svq3 @ 0x4727660] Missing reference frame.
Output #0, framecrc, to 'pipe:':
  Metadata:
    major_brand     : qt  
    minor_version   : 512
    compatible_brands: qt  
    artist          : Mark Strube - SupaDupaStrube@msn.com
    artist-eng      : Mark Strube - SupaDupaStrube@msn.com
    title           : Movie-List Presents: The Abyss
    title-eng       : Movie-List Presents: The Abyss
    copyright-eng   : © 1989 Twentieth Century Fox
    copyright       : © 1989 Twentieth Century Fox
    encoder         : Lavf58.1.0
    Stream #0:0(eng): Video: rawvideo [I420 / 0x30323449]
      yuvj420p, 480x257, q=2-31, 200 kb/s
      19200 tbn (default)
    Metadata:
      handler_name    : DataHandler
      encoder         : Sorenson Video 3
*** dropping frame 19 from stream 0 at ts -6400
frame=   19 fps=  0 q=-0.0 Lsize=       1kB time=10000000000.00 bitrate=   0.0kbits/s drop=1    
video:3438kB audio:0kB other streams:0kB global headers:0kB muxing overhead: unknown
==50756== 
==50756== HEAP SUMMARY:
==50756==     in use at exit: 0 bytes in 0 blocks
==50756==   total heap usage: 1,668 allocs, 1,668 frees, 8,678,202 bytes allocated
==50756== 
==50756== All heap blocks were freed -- no leaks are possible
==50756== 
==50756== For counts of detected and suppressed errors, rerun with: -v
==50756== ERROR SUMMARY: 0 errors from 0 contexts (suppressed: 0 from 0)
diffstderrvsynth1-dnxhd-720p1v12_dev0-1345-g0181ae9
--- /home/mik/src/fate/src/tests/ref/vsynth/vsynth1-dnxhd-720p	2014-01-10 11:16:55.734697630 +0000
+++ tests/data/fate/vsynth1-dnxhd-720p	2017-12-07 01:21:16.396498593 +0000
@@ -1,4 +0,0 @@
-81f5be451dc18cf8a1d333c7885de60b *tests/data/fate/vsynth1-dnxhd-720p.dnxhd
-2293760 tests/data/fate/vsynth1-dnxhd-720p.dnxhd
-94b21e5e68ccf9471eff74afd0ebe319 *tests/data/fate/vsynth1-dnxhd-720p.out.rawvideo
-stddev:    6.32 PSNR: 32.11 MAXDIFF:  183 bytes:  7603200/   760320
==24924== Memcheck, a memory error detector
==24924== Copyright (C) 2002-2015, and GNU GPL'd, by Julian Seward et al.
==24924== Using Valgrind-3.12.0.SVN and LibVEX; rerun with -h for copyright info
==24924== Command: /home/mik/src/fate/ppc64-linux-gcc-valgrind/build/avconv -nostats -cpuflags all -f rawvideo -s 352x288 -pix_fmt yuv420p -threads 1 -idct simple -flags +bitexact -sws_flags +accurate_rnd+bitexact -fflags +bitexact -hwaccel none -threads 1 -thread_type frame+slice -i /home/mik/src/fate/ppc64-linux-gcc-valgrind/build/tests/data/vsynth1.yuv -threads 1 -idct simple -dct fastint -c dnxhd -s hd720 -b 90M -pix_fmt yuv422p -frames 5 -flags +bitexact -sws_flags +accurate_rnd+bitexact -fflags +bitexact -f dnxhd -y /home/mik/src/fate/ppc64-linux-gcc-valgrind/build/tests/data/fate/vsynth1-dnxhd-720p.dnxhd
==24924== 
avconv version v13_dev0-1417-g3ff8fbb, Copyright (c) 2000-2017 the Libav developers
  built on Dec  7 2017 01:00:30 with gcc 5.5.0 (GCC)
[rawvideo @ 0x46cae20] Estimating duration from bitrate, this may be inaccurate
Input #0, rawvideo, from '/home/mik/src/fate/ppc64-linux-gcc-valgrind/build/tests/data/vsynth1.yuv':
  Duration: N/A, start: 0.000000, bitrate: N/A
    Stream #0:0: Video: rawvideo
      yuv420p, 352x288
      25 fps, 25 tbn
Stream mapping:
  Stream #0:0 -> #0:0 (rawvideo (native) -> dnxhd (native))
Press ctrl-c to stop encoding
Output #0, dnxhd, to '/home/mik/src/fate/ppc64-linux-gcc-valgrind/build/tests/data/fate/vsynth1-dnxhd-720p.dnxhd':
    Stream #0:0: Video: dnxhd
      yuv422p, 1280x720, q=2-31, 90000 kb/s
      25 tbn
    Metadata:
      encoder         : dnxhd
==24924== Invalid read of size 16
==24924==    at 0x1048084C: get_pixels_vsx (pixblockdsp.c:139)
==24924==    by 0x1023BACF: dnxhd_get_blocks (dnxhdenc.c:576)
==24924==    by 0x1023BACF: dnxhd_calc_bits_thread (dnxhdenc.c:619)
==24924==    by 0x1023CA33: dnxhd_find_qscale (dnxhdenc.c:866)
==24924==    by 0x1023CA33: dnxhd_encode_fast (dnxhdenc.c:969)
==24924==    by 0x1023CA33: dnxhd_encode_picture (dnxhdenc.c:1055)
==24924==    by 0x10262603: avcodec_encode_video2 (encode.c:227)
==24924==    by 0x10262823: do_encode (encode.c:274)
==24924==    by 0x10262A8F: avcodec_send_frame (encode.c:323)
==24924==    by 0x10077077: do_video_out (avconv.c:587)
==24924==    by 0x10077077: poll_filter (avconv.c:726)
==24924==    by 0x1007784F: poll_filters (avconv.c:800)
==24924==    by 0x1005EAEB: transcode (avconv.c:2771)
==24924==    by 0x1005EAEB: main (avconv.c:2940)
==24924==  Address 0x16e71078 is 921,592 bytes inside a block of size 921,600 alloc'd
==24924==    at 0x4088C90: memalign (vg_replace_malloc.c:857)
==24924==    by 0x4088DFF: posix_memalign (vg_replace_malloc.c:1020)
==24924==    by 0x108B2697: av_malloc (mem.c:71)
==24924==    by 0x1089E907: av_buffer_alloc (buffer.c:72)
==24924==    by 0x108A9813: get_video_buffer (frame.c:119)
==24924==    by 0x108A9813: av_frame_get_buffer (frame.c:196)
==24924==    by 0x1009B9E7: ff_default_get_video_buffer (video.c:55)
==24924==    by 0x1009B9E7: ff_get_video_buffer (video.c:73)
==24924==    by 0x1009B9E7: ff_null_get_video_buffer (video.c:33)
==24924==    by 0x1009B973: ff_get_video_buffer (video.c:70)
==24924==    by 0x1009B973: ff_null_get_video_buffer (video.c:33)
==24924==    by 0x1009BBCB: ff_get_video_buffer (video.c:70)
==24924==    by 0x10095A5F: filter_frame (vf_scale.c:276)
==24924==    by 0x1007D4A3: ff_filter_frame (avfilter.c:698)
==24924==    by 0x1007D4A3: default_filter_frame (avfilter.c:638)
==24924==    by 0x1007FD23: ff_filter_frame (avfilter.c:698)
==24924==    by 0x10082513: request_frame (buffersrc.c:399)
==24924== 
==24924== Invalid read of size 16
==24924==    at 0x1048084C: get_pixels_vsx (pixblockdsp.c:139)
==24924==    by 0x1023BAFF: dnxhd_get_blocks (dnxhdenc.c:578)
==24924==    by 0x1023BAFF: dnxhd_calc_bits_thread (dnxhdenc.c:619)
==24924==    by 0x1023CA33: dnxhd_find_qscale (dnxhdenc.c:866)
==24924==    by 0x1023CA33: dnxhd_encode_fast (dnxhdenc.c:969)
==24924==    by 0x1023CA33: dnxhd_encode_picture (dnxhdenc.c:1055)
==24924==    by 0x10262603: avcodec_encode_video2 (encode.c:227)
==24924==    by 0x10262823: do_encode (encode.c:274)
==24924==    by 0x10262A8F: avcodec_send_frame (encode.c:323)
==24924==    by 0x10077077: do_video_out (avconv.c:587)
==24924==    by 0x10077077: poll_filter (avconv.c:726)
==24924==    by 0x1007784F: poll_filters (avconv.c:800)
==24924==    by 0x1005EAEB: transcode (avconv.c:2771)
==24924==    by 0x1005EAEB: main (avconv.c:2940)
==24924==  Address 0x16ee1918 is 460,792 bytes inside a block of size 460,800 alloc'd
==24924==    at 0x4088C90: memalign (vg_replace_malloc.c:857)
==24924==    by 0x4088DFF: posix_memalign (vg_replace_malloc.c:1020)
==24924==    by 0x108B2697: av_malloc (mem.c:71)
==24924==    by 0x1089E907: av_buffer_alloc (buffer.c:72)
==24924==    by 0x108A9813: get_video_buffer (frame.c:119)
==24924==    by 0x108A9813: av_frame_get_buffer (frame.c:196)
==24924==    by 0x1009B9E7: ff_default_get_video_buffer (video.c:55)
==24924==    by 0x1009B9E7: ff_get_video_buffer (video.c:73)
==24924==    by 0x1009B9E7: ff_null_get_video_buffer (video.c:33)
==24924==    by 0x1009B973: ff_get_video_buffer (video.c:70)
==24924==    by 0x1009B973: ff_null_get_video_buffer (video.c:33)
==24924==    by 0x1009BBCB: ff_get_video_buffer (video.c:70)
==24924==    by 0x10095A5F: filter_frame (vf_scale.c:276)
==24924==    by 0x1007D4A3: ff_filter_frame (avfilter.c:698)
==24924==    by 0x1007D4A3: default_filter_frame (avfilter.c:638)
==24924==    by 0x1007FD23: ff_filter_frame (avfilter.c:698)
==24924==    by 0x10082513: request_frame (buffersrc.c:399)
==24924== 
==24924== Invalid read of size 16
==24924==    at 0x1048084C: get_pixels_vsx (pixblockdsp.c:139)
==24924==    by 0x1023BB2F: dnxhd_get_blocks (dnxhdenc.c:580)
==24924==    by 0x1023BB2F: dnxhd_calc_bits_thread (dnxhdenc.c:619)
==24924==    by 0x1023CA33: dnxhd_find_qscale (dnxhdenc.c:866)
==24924==    by 0x1023CA33: dnxhd_encode_fast (dnxhdenc.c:969)
==24924==    by 0x1023CA33: dnxhd_encode_picture (dnxhdenc.c:1055)
==24924==    by 0x10262603: avcodec_encode_video2 (encode.c:227)
==24924==    by 0x10262823: do_encode (encode.c:274)
==24924==    by 0x10262A8F: avcodec_send_frame (encode.c:323)
==24924==    by 0x10077077: do_video_out (avconv.c:587)
==24924==    by 0x10077077: poll_filter (avconv.c:726)
==24924==    by 0x1007784F: poll_filters (avconv.c:800)
==24924==    by 0x1005EAEB: transcode (avconv.c:2771)
==24924==    by 0x1005EAEB: main (avconv.c:2940)
==24924==  Address 0x16f521b8 is 460,792 bytes inside a block of size 460,800 alloc'd
==24924==    at 0x4088C90: memalign (vg_replace_malloc.c:857)
==24924==    by 0x4088DFF: posix_memalign (vg_replace_malloc.c:1020)
==24924==    by 0x108B2697: av_malloc (mem.c:71)
==24924==    by 0x1089E907: av_buffer_alloc (buffer.c:72)
==24924==    by 0x108A9813: get_video_buffer (frame.c:119)
==24924==    by 0x108A9813: av_frame_get_buffer (frame.c:196)
==24924==    by 0x1009B9E7: ff_default_get_video_buffer (video.c:55)
==24924==    by 0x1009B9E7: ff_get_video_buffer (video.c:73)
==24924==    by 0x1009B9E7: ff_null_get_video_buffer (video.c:33)
==24924==    by 0x1009B973: ff_get_video_buffer (video.c:70)
==24924==    by 0x1009B973: ff_null_get_video_buffer (video.c:33)
==24924==    by 0x1009BBCB: ff_get_video_buffer (video.c:70)
==24924==    by 0x10095A5F: filter_frame (vf_scale.c:276)
==24924==    by 0x1007D4A3: ff_filter_frame (avfilter.c:698)
==24924==    by 0x1007D4A3: default_filter_frame (avfilter.c:638)
==24924==    by 0x1007FD23: ff_filter_frame (avfilter.c:698)
==24924==    by 0x10082513: request_frame (buffersrc.c:399)
==24924== 
==24924== Invalid read of size 16
==24924==    at 0x1048084C: get_pixels_vsx (pixblockdsp.c:139)
==24924==    by 0x1023B173: dnxhd_get_blocks (dnxhdenc.c:576)
==24924==    by 0x1023B173: dnxhd_encode_thread (dnxhdenc.c:674)
==24924==    by 0x1023D16F: dnxhd_encode_picture (dnxhdenc.c:1071)
==24924==    by 0x10262603: avcodec_encode_video2 (encode.c:227)
==24924==    by 0x10262823: do_encode (encode.c:274)
==24924==    by 0x10262A8F: avcodec_send_frame (encode.c:323)
==24924==    by 0x10077077: do_video_out (avconv.c:587)
==24924==    by 0x10077077: poll_filter (avconv.c:726)
==24924==    by 0x1007784F: poll_filters (avconv.c:800)
==24924==    by 0x1005EAEB: transcode (avconv.c:2771)
==24924==    by 0x1005EAEB: main (avconv.c:2940)
==24924==  Address 0x16e71078 is 921,592 bytes inside a block of size 921,600 alloc'd
==24924==    at 0x4088C90: memalign (vg_replace_malloc.c:857)
==24924==    by 0x4088DFF: posix_memalign (vg_replace_malloc.c:1020)
==24924==    by 0x108B2697: av_malloc (mem.c:71)
==24924==    by 0x1089E907: av_buffer_alloc (buffer.c:72)
==24924==    by 0x108A9813: get_video_buffer (frame.c:119)
==24924==    by 0x108A9813: av_frame_get_buffer (frame.c:196)
==24924==    by 0x1009B9E7: ff_default_get_video_buffer (video.c:55)
==24924==    by 0x1009B9E7: ff_get_video_buffer (video.c:73)
==24924==    by 0x1009B9E7: ff_null_get_video_buffer (video.c:33)
==24924==    by 0x1009B973: ff_get_video_buffer (video.c:70)
==24924==    by 0x1009B973: ff_null_get_video_buffer (video.c:33)
==24924==    by 0x1009BBCB: ff_get_video_buffer (video.c:70)
==24924==    by 0x10095A5F: filter_frame (vf_scale.c:276)
==24924==    by 0x1007D4A3: ff_filter_frame (avfilter.c:698)
==24924==    by 0x1007D4A3: default_filter_frame (avfilter.c:638)
==24924==    by 0x1007FD23: ff_filter_frame (avfilter.c:698)
==24924==    by 0x10082513: request_frame (buffersrc.c:399)
==24924== 
==24924== Invalid read of size 16
==24924==    at 0x1048084C: get_pixels_vsx (pixblockdsp.c:139)
==24924==    by 0x1023B1A3: dnxhd_get_blocks (dnxhdenc.c:578)
==24924==    by 0x1023B1A3: dnxhd_encode_thread (dnxhdenc.c:674)
==24924==    by 0x1023D16F: dnxhd_encode_picture (dnxhdenc.c:1071)
==24924==    by 0x10262603: avcodec_encode_video2 (encode.c:227)
==24924==    by 0x10262823: do_encode (encode.c:274)
==24924==    by 0x10262A8F: avcodec_send_frame (encode.c:323)
==24924==    by 0x10077077: do_video_out (avconv.c:587)
==24924==    by 0x10077077: poll_filter (avconv.c:726)
==24924==    by 0x1007784F: poll_filters (avconv.c:800)
==24924==    by 0x1005EAEB: transcode (avconv.c:2771)
==24924==    by 0x1005EAEB: main (avconv.c:2940)
==24924==  Address 0x16ee1918 is 460,792 bytes inside a block of size 460,800 alloc'd
==24924==    at 0x4088C90: memalign (vg_replace_malloc.c:857)
==24924==    by 0x4088DFF: posix_memalign (vg_replace_malloc.c:1020)
==24924==    by 0x108B2697: av_malloc (mem.c:71)
==24924==    by 0x1089E907: av_buffer_alloc (buffer.c:72)
==24924==    by 0x108A9813: get_video_buffer (frame.c:119)
==24924==    by 0x108A9813: av_frame_get_buffer (frame.c:196)
==24924==    by 0x1009B9E7: ff_default_get_video_buffer (video.c:55)
==24924==    by 0x1009B9E7: ff_get_video_buffer (video.c:73)
==24924==    by 0x1009B9E7: ff_null_get_video_buffer (video.c:33)
==24924==    by 0x1009B973: ff_get_video_buffer (video.c:70)
==24924==    by 0x1009B973: ff_null_get_video_buffer (video.c:33)
==24924==    by 0x1009BBCB: ff_get_video_buffer (video.c:70)
==24924==    by 0x10095A5F: filter_frame (vf_scale.c:276)
==24924==    by 0x1007D4A3: ff_filter_frame (avfilter.c:698)
==24924==    by 0x1007D4A3: default_filter_frame (avfilter.c:638)
==24924==    by 0x1007FD23: ff_filter_frame (avfilter.c:698)
==24924==    by 0x10082513: request_frame (buffersrc.c:399)
==24924== 
==24924== Invalid read of size 16
==24924==    at 0x1048084C: get_pixels_vsx (pixblockdsp.c:139)
==24924==    by 0x1023B1D3: dnxhd_get_blocks (dnxhdenc.c:580)
==24924==    by 0x1023B1D3: dnxhd_encode_thread (dnxhdenc.c:674)
==24924==    by 0x1023D16F: dnxhd_encode_picture (dnxhdenc.c:1071)
==24924==    by 0x10262603: avcodec_encode_video2 (encode.c:227)
==24924==    by 0x10262823: do_encode (encode.c:274)
==24924==    by 0x10262A8F: avcodec_send_frame (encode.c:323)
==24924==    by 0x10077077: do_video_out (avconv.c:587)
==24924==    by 0x10077077: poll_filter (avconv.c:726)
==24924==    by 0x1007784F: poll_filters (avconv.c:800)
==24924==    by 0x1005EAEB: transcode (avconv.c:2771)
==24924==    by 0x1005EAEB: main (avconv.c:2940)
==24924==  Address 0x16f521b8 is 460,792 bytes inside a block of size 460,800 alloc'd
==24924==    at 0x4088C90: memalign (vg_replace_malloc.c:857)
==24924==    by 0x4088DFF: posix_memalign (vg_replace_malloc.c:1020)
==24924==    by 0x108B2697: av_malloc (mem.c:71)
==24924==    by 0x1089E907: av_buffer_alloc (buffer.c:72)
==24924==    by 0x108A9813: get_video_buffer (frame.c:119)
==24924==    by 0x108A9813: av_frame_get_buffer (frame.c:196)
==24924==    by 0x1009B9E7: ff_default_get_video_buffer (video.c:55)
==24924==    by 0x1009B9E7: ff_get_video_buffer (video.c:73)
==24924==    by 0x1009B9E7: ff_null_get_video_buffer (video.c:33)
==24924==    by 0x1009B973: ff_get_video_buffer (video.c:70)
==24924==    by 0x1009B973: ff_null_get_video_buffer (video.c:33)
==24924==    by 0x1009BBCB: ff_get_video_buffer (video.c:70)
==24924==    by 0x10095A5F: filter_frame (vf_scale.c:276)
==24924==    by 0x1007D4A3: ff_filter_frame (avfilter.c:698)
==24924==    by 0x1007D4A3: default_filter_frame (avfilter.c:638)
==24924==    by 0x1007FD23: ff_filter_frame (avfilter.c:698)
==24924==    by 0x10082513: request_frame (buffersrc.c:399)
==24924== 
frame=    5 fps=  0 q=1.0 Lsize=    2240kB time=0.16 bitrate=114688.0kbits/s    
video:2240kB audio:0kB other streams:0kB global headers:0kB muxing overhead: 0.000000%
==24924== 
==24924== HEAP SUMMARY:
==24924==     in use at exit: 0 bytes in 0 blocks
==24924==   total heap usage: 1,770 allocs, 1,770 frees, 22,156,167 bytes allocated
==24924== 
==24924== All heap blocks were freed -- no leaks are possible
==24924== 
==24924== For counts of detected and suppressed errors, rerun with: -v
==24924== ERROR SUMMARY: 45 errors from 6 contexts (suppressed: 0 from 0)
diffstderrvsynth1-dnxhd-720p-rd1v12_dev0-1345-g0181ae9
--- /home/mik/src/fate/src/tests/ref/vsynth/vsynth1-dnxhd-720p-rd	2014-01-10 11:16:55.734697630 +0000
+++ tests/data/fate/vsynth1-dnxhd-720p-rd	2017-12-07 01:21:16.456498725 +0000
@@ -1,4 +0,0 @@
-1dc6e95925c4f3a230848ec17c02abed *tests/data/fate/vsynth1-dnxhd-720p-rd.dnxhd
-2293760 tests/data/fate/vsynth1-dnxhd-720p-rd.dnxhd
-02972d2aec120ec1577ec9053d68ae0f *tests/data/fate/vsynth1-dnxhd-720p-rd.out.rawvideo
-stddev:    6.26 PSNR: 32.19 MAXDIFF:   65 bytes:  7603200/   760320
==24936== Memcheck, a memory error detector
==24936== Copyright (C) 2002-2015, and GNU GPL'd, by Julian Seward et al.
==24936== Using Valgrind-3.12.0.SVN and LibVEX; rerun with -h for copyright info
==24936== Command: /home/mik/src/fate/ppc64-linux-gcc-valgrind/build/avconv -nostats -cpuflags all -f rawvideo -s 352x288 -pix_fmt yuv420p -threads 1 -idct simple -flags +bitexact -sws_flags +accurate_rnd+bitexact -fflags +bitexact -hwaccel none -threads 1 -thread_type frame+slice -i /home/mik/src/fate/ppc64-linux-gcc-valgrind/build/tests/data/vsynth1.yuv -threads 1 -idct simple -dct fastint -c dnxhd -s hd720 -b 90M -threads 4 -mbd rd -pix_fmt yuv422p -frames 5 -flags +bitexact -sws_flags +accurate_rnd+bitexact -fflags +bitexact -f dnxhd -y /home/mik/src/fate/ppc64-linux-gcc-valgrind/build/tests/data/fate/vsynth1-dnxhd-720p-rd.dnxhd
==24936== 
avconv version v13_dev0-1417-g3ff8fbb, Copyright (c) 2000-2017 the Libav developers
  built on Dec  7 2017 01:00:30 with gcc 5.5.0 (GCC)
[rawvideo @ 0x46caec0] Estimating duration from bitrate, this may be inaccurate
Input #0, rawvideo, from '/home/mik/src/fate/ppc64-linux-gcc-valgrind/build/tests/data/vsynth1.yuv':
  Duration: N/A, start: 0.000000, bitrate: N/A
    Stream #0:0: Video: rawvideo
      yuv420p, 352x288
      25 fps, 25 tbn
Stream mapping:
  Stream #0:0 -> #0:0 (rawvideo (native) -> dnxhd (native))
Press ctrl-c to stop encoding
Output #0, dnxhd, to '/home/mik/src/fate/ppc64-linux-gcc-valgrind/build/tests/data/fate/vsynth1-dnxhd-720p-rd.dnxhd':
    Stream #0:0: Video: dnxhd
      yuv422p, 1280x720, q=2-31, 90000 kb/s
      25 tbn
    Metadata:
      encoder         : dnxhd
==24936== Thread 69:
==24936== Invalid read of size 16
==24936==    at 0x1048084C: get_pixels_vsx (pixblockdsp.c:139)
==24936==    by 0x1023BACF: dnxhd_get_blocks (dnxhdenc.c:576)
==24936==    by 0x1023BACF: dnxhd_calc_bits_thread (dnxhdenc.c:619)
==24936==    by 0x43DC95B: start_thread (in /usr/lib64/libpthread-2.17.so)
==24936==    by 0x4563BBB: clone (in /usr/lib64/libc-2.17.so)
==24936==  Address 0x17e71078 is 921,592 bytes inside a block of size 921,600 alloc'd
==24936==    at 0x4088C90: memalign (vg_replace_malloc.c:857)
==24936==    by 0x4088DFF: posix_memalign (vg_replace_malloc.c:1020)
==24936==    by 0x108B2697: av_malloc (mem.c:71)
==24936==    by 0x1089E907: av_buffer_alloc (buffer.c:72)
==24936==    by 0x108A9813: get_video_buffer (frame.c:119)
==24936==    by 0x108A9813: av_frame_get_buffer (frame.c:196)
==24936==    by 0x1009B9E7: ff_default_get_video_buffer (video.c:55)
==24936==    by 0x1009B9E7: ff_get_video_buffer (video.c:73)
==24936==    by 0x1009B9E7: ff_null_get_video_buffer (video.c:33)
==24936==    by 0x1009B973: ff_get_video_buffer (video.c:70)
==24936==    by 0x1009B973: ff_null_get_video_buffer (video.c:33)
==24936==    by 0x1009BBCB: ff_get_video_buffer (video.c:70)
==24936==    by 0x10095A5F: filter_frame (vf_scale.c:276)
==24936==    by 0x1007D4A3: ff_filter_frame (avfilter.c:698)
==24936==    by 0x1007D4A3: default_filter_frame (avfilter.c:638)
==24936==    by 0x1007FD23: ff_filter_frame (avfilter.c:698)
==24936==    by 0x10082513: request_frame (buffersrc.c:399)
==24936== 
==24936== Invalid read of size 16
==24936==    at 0x1048084C: get_pixels_vsx (pixblockdsp.c:139)
==24936==    by 0x1023BAFF: dnxhd_get_blocks (dnxhdenc.c:578)
==24936==    by 0x1023BAFF: dnxhd_calc_bits_thread (dnxhdenc.c:619)
==24936==    by 0x43DC95B: start_thread (in /usr/lib64/libpthread-2.17.so)
==24936==    by 0x4563BBB: clone (in /usr/lib64/libc-2.17.so)
==24936==  Address 0x17ee1918 is 460,792 bytes inside a block of size 460,800 alloc'd
==24936==    at 0x4088C90: memalign (vg_replace_malloc.c:857)
==24936==    by 0x4088DFF: posix_memalign (vg_replace_malloc.c:1020)
==24936==    by 0x108B2697: av_malloc (mem.c:71)
==24936==    by 0x1089E907: av_buffer_alloc (buffer.c:72)
==24936==    by 0x108A9813: get_video_buffer (frame.c:119)
==24936==    by 0x108A9813: av_frame_get_buffer (frame.c:196)
==24936==    by 0x1009B9E7: ff_default_get_video_buffer (video.c:55)
==24936==    by 0x1009B9E7: ff_get_video_buffer (video.c:73)
==24936==    by 0x1009B9E7: ff_null_get_video_buffer (video.c:33)
==24936==    by 0x1009B973: ff_get_video_buffer (video.c:70)
==24936==    by 0x1009B973: ff_null_get_video_buffer (video.c:33)
==24936==    by 0x1009BBCB: ff_get_video_buffer (video.c:70)
==24936==    by 0x10095A5F: filter_frame (vf_scale.c:276)
==24936==    by 0x1007D4A3: ff_filter_frame (avfilter.c:698)
==24936==    by 0x1007D4A3: default_filter_frame (avfilter.c:638)
==24936==    by 0x1007FD23: ff_filter_frame (avfilter.c:698)
==24936==    by 0x10082513: request_frame (buffersrc.c:399)
==24936== 
==24936== Invalid read of size 16
==24936==    at 0x1048084C: get_pixels_vsx (pixblockdsp.c:139)
==24936==    by 0x1023BB2F: dnxhd_get_blocks (dnxhdenc.c:580)
==24936==    by 0x1023BB2F: dnxhd_calc_bits_thread (dnxhdenc.c:619)
==24936==    by 0x43DC95B: start_thread (in /usr/lib64/libpthread-2.17.so)
==24936==    by 0x4563BBB: clone (in /usr/lib64/libc-2.17.so)
==24936==  Address 0x17f521b8 is 460,792 bytes inside a block of size 460,800 alloc'd
==24936==    at 0x4088C90: memalign (vg_replace_malloc.c:857)
==24936==    by 0x4088DFF: posix_memalign (vg_replace_malloc.c:1020)
==24936==    by 0x108B2697: av_malloc (mem.c:71)
==24936==    by 0x1089E907: av_buffer_alloc (buffer.c:72)
==24936==    by 0x108A9813: get_video_buffer (frame.c:119)
==24936==    by 0x108A9813: av_frame_get_buffer (frame.c:196)
==24936==    by 0x1009B9E7: ff_default_get_video_buffer (video.c:55)
==24936==    by 0x1009B9E7: ff_get_video_buffer (video.c:73)
==24936==    by 0x1009B9E7: ff_null_get_video_buffer (video.c:33)
==24936==    by 0x1009B973: ff_get_video_buffer (video.c:70)
==24936==    by 0x1009B973: ff_null_get_video_buffer (video.c:33)
==24936==    by 0x1009BBCB: ff_get_video_buffer (video.c:70)
==24936==    by 0x10095A5F: filter_frame (vf_scale.c:276)
==24936==    by 0x1007D4A3: ff_filter_frame (avfilter.c:698)
==24936==    by 0x1007D4A3: default_filter_frame (avfilter.c:638)
==24936==    by 0x1007FD23: ff_filter_frame (avfilter.c:698)
==24936==    by 0x10082513: request_frame (buffersrc.c:399)
==24936== 
==24936== Thread 70:
==24936== Invalid read of size 16
==24936==    at 0x1048084C: get_pixels_vsx (pixblockdsp.c:139)
==24936==    by 0x1023B173: dnxhd_get_blocks (dnxhdenc.c:576)
==24936==    by 0x1023B173: dnxhd_encode_thread (dnxhdenc.c:674)
==24936==    by 0x43DC95B: start_thread (in /usr/lib64/libpthread-2.17.so)
==24936==    by 0x4563BBB: clone (in /usr/lib64/libc-2.17.so)
==24936==  Address 0x17e71078 is 921,592 bytes inside a block of size 921,600 alloc'd
==24936==    at 0x4088C90: memalign (vg_replace_malloc.c:857)
==24936==    by 0x4088DFF: posix_memalign (vg_replace_malloc.c:1020)
==24936==    by 0x108B2697: av_malloc (mem.c:71)
==24936==    by 0x1089E907: av_buffer_alloc (buffer.c:72)
==24936==    by 0x108A9813: get_video_buffer (frame.c:119)
==24936==    by 0x108A9813: av_frame_get_buffer (frame.c:196)
==24936==    by 0x1009B9E7: ff_default_get_video_buffer (video.c:55)
==24936==    by 0x1009B9E7: ff_get_video_buffer (video.c:73)
==24936==    by 0x1009B9E7: ff_null_get_video_buffer (video.c:33)
==24936==    by 0x1009B973: ff_get_video_buffer (video.c:70)
==24936==    by 0x1009B973: ff_null_get_video_buffer (video.c:33)
==24936==    by 0x1009BBCB: ff_get_video_buffer (video.c:70)
==24936==    by 0x10095A5F: filter_frame (vf_scale.c:276)
==24936==    by 0x1007D4A3: ff_filter_frame (avfilter.c:698)
==24936==    by 0x1007D4A3: default_filter_frame (avfilter.c:638)
==24936==    by 0x1007FD23: ff_filter_frame (avfilter.c:698)
==24936==    by 0x10082513: request_frame (buffersrc.c:399)
==24936== 
==24936== Invalid read of size 16
==24936==    at 0x1048084C: get_pixels_vsx (pixblockdsp.c:139)
==24936==    by 0x1023B1A3: dnxhd_get_blocks (dnxhdenc.c:578)
==24936==    by 0x1023B1A3: dnxhd_encode_thread (dnxhdenc.c:674)
==24936==    by 0x43DC95B: start_thread (in /usr/lib64/libpthread-2.17.so)
==24936==    by 0x4563BBB: clone (in /usr/lib64/libc-2.17.so)
==24936==  Address 0x17ee1918 is 460,792 bytes inside a block of size 460,800 alloc'd
==24936==    at 0x4088C90: memalign (vg_replace_malloc.c:857)
==24936==    by 0x4088DFF: posix_memalign (vg_replace_malloc.c:1020)
==24936==    by 0x108B2697: av_malloc (mem.c:71)
==24936==    by 0x1089E907: av_buffer_alloc (buffer.c:72)
==24936==    by 0x108A9813: get_video_buffer (frame.c:119)
==24936==    by 0x108A9813: av_frame_get_buffer (frame.c:196)
==24936==    by 0x1009B9E7: ff_default_get_video_buffer (video.c:55)
==24936==    by 0x1009B9E7: ff_get_video_buffer (video.c:73)
==24936==    by 0x1009B9E7: ff_null_get_video_buffer (video.c:33)
==24936==    by 0x1009B973: ff_get_video_buffer (video.c:70)
==24936==    by 0x1009B973: ff_null_get_video_buffer (video.c:33)
==24936==    by 0x1009BBCB: ff_get_video_buffer (video.c:70)
==24936==    by 0x10095A5F: filter_frame (vf_scale.c:276)
==24936==    by 0x1007D4A3: ff_filter_frame (avfilter.c:698)
==24936==    by 0x1007D4A3: default_filter_frame (avfilter.c:638)
==24936==    by 0x1007FD23: ff_filter_frame (avfilter.c:698)
==24936==    by 0x10082513: request_frame (buffersrc.c:399)
==24936== 
==24936== Invalid read of size 16
==24936==    at 0x1048084C: get_pixels_vsx (pixblockdsp.c:139)
==24936==    by 0x1023B1D3: dnxhd_get_blocks (dnxhdenc.c:580)
==24936==    by 0x1023B1D3: dnxhd_encode_thread (dnxhdenc.c:674)
==24936==    by 0x43DC95B: start_thread (in /usr/lib64/libpthread-2.17.so)
==24936==    by 0x4563BBB: clone (in /usr/lib64/libc-2.17.so)
==24936==  Address 0x17f521b8 is 460,792 bytes inside a block of size 460,800 alloc'd
==24936==    at 0x4088C90: memalign (vg_replace_malloc.c:857)
==24936==    by 0x4088DFF: posix_memalign (vg_replace_malloc.c:1020)
==24936==    by 0x108B2697: av_malloc (mem.c:71)
==24936==    by 0x1089E907: av_buffer_alloc (buffer.c:72)
==24936==    by 0x108A9813: get_video_buffer (frame.c:119)
==24936==    by 0x108A9813: av_frame_get_buffer (frame.c:196)
==24936==    by 0x1009B9E7: ff_default_get_video_buffer (video.c:55)
==24936==    by 0x1009B9E7: ff_get_video_buffer (video.c:73)
==24936==    by 0x1009B9E7: ff_null_get_video_buffer (video.c:33)
==24936==    by 0x1009B973: ff_get_video_buffer (video.c:70)
==24936==    by 0x1009B973: ff_null_get_video_buffer (video.c:33)
==24936==    by 0x1009BBCB: ff_get_video_buffer (video.c:70)
==24936==    by 0x10095A5F: filter_frame (vf_scale.c:276)
==24936==    by 0x1007D4A3: ff_filter_frame (avfilter.c:698)
==24936==    by 0x1007D4A3: default_filter_frame (avfilter.c:638)
==24936==    by 0x1007FD23: ff_filter_frame (avfilter.c:698)
==24936==    by 0x10082513: request_frame (buffersrc.c:399)
==24936== 
frame=    5 fps=  0 q=30.0 Lsize=    2240kB time=0.16 bitrate=114688.0kbits/s    
video:2240kB audio:0kB other streams:0kB global headers:0kB muxing overhead: 0.000000%
==24936== 
==24936== HEAP SUMMARY:
==24936==     in use at exit: 0 bytes in 0 blocks
==24936==   total heap usage: 1,790 allocs, 1,790 frees, 22,020,343 bytes allocated
==24936== 
==24936== All heap blocks were freed -- no leaks are possible
==24936== 
==24936== For counts of detected and suppressed errors, rerun with: -v
==24936== ERROR SUMMARY: 465 errors from 6 contexts (suppressed: 0 from 0)
diffstderrvsynth2-dnxhd-720p1v12_dev0-1345-g0181ae9
--- /home/mik/src/fate/src/tests/ref/vsynth/vsynth2-dnxhd-720p	2014-11-30 15:37:05.674204650 +0000
+++ tests/data/fate/vsynth2-dnxhd-720p	2017-12-07 01:23:28.916790137 +0000
@@ -1,4 +0,0 @@
-71c7491a41545882b36f07ee98021b4b *tests/data/fate/vsynth2-dnxhd-720p.dnxhd
-2293760 tests/data/fate/vsynth2-dnxhd-720p.dnxhd
-adef978dc9c9e4f10dc7c30418af62af *tests/data/fate/vsynth2-dnxhd-720p.out.rawvideo
-stddev:    6.69 PSNR: 31.62 MAXDIFF:  171 bytes:  7603200/   760320
==33301== Memcheck, a memory error detector
==33301== Copyright (C) 2002-2015, and GNU GPL'd, by Julian Seward et al.
==33301== Using Valgrind-3.12.0.SVN and LibVEX; rerun with -h for copyright info
==33301== Command: /home/mik/src/fate/ppc64-linux-gcc-valgrind/build/avconv -nostats -cpuflags all -f rawvideo -s 352x288 -pix_fmt yuv420p -threads 1 -idct simple -flags +bitexact -sws_flags +accurate_rnd+bitexact -fflags +bitexact -hwaccel none -threads 1 -thread_type frame+slice -i /home/mik/src/fate/ppc64-linux-gcc-valgrind/build/tests/data/vsynth2.yuv -threads 1 -idct simple -dct fastint -c dnxhd -s hd720 -b 90M -pix_fmt yuv422p -frames 5 -flags +bitexact -sws_flags +accurate_rnd+bitexact -fflags +bitexact -f dnxhd -y /home/mik/src/fate/ppc64-linux-gcc-valgrind/build/tests/data/fate/vsynth2-dnxhd-720p.dnxhd
==33301== 
avconv version v13_dev0-1417-g3ff8fbb, Copyright (c) 2000-2017 the Libav developers
  built on Dec  7 2017 01:00:30 with gcc 5.5.0 (GCC)
[rawvideo @ 0x46cae20] Estimating duration from bitrate, this may be inaccurate
Input #0, rawvideo, from '/home/mik/src/fate/ppc64-linux-gcc-valgrind/build/tests/data/vsynth2.yuv':
  Duration: N/A, start: 0.000000, bitrate: N/A
    Stream #0:0: Video: rawvideo
      yuv420p, 352x288
      25 fps, 25 tbn
Stream mapping:
  Stream #0:0 -> #0:0 (rawvideo (native) -> dnxhd (native))
Press ctrl-c to stop encoding
Output #0, dnxhd, to '/home/mik/src/fate/ppc64-linux-gcc-valgrind/build/tests/data/fate/vsynth2-dnxhd-720p.dnxhd':
    Stream #0:0: Video: dnxhd
      yuv422p, 1280x720, q=2-31, 90000 kb/s
      25 tbn
    Metadata:
      encoder         : dnxhd
==33301== Invalid read of size 16
==33301==    at 0x1048084C: get_pixels_vsx (pixblockdsp.c:139)
==33301==    by 0x1023BACF: dnxhd_get_blocks (dnxhdenc.c:576)
==33301==    by 0x1023BACF: dnxhd_calc_bits_thread (dnxhdenc.c:619)
==33301==    by 0x1023CA33: dnxhd_find_qscale (dnxhdenc.c:866)
==33301==    by 0x1023CA33: dnxhd_encode_fast (dnxhdenc.c:969)
==33301==    by 0x1023CA33: dnxhd_encode_picture (dnxhdenc.c:1055)
==33301==    by 0x10262603: avcodec_encode_video2 (encode.c:227)
==33301==    by 0x10262823: do_encode (encode.c:274)
==33301==    by 0x10262A8F: avcodec_send_frame (encode.c:323)
==33301==    by 0x10077077: do_video_out (avconv.c:587)
==33301==    by 0x10077077: poll_filter (avconv.c:726)
==33301==    by 0x1007784F: poll_filters (avconv.c:800)
==33301==    by 0x1005EAEB: transcode (avconv.c:2771)
==33301==    by 0x1005EAEB: main (avconv.c:2940)
==33301==  Address 0x16e71078 is 921,592 bytes inside a block of size 921,600 alloc'd
==33301==    at 0x4088C90: memalign (vg_replace_malloc.c:857)
==33301==    by 0x4088DFF: posix_memalign (vg_replace_malloc.c:1020)
==33301==    by 0x108B2697: av_malloc (mem.c:71)
==33301==    by 0x1089E907: av_buffer_alloc (buffer.c:72)
==33301==    by 0x108A9813: get_video_buffer (frame.c:119)
==33301==    by 0x108A9813: av_frame_get_buffer (frame.c:196)
==33301==    by 0x1009B9E7: ff_default_get_video_buffer (video.c:55)
==33301==    by 0x1009B9E7: ff_get_video_buffer (video.c:73)
==33301==    by 0x1009B9E7: ff_null_get_video_buffer (video.c:33)
==33301==    by 0x1009B973: ff_get_video_buffer (video.c:70)
==33301==    by 0x1009B973: ff_null_get_video_buffer (video.c:33)
==33301==    by 0x1009BBCB: ff_get_video_buffer (video.c:70)
==33301==    by 0x10095A5F: filter_frame (vf_scale.c:276)
==33301==    by 0x1007D4A3: ff_filter_frame (avfilter.c:698)
==33301==    by 0x1007D4A3: default_filter_frame (avfilter.c:638)
==33301==    by 0x1007FD23: ff_filter_frame (avfilter.c:698)
==33301==    by 0x10082513: request_frame (buffersrc.c:399)
==33301== 
==33301== Invalid read of size 16
==33301==    at 0x1048084C: get_pixels_vsx (pixblockdsp.c:139)
==33301==    by 0x1023BAFF: dnxhd_get_blocks (dnxhdenc.c:578)
==33301==    by 0x1023BAFF: dnxhd_calc_bits_thread (dnxhdenc.c:619)
==33301==    by 0x1023CA33: dnxhd_find_qscale (dnxhdenc.c:866)
==33301==    by 0x1023CA33: dnxhd_encode_fast (dnxhdenc.c:969)
==33301==    by 0x1023CA33: dnxhd_encode_picture (dnxhdenc.c:1055)
==33301==    by 0x10262603: avcodec_encode_video2 (encode.c:227)
==33301==    by 0x10262823: do_encode (encode.c:274)
==33301==    by 0x10262A8F: avcodec_send_frame (encode.c:323)
==33301==    by 0x10077077: do_video_out (avconv.c:587)
==33301==    by 0x10077077: poll_filter (avconv.c:726)
==33301==    by 0x1007784F: poll_filters (avconv.c:800)
==33301==    by 0x1005EAEB: transcode (avconv.c:2771)
==33301==    by 0x1005EAEB: main (avconv.c:2940)
==33301==  Address 0x16ee1918 is 460,792 bytes inside a block of size 460,800 alloc'd
==33301==    at 0x4088C90: memalign (vg_replace_malloc.c:857)
==33301==    by 0x4088DFF: posix_memalign (vg_replace_malloc.c:1020)
==33301==    by 0x108B2697: av_malloc (mem.c:71)
==33301==    by 0x1089E907: av_buffer_alloc (buffer.c:72)
==33301==    by 0x108A9813: get_video_buffer (frame.c:119)
==33301==    by 0x108A9813: av_frame_get_buffer (frame.c:196)
==33301==    by 0x1009B9E7: ff_default_get_video_buffer (video.c:55)
==33301==    by 0x1009B9E7: ff_get_video_buffer (video.c:73)
==33301==    by 0x1009B9E7: ff_null_get_video_buffer (video.c:33)
==33301==    by 0x1009B973: ff_get_video_buffer (video.c:70)
==33301==    by 0x1009B973: ff_null_get_video_buffer (video.c:33)
==33301==    by 0x1009BBCB: ff_get_video_buffer (video.c:70)
==33301==    by 0x10095A5F: filter_frame (vf_scale.c:276)
==33301==    by 0x1007D4A3: ff_filter_frame (avfilter.c:698)
==33301==    by 0x1007D4A3: default_filter_frame (avfilter.c:638)
==33301==    by 0x1007FD23: ff_filter_frame (avfilter.c:698)
==33301==    by 0x10082513: request_frame (buffersrc.c:399)
==33301== 
==33301== Invalid read of size 16
==33301==    at 0x1048084C: get_pixels_vsx (pixblockdsp.c:139)
==33301==    by 0x1023BB2F: dnxhd_get_blocks (dnxhdenc.c:580)
==33301==    by 0x1023BB2F: dnxhd_calc_bits_thread (dnxhdenc.c:619)
==33301==    by 0x1023CA33: dnxhd_find_qscale (dnxhdenc.c:866)
==33301==    by 0x1023CA33: dnxhd_encode_fast (dnxhdenc.c:969)
==33301==    by 0x1023CA33: dnxhd_encode_picture (dnxhdenc.c:1055)
==33301==    by 0x10262603: avcodec_encode_video2 (encode.c:227)
==33301==    by 0x10262823: do_encode (encode.c:274)
==33301==    by 0x10262A8F: avcodec_send_frame (encode.c:323)
==33301==    by 0x10077077: do_video_out (avconv.c:587)
==33301==    by 0x10077077: poll_filter (avconv.c:726)
==33301==    by 0x1007784F: poll_filters (avconv.c:800)
==33301==    by 0x1005EAEB: transcode (avconv.c:2771)
==33301==    by 0x1005EAEB: main (avconv.c:2940)
==33301==  Address 0x16f521b8 is 460,792 bytes inside a block of size 460,800 alloc'd
==33301==    at 0x4088C90: memalign (vg_replace_malloc.c:857)
==33301==    by 0x4088DFF: posix_memalign (vg_replace_malloc.c:1020)
==33301==    by 0x108B2697: av_malloc (mem.c:71)
==33301==    by 0x1089E907: av_buffer_alloc (buffer.c:72)
==33301==    by 0x108A9813: get_video_buffer (frame.c:119)
==33301==    by 0x108A9813: av_frame_get_buffer (frame.c:196)
==33301==    by 0x1009B9E7: ff_default_get_video_buffer (video.c:55)
==33301==    by 0x1009B9E7: ff_get_video_buffer (video.c:73)
==33301==    by 0x1009B9E7: ff_null_get_video_buffer (video.c:33)
==33301==    by 0x1009B973: ff_get_video_buffer (video.c:70)
==33301==    by 0x1009B973: ff_null_get_video_buffer (video.c:33)
==33301==    by 0x1009BBCB: ff_get_video_buffer (video.c:70)
==33301==    by 0x10095A5F: filter_frame (vf_scale.c:276)
==33301==    by 0x1007D4A3: ff_filter_frame (avfilter.c:698)
==33301==    by 0x1007D4A3: default_filter_frame (avfilter.c:638)
==33301==    by 0x1007FD23: ff_filter_frame (avfilter.c:698)
==33301==    by 0x10082513: request_frame (buffersrc.c:399)
==33301== 
==33301== Invalid read of size 16
==33301==    at 0x1048084C: get_pixels_vsx (pixblockdsp.c:139)
==33301==    by 0x1023B173: dnxhd_get_blocks (dnxhdenc.c:576)
==33301==    by 0x1023B173: dnxhd_encode_thread (dnxhdenc.c:674)
==33301==    by 0x1023D16F: dnxhd_encode_picture (dnxhdenc.c:1071)
==33301==    by 0x10262603: avcodec_encode_video2 (encode.c:227)
==33301==    by 0x10262823: do_encode (encode.c:274)
==33301==    by 0x10262A8F: avcodec_send_frame (encode.c:323)
==33301==    by 0x10077077: do_video_out (avconv.c:587)
==33301==    by 0x10077077: poll_filter (avconv.c:726)
==33301==    by 0x1007784F: poll_filters (avconv.c:800)
==33301==    by 0x1005EAEB: transcode (avconv.c:2771)
==33301==    by 0x1005EAEB: main (avconv.c:2940)
==33301==  Address 0x16e71078 is 921,592 bytes inside a block of size 921,600 alloc'd
==33301==    at 0x4088C90: memalign (vg_replace_malloc.c:857)
==33301==    by 0x4088DFF: posix_memalign (vg_replace_malloc.c:1020)
==33301==    by 0x108B2697: av_malloc (mem.c:71)
==33301==    by 0x1089E907: av_buffer_alloc (buffer.c:72)
==33301==    by 0x108A9813: get_video_buffer (frame.c:119)
==33301==    by 0x108A9813: av_frame_get_buffer (frame.c:196)
==33301==    by 0x1009B9E7: ff_default_get_video_buffer (video.c:55)
==33301==    by 0x1009B9E7: ff_get_video_buffer (video.c:73)
==33301==    by 0x1009B9E7: ff_null_get_video_buffer (video.c:33)
==33301==    by 0x1009B973: ff_get_video_buffer (video.c:70)
==33301==    by 0x1009B973: ff_null_get_video_buffer (video.c:33)
==33301==    by 0x1009BBCB: ff_get_video_buffer (video.c:70)
==33301==    by 0x10095A5F: filter_frame (vf_scale.c:276)
==33301==    by 0x1007D4A3: ff_filter_frame (avfilter.c:698)
==33301==    by 0x1007D4A3: default_filter_frame (avfilter.c:638)
==33301==    by 0x1007FD23: ff_filter_frame (avfilter.c:698)
==33301==    by 0x10082513: request_frame (buffersrc.c:399)
==33301== 
==33301== Invalid read of size 16
==33301==    at 0x1048084C: get_pixels_vsx (pixblockdsp.c:139)
==33301==    by 0x1023B1A3: dnxhd_get_blocks (dnxhdenc.c:578)
==33301==    by 0x1023B1A3: dnxhd_encode_thread (dnxhdenc.c:674)
==33301==    by 0x1023D16F: dnxhd_encode_picture (dnxhdenc.c:1071)
==33301==    by 0x10262603: avcodec_encode_video2 (encode.c:227)
==33301==    by 0x10262823: do_encode (encode.c:274)
==33301==    by 0x10262A8F: avcodec_send_frame (encode.c:323)
==33301==    by 0x10077077: do_video_out (avconv.c:587)
==33301==    by 0x10077077: poll_filter (avconv.c:726)
==33301==    by 0x1007784F: poll_filters (avconv.c:800)
==33301==    by 0x1005EAEB: transcode (avconv.c:2771)
==33301==    by 0x1005EAEB: main (avconv.c:2940)
==33301==  Address 0x16ee1918 is 460,792 bytes inside a block of size 460,800 alloc'd
==33301==    at 0x4088C90: memalign (vg_replace_malloc.c:857)
==33301==    by 0x4088DFF: posix_memalign (vg_replace_malloc.c:1020)
==33301==    by 0x108B2697: av_malloc (mem.c:71)
==33301==    by 0x1089E907: av_buffer_alloc (buffer.c:72)
==33301==    by 0x108A9813: get_video_buffer (frame.c:119)
==33301==    by 0x108A9813: av_frame_get_buffer (frame.c:196)
==33301==    by 0x1009B9E7: ff_default_get_video_buffer (video.c:55)
==33301==    by 0x1009B9E7: ff_get_video_buffer (video.c:73)
==33301==    by 0x1009B9E7: ff_null_get_video_buffer (video.c:33)
==33301==    by 0x1009B973: ff_get_video_buffer (video.c:70)
==33301==    by 0x1009B973: ff_null_get_video_buffer (video.c:33)
==33301==    by 0x1009BBCB: ff_get_video_buffer (video.c:70)
==33301==    by 0x10095A5F: filter_frame (vf_scale.c:276)
==33301==    by 0x1007D4A3: ff_filter_frame (avfilter.c:698)
==33301==    by 0x1007D4A3: default_filter_frame (avfilter.c:638)
==33301==    by 0x1007FD23: ff_filter_frame (avfilter.c:698)
==33301==    by 0x10082513: request_frame (buffersrc.c:399)
==33301== 
==33301== Invalid read of size 16
==33301==    at 0x1048084C: get_pixels_vsx (pixblockdsp.c:139)
==33301==    by 0x1023B1D3: dnxhd_get_blocks (dnxhdenc.c:580)
==33301==    by 0x1023B1D3: dnxhd_encode_thread (dnxhdenc.c:674)
==33301==    by 0x1023D16F: dnxhd_encode_picture (dnxhdenc.c:1071)
==33301==    by 0x10262603: avcodec_encode_video2 (encode.c:227)
==33301==    by 0x10262823: do_encode (encode.c:274)
==33301==    by 0x10262A8F: avcodec_send_frame (encode.c:323)
==33301==    by 0x10077077: do_video_out (avconv.c:587)
==33301==    by 0x10077077: poll_filter (avconv.c:726)
==33301==    by 0x1007784F: poll_filters (avconv.c:800)
==33301==    by 0x1005EAEB: transcode (avconv.c:2771)
==33301==    by 0x1005EAEB: main (avconv.c:2940)
==33301==  Address 0x16f521b8 is 460,792 bytes inside a block of size 460,800 alloc'd
==33301==    at 0x4088C90: memalign (vg_replace_malloc.c:857)
==33301==    by 0x4088DFF: posix_memalign (vg_replace_malloc.c:1020)
==33301==    by 0x108B2697: av_malloc (mem.c:71)
==33301==    by 0x1089E907: av_buffer_alloc (buffer.c:72)
==33301==    by 0x108A9813: get_video_buffer (frame.c:119)
==33301==    by 0x108A9813: av_frame_get_buffer (frame.c:196)
==33301==    by 0x1009B9E7: ff_default_get_video_buffer (video.c:55)
==33301==    by 0x1009B9E7: ff_get_video_buffer (video.c:73)
==33301==    by 0x1009B9E7: ff_null_get_video_buffer (video.c:33)
==33301==    by 0x1009B973: ff_get_video_buffer (video.c:70)
==33301==    by 0x1009B973: ff_null_get_video_buffer (video.c:33)
==33301==    by 0x1009BBCB: ff_get_video_buffer (video.c:70)
==33301==    by 0x10095A5F: filter_frame (vf_scale.c:276)
==33301==    by 0x1007D4A3: ff_filter_frame (avfilter.c:698)
==33301==    by 0x1007D4A3: default_filter_frame (avfilter.c:638)
==33301==    by 0x1007FD23: ff_filter_frame (avfilter.c:698)
==33301==    by 0x10082513: request_frame (buffersrc.c:399)
==33301== 
frame=    5 fps=  1 q=1.0 Lsize=    2240kB time=0.16 bitrate=114688.0kbits/s    
video:2240kB audio:0kB other streams:0kB global headers:0kB muxing overhead: 0.000000%
==33301== 
==33301== HEAP SUMMARY:
==33301==     in use at exit: 0 bytes in 0 blocks
==33301==   total heap usage: 1,765 allocs, 1,765 frees, 22,012,167 bytes allocated
==33301== 
==33301== All heap blocks were freed -- no leaks are possible
==33301== 
==33301== For counts of detected and suppressed errors, rerun with: -v
==33301== ERROR SUMMARY: 30 errors from 6 contexts (suppressed: 0 from 0)
diffstderrvsynth2-dnxhd-720p-rd1v12_dev0-1345-g0181ae9
--- /home/mik/src/fate/src/tests/ref/vsynth/vsynth2-dnxhd-720p-rd	2014-11-30 15:37:05.674204650 +0000
+++ tests/data/fate/vsynth2-dnxhd-720p-rd	2017-12-07 01:23:29.416791237 +0000
@@ -1,4 +0,0 @@
-819a7714098e098981bf08253ef2e490 *tests/data/fate/vsynth2-dnxhd-720p-rd.dnxhd
-2293760 tests/data/fate/vsynth2-dnxhd-720p-rd.dnxhd
-a05c35b99e5e74a9c8b3a9c66da01775 *tests/data/fate/vsynth2-dnxhd-720p-rd.out.rawvideo
-stddev:    1.53 PSNR: 44.39 MAXDIFF:   31 bytes:  7603200/   760320
==33316== Memcheck, a memory error detector
==33316== Copyright (C) 2002-2015, and GNU GPL'd, by Julian Seward et al.
==33316== Using Valgrind-3.12.0.SVN and LibVEX; rerun with -h for copyright info
==33316== Command: /home/mik/src/fate/ppc64-linux-gcc-valgrind/build/avconv -nostats -cpuflags all -f rawvideo -s 352x288 -pix_fmt yuv420p -threads 1 -idct simple -flags +bitexact -sws_flags +accurate_rnd+bitexact -fflags +bitexact -hwaccel none -threads 1 -thread_type frame+slice -i /home/mik/src/fate/ppc64-linux-gcc-valgrind/build/tests/data/vsynth2.yuv -threads 1 -idct simple -dct fastint -c dnxhd -s hd720 -b 90M -threads 4 -mbd rd -pix_fmt yuv422p -frames 5 -flags +bitexact -sws_flags +accurate_rnd+bitexact -fflags +bitexact -f dnxhd -y /home/mik/src/fate/ppc64-linux-gcc-valgrind/build/tests/data/fate/vsynth2-dnxhd-720p-rd.dnxhd
==33316== 
avconv version v13_dev0-1417-g3ff8fbb, Copyright (c) 2000-2017 the Libav developers
  built on Dec  7 2017 01:00:30 with gcc 5.5.0 (GCC)
[rawvideo @ 0x46caec0] Estimating duration from bitrate, this may be inaccurate
Input #0, rawvideo, from '/home/mik/src/fate/ppc64-linux-gcc-valgrind/build/tests/data/vsynth2.yuv':
  Duration: N/A, start: 0.000000, bitrate: N/A
    Stream #0:0: Video: rawvideo
      yuv420p, 352x288
      25 fps, 25 tbn
Stream mapping:
  Stream #0:0 -> #0:0 (rawvideo (native) -> dnxhd (native))
Press ctrl-c to stop encoding
Output #0, dnxhd, to '/home/mik/src/fate/ppc64-linux-gcc-valgrind/build/tests/data/fate/vsynth2-dnxhd-720p-rd.dnxhd':
    Stream #0:0: Video: dnxhd
      yuv422p, 1280x720, q=2-31, 90000 kb/s
      25 tbn
    Metadata:
      encoder         : dnxhd
==33316== Thread 68:
==33316== Invalid read of size 16
==33316==    at 0x1048084C: get_pixels_vsx (pixblockdsp.c:139)
==33316==    by 0x1023BACF: dnxhd_get_blocks (dnxhdenc.c:576)
==33316==    by 0x1023BACF: dnxhd_calc_bits_thread (dnxhdenc.c:619)
==33316==    by 0x43DC95B: start_thread (in /usr/lib64/libpthread-2.17.so)
==33316==    by 0x4563BBB: clone (in /usr/lib64/libc-2.17.so)
==33316==  Address 0x17e71078 is 921,592 bytes inside a block of size 921,600 alloc'd
==33316==    at 0x4088C90: memalign (vg_replace_malloc.c:857)
==33316==    by 0x4088DFF: posix_memalign (vg_replace_malloc.c:1020)
==33316==    by 0x108B2697: av_malloc (mem.c:71)
==33316==    by 0x1089E907: av_buffer_alloc (buffer.c:72)
==33316==    by 0x108A9813: get_video_buffer (frame.c:119)
==33316==    by 0x108A9813: av_frame_get_buffer (frame.c:196)
==33316==    by 0x1009B9E7: ff_default_get_video_buffer (video.c:55)
==33316==    by 0x1009B9E7: ff_get_video_buffer (video.c:73)
==33316==    by 0x1009B9E7: ff_null_get_video_buffer (video.c:33)
==33316==    by 0x1009B973: ff_get_video_buffer (video.c:70)
==33316==    by 0x1009B973: ff_null_get_video_buffer (video.c:33)
==33316==    by 0x1009BBCB: ff_get_video_buffer (video.c:70)
==33316==    by 0x10095A5F: filter_frame (vf_scale.c:276)
==33316==    by 0x1007D4A3: ff_filter_frame (avfilter.c:698)
==33316==    by 0x1007D4A3: default_filter_frame (avfilter.c:638)
==33316==    by 0x1007FD23: ff_filter_frame (avfilter.c:698)
==33316==    by 0x10082513: request_frame (buffersrc.c:399)
==33316== 
==33316== Invalid read of size 16
==33316==    at 0x1048084C: get_pixels_vsx (pixblockdsp.c:139)
==33316==    by 0x1023BAFF: dnxhd_get_blocks (dnxhdenc.c:578)
==33316==    by 0x1023BAFF: dnxhd_calc_bits_thread (dnxhdenc.c:619)
==33316==    by 0x43DC95B: start_thread (in /usr/lib64/libpthread-2.17.so)
==33316==    by 0x4563BBB: clone (in /usr/lib64/libc-2.17.so)
==33316==  Address 0x17ee1918 is 460,792 bytes inside a block of size 460,800 alloc'd
==33316==    at 0x4088C90: memalign (vg_replace_malloc.c:857)
==33316==    by 0x4088DFF: posix_memalign (vg_replace_malloc.c:1020)
==33316==    by 0x108B2697: av_malloc (mem.c:71)
==33316==    by 0x1089E907: av_buffer_alloc (buffer.c:72)
==33316==    by 0x108A9813: get_video_buffer (frame.c:119)
==33316==    by 0x108A9813: av_frame_get_buffer (frame.c:196)
==33316==    by 0x1009B9E7: ff_default_get_video_buffer (video.c:55)
==33316==    by 0x1009B9E7: ff_get_video_buffer (video.c:73)
==33316==    by 0x1009B9E7: ff_null_get_video_buffer (video.c:33)
==33316==    by 0x1009B973: ff_get_video_buffer (video.c:70)
==33316==    by 0x1009B973: ff_null_get_video_buffer (video.c:33)
==33316==    by 0x1009BBCB: ff_get_video_buffer (video.c:70)
==33316==    by 0x10095A5F: filter_frame (vf_scale.c:276)
==33316==    by 0x1007D4A3: ff_filter_frame (avfilter.c:698)
==33316==    by 0x1007D4A3: default_filter_frame (avfilter.c:638)
==33316==    by 0x1007FD23: ff_filter_frame (avfilter.c:698)
==33316==    by 0x10082513: request_frame (buffersrc.c:399)
==33316== 
==33316== Invalid read of size 16
==33316==    at 0x1048084C: get_pixels_vsx (pixblockdsp.c:139)
==33316==    by 0x1023BB2F: dnxhd_get_blocks (dnxhdenc.c:580)
==33316==    by 0x1023BB2F: dnxhd_calc_bits_thread (dnxhdenc.c:619)
==33316==    by 0x43DC95B: start_thread (in /usr/lib64/libpthread-2.17.so)
==33316==    by 0x4563BBB: clone (in /usr/lib64/libc-2.17.so)
==33316==  Address 0x17f521b8 is 460,792 bytes inside a block of size 460,800 alloc'd
==33316==    at 0x4088C90: memalign (vg_replace_malloc.c:857)
==33316==    by 0x4088DFF: posix_memalign (vg_replace_malloc.c:1020)
==33316==    by 0x108B2697: av_malloc (mem.c:71)
==33316==    by 0x1089E907: av_buffer_alloc (buffer.c:72)
==33316==    by 0x108A9813: get_video_buffer (frame.c:119)
==33316==    by 0x108A9813: av_frame_get_buffer (frame.c:196)
==33316==    by 0x1009B9E7: ff_default_get_video_buffer (video.c:55)
==33316==    by 0x1009B9E7: ff_get_video_buffer (video.c:73)
==33316==    by 0x1009B9E7: ff_null_get_video_buffer (video.c:33)
==33316==    by 0x1009B973: ff_get_video_buffer (video.c:70)
==33316==    by 0x1009B973: ff_null_get_video_buffer (video.c:33)
==33316==    by 0x1009BBCB: ff_get_video_buffer (video.c:70)
==33316==    by 0x10095A5F: filter_frame (vf_scale.c:276)
==33316==    by 0x1007D4A3: ff_filter_frame (avfilter.c:698)
==33316==    by 0x1007D4A3: default_filter_frame (avfilter.c:638)
==33316==    by 0x1007FD23: ff_filter_frame (avfilter.c:698)
==33316==    by 0x10082513: request_frame (buffersrc.c:399)
==33316== 
==33316== Invalid read of size 16
==33316==    at 0x1048084C: get_pixels_vsx (pixblockdsp.c:139)
==33316==    by 0x1023B173: dnxhd_get_blocks (dnxhdenc.c:576)
==33316==    by 0x1023B173: dnxhd_encode_thread (dnxhdenc.c:674)
==33316==    by 0x43DC95B: start_thread (in /usr/lib64/libpthread-2.17.so)
==33316==    by 0x4563BBB: clone (in /usr/lib64/libc-2.17.so)
==33316==  Address 0x17e71078 is 921,592 bytes inside a block of size 921,600 alloc'd
==33316==    at 0x4088C90: memalign (vg_replace_malloc.c:857)
==33316==    by 0x4088DFF: posix_memalign (vg_replace_malloc.c:1020)
==33316==    by 0x108B2697: av_malloc (mem.c:71)
==33316==    by 0x1089E907: av_buffer_alloc (buffer.c:72)
==33316==    by 0x108A9813: get_video_buffer (frame.c:119)
==33316==    by 0x108A9813: av_frame_get_buffer (frame.c:196)
==33316==    by 0x1009B9E7: ff_default_get_video_buffer (video.c:55)
==33316==    by 0x1009B9E7: ff_get_video_buffer (video.c:73)
==33316==    by 0x1009B9E7: ff_null_get_video_buffer (video.c:33)
==33316==    by 0x1009B973: ff_get_video_buffer (video.c:70)
==33316==    by 0x1009B973: ff_null_get_video_buffer (video.c:33)
==33316==    by 0x1009BBCB: ff_get_video_buffer (video.c:70)
==33316==    by 0x10095A5F: filter_frame (vf_scale.c:276)
==33316==    by 0x1007D4A3: ff_filter_frame (avfilter.c:698)
==33316==    by 0x1007D4A3: default_filter_frame (avfilter.c:638)
==33316==    by 0x1007FD23: ff_filter_frame (avfilter.c:698)
==33316==    by 0x10082513: request_frame (buffersrc.c:399)
==33316== 
==33316== Invalid read of size 16
==33316==    at 0x1048084C: get_pixels_vsx (pixblockdsp.c:139)
==33316==    by 0x1023B1A3: dnxhd_get_blocks (dnxhdenc.c:578)
==33316==    by 0x1023B1A3: dnxhd_encode_thread (dnxhdenc.c:674)
==33316==    by 0x43DC95B: start_thread (in /usr/lib64/libpthread-2.17.so)
==33316==    by 0x4563BBB: clone (in /usr/lib64/libc-2.17.so)
==33316==  Address 0x17ee1918 is 460,792 bytes inside a block of size 460,800 alloc'd
==33316==    at 0x4088C90: memalign (vg_replace_malloc.c:857)
==33316==    by 0x4088DFF: posix_memalign (vg_replace_malloc.c:1020)
==33316==    by 0x108B2697: av_malloc (mem.c:71)
==33316==    by 0x1089E907: av_buffer_alloc (buffer.c:72)
==33316==    by 0x108A9813: get_video_buffer (frame.c:119)
==33316==    by 0x108A9813: av_frame_get_buffer (frame.c:196)
==33316==    by 0x1009B9E7: ff_default_get_video_buffer (video.c:55)
==33316==    by 0x1009B9E7: ff_get_video_buffer (video.c:73)
==33316==    by 0x1009B9E7: ff_null_get_video_buffer (video.c:33)
==33316==    by 0x1009B973: ff_get_video_buffer (video.c:70)
==33316==    by 0x1009B973: ff_null_get_video_buffer (video.c:33)
==33316==    by 0x1009BBCB: ff_get_video_buffer (video.c:70)
==33316==    by 0x10095A5F: filter_frame (vf_scale.c:276)
==33316==    by 0x1007D4A3: ff_filter_frame (avfilter.c:698)
==33316==    by 0x1007D4A3: default_filter_frame (avfilter.c:638)
==33316==    by 0x1007FD23: ff_filter_frame (avfilter.c:698)
==33316==    by 0x10082513: request_frame (buffersrc.c:399)
==33316== 
==33316== Invalid read of size 16
==33316==    at 0x1048084C: get_pixels_vsx (pixblockdsp.c:139)
==33316==    by 0x1023B1D3: dnxhd_get_blocks (dnxhdenc.c:580)
==33316==    by 0x1023B1D3: dnxhd_encode_thread (dnxhdenc.c:674)
==33316==    by 0x43DC95B: start_thread (in /usr/lib64/libpthread-2.17.so)
==33316==    by 0x4563BBB: clone (in /usr/lib64/libc-2.17.so)
==33316==  Address 0x17f521b8 is 460,792 bytes inside a block of size 460,800 alloc'd
==33316==    at 0x4088C90: memalign (vg_replace_malloc.c:857)
==33316==    by 0x4088DFF: posix_memalign (vg_replace_malloc.c:1020)
==33316==    by 0x108B2697: av_malloc (mem.c:71)
==33316==    by 0x1089E907: av_buffer_alloc (buffer.c:72)
==33316==    by 0x108A9813: get_video_buffer (frame.c:119)
==33316==    by 0x108A9813: av_frame_get_buffer (frame.c:196)
==33316==    by 0x1009B9E7: ff_default_get_video_buffer (video.c:55)
==33316==    by 0x1009B9E7: ff_get_video_buffer (video.c:73)
==33316==    by 0x1009B9E7: ff_null_get_video_buffer (video.c:33)
==33316==    by 0x1009B973: ff_get_video_buffer (video.c:70)
==33316==    by 0x1009B973: ff_null_get_video_buffer (video.c:33)
==33316==    by 0x1009BBCB: ff_get_video_buffer (video.c:70)
==33316==    by 0x10095A5F: filter_frame (vf_scale.c:276)
==33316==    by 0x1007D4A3: ff_filter_frame (avfilter.c:698)
==33316==    by 0x1007D4A3: default_filter_frame (avfilter.c:638)
==33316==    by 0x1007FD23: ff_filter_frame (avfilter.c:698)
==33316==    by 0x10082513: request_frame (buffersrc.c:399)
==33316== 
frame=    5 fps=  0 q=30.0 Lsize=    2240kB time=0.16 bitrate=114688.0kbits/s    
video:2240kB audio:0kB other streams:0kB global headers:0kB muxing overhead: 0.000000%
==33316== 
==33316== HEAP SUMMARY:
==33316==     in use at exit: 0 bytes in 0 blocks
==33316==   total heap usage: 1,790 allocs, 1,790 frees, 22,020,343 bytes allocated
==33316== 
==33316== All heap blocks were freed -- no leaks are possible
==33316== 
==33316== For counts of detected and suppressed errors, rerun with: -v
==33316== ERROR SUMMARY: 465 errors from 6 contexts (suppressed: 0 from 0)