ppc64-linux-gcc-valgrind v13_dev0-1400-gb72ac6d

Architectureppc
Variantppc64
CPUgeneric
OSlinux
Ownerkostylev
Compilergcc 5.5.0 (GCC)
Configuration--prefix=/home/mik/src/fate/ppc64-linux-gcc-valgrind/install --samples=/home/mik/src/fate/fate-suite --enable-gpl --cc=gcc-5 --target-exec='valgrind --leak-check=full --show-reachable=yes --error-exitcode=1 --malloc-fill=0x4a --undef-value-errors=no'
Commentvalgrind --undef-value-errors=no
Revisionv13_dev0-1400-gb72ac6d
Date2017-11-13 13:33:35
Status2142 / 2147
Warnings67
Logscompile configure test
5 failed testsStatusLast good rev
diffstderrsvq3-21n / a
--- /home/mik/src/fate/src/tests/ref/fate/svq3-2	2017-02-27 10:07:05.303380676 +0000
+++ tests/data/fate/svq3-2	2017-11-13 13:20:15.936377869 +0000
@@ -1,5 +1,5 @@
 #tb 0: 1/19200
-0,     -20000,     -20000,        0,   185280, 0x061c0d85
+0,     -20000,     -20000,        0,   185280, 0xc0bd953f
 0,     -19200,     -19200,        0,   185280, 0x427ef9a7
 0,     -18400,     -18400,        0,   185280, 0x64c74d6a
 0,     -17600,     -17600,        0,   185280, 0x5bfd0e5b
==9352== Memcheck, a memory error detector
==9352== Copyright (C) 2002-2015, and GNU GPL'd, by Julian Seward et al.
==9352== Using Valgrind-3.12.0.SVN and LibVEX; rerun with -h for copyright info
==9352== Command: /home/mik/src/fate/ppc64-linux-gcc-valgrind/build/avconv -nostats -cpuflags all -flags +bitexact -hwaccel none -threads 1 -thread_type frame+slice -i /home/mik/src/fate/fate-suite/svq3/svq3_decoding_regression.mov -an -f framecrc -
==9352== 
avconv version v13_dev0-1400-gb72ac6d, Copyright (c) 2000-2017 the Libav developers
  built on Nov 13 2017 13:06:29 with gcc 5.5.0 (GCC)
Input #0, mov,mp4,m4a,3gp,3g2,mj2, from '/home/mik/src/fate/fate-suite/svq3/svq3_decoding_regression.mov':
  Metadata:
    major_brand     : qt  
    minor_version   : 512
    compatible_brands: qt  
    artist          : Mark Strube - SupaDupaStrube@msn.com
    artist-eng      : Mark Strube - SupaDupaStrube@msn.com
    title           : Movie-List Presents: The Abyss
    title-eng       : Movie-List Presents: The Abyss
    encoder         : Lavf57.66.101
    copyright       : © 1989 Twentieth Century Fox
    copyright-eng   : © 1989 Twentieth Century Fox
  Duration: 00:00:00.83, bitrate: 2376 kb/s
    Stream #0:0(eng): Video: svq3 [SVQ3 / 0x33515653]
      yuvj420p, pc, 480x257, 2366 kb/s
      24 fps, 19200 tbn (default)
    Metadata:
      handler_name    : DataHandler
      encoder         : Sorenson Video 3
Stream mapping:
  Stream #0:0 -> #0:0 (svq3 (native) -> rawvideo (native))
Press ctrl-c to stop encoding
[svq3 @ 0x4727660] Missing reference frame.
Output #0, framecrc, to 'pipe:':
  Metadata:
    major_brand     : qt  
    minor_version   : 512
    compatible_brands: qt  
    artist          : Mark Strube - SupaDupaStrube@msn.com
    artist-eng      : Mark Strube - SupaDupaStrube@msn.com
    title           : Movie-List Presents: The Abyss
    title-eng       : Movie-List Presents: The Abyss
    copyright-eng   : © 1989 Twentieth Century Fox
    copyright       : © 1989 Twentieth Century Fox
    encoder         : Lavf58.1.0
    Stream #0:0(eng): Video: rawvideo [I420 / 0x30323449]
      yuvj420p, 480x257, q=2-31, 200 kb/s
      19200 tbn (default)
    Metadata:
      handler_name    : DataHandler
      encoder         : Sorenson Video 3
*** dropping frame 19 from stream 0 at ts -6400
frame=   19 fps=  0 q=-0.0 Lsize=       1kB time=10000000000.00 bitrate=   0.0kbits/s drop=1    
video:3438kB audio:0kB other streams:0kB global headers:0kB muxing overhead: unknown
==9352== 
==9352== HEAP SUMMARY:
==9352==     in use at exit: 0 bytes in 0 blocks
==9352==   total heap usage: 1,668 allocs, 1,668 frees, 8,678,202 bytes allocated
==9352== 
==9352== All heap blocks were freed -- no leaks are possible
==9352== 
==9352== For counts of detected and suppressed errors, rerun with: -v
==9352== ERROR SUMMARY: 0 errors from 0 contexts (suppressed: 0 from 0)
diffstderrvsynth1-dnxhd-720p1v12_dev0-1345-g0181ae9
--- /home/mik/src/fate/src/tests/ref/vsynth/vsynth1-dnxhd-720p	2014-01-10 11:16:55.734697630 +0000
+++ tests/data/fate/vsynth1-dnxhd-720p	2017-11-13 13:27:28.617344456 +0000
@@ -1,4 +0,0 @@
-81f5be451dc18cf8a1d333c7885de60b *tests/data/fate/vsynth1-dnxhd-720p.dnxhd
-2293760 tests/data/fate/vsynth1-dnxhd-720p.dnxhd
-94b21e5e68ccf9471eff74afd0ebe319 *tests/data/fate/vsynth1-dnxhd-720p.out.rawvideo
-stddev:    6.32 PSNR: 32.11 MAXDIFF:  183 bytes:  7603200/   760320
==58509== Memcheck, a memory error detector
==58509== Copyright (C) 2002-2015, and GNU GPL'd, by Julian Seward et al.
==58509== Using Valgrind-3.12.0.SVN and LibVEX; rerun with -h for copyright info
==58509== Command: /home/mik/src/fate/ppc64-linux-gcc-valgrind/build/avconv -nostats -cpuflags all -f rawvideo -s 352x288 -pix_fmt yuv420p -threads 1 -idct simple -flags +bitexact -sws_flags +accurate_rnd+bitexact -fflags +bitexact -hwaccel none -threads 1 -thread_type frame+slice -i /home/mik/src/fate/ppc64-linux-gcc-valgrind/build/tests/data/vsynth1.yuv -threads 1 -idct simple -dct fastint -c dnxhd -s hd720 -b 90M -pix_fmt yuv422p -frames 5 -flags +bitexact -sws_flags +accurate_rnd+bitexact -fflags +bitexact -f dnxhd -y /home/mik/src/fate/ppc64-linux-gcc-valgrind/build/tests/data/fate/vsynth1-dnxhd-720p.dnxhd
==58509== 
avconv version v13_dev0-1400-gb72ac6d, Copyright (c) 2000-2017 the Libav developers
  built on Nov 13 2017 13:06:29 with gcc 5.5.0 (GCC)
[rawvideo @ 0x46cae20] Estimating duration from bitrate, this may be inaccurate
Input #0, rawvideo, from '/home/mik/src/fate/ppc64-linux-gcc-valgrind/build/tests/data/vsynth1.yuv':
  Duration: N/A, start: 0.000000, bitrate: N/A
    Stream #0:0: Video: rawvideo
      yuv420p, 352x288
      25 fps, 25 tbn
Stream mapping:
  Stream #0:0 -> #0:0 (rawvideo (native) -> dnxhd (native))
Press ctrl-c to stop encoding
Output #0, dnxhd, to '/home/mik/src/fate/ppc64-linux-gcc-valgrind/build/tests/data/fate/vsynth1-dnxhd-720p.dnxhd':
    Stream #0:0: Video: dnxhd
      yuv422p, 1280x720, q=2-31, 90000 kb/s
      25 tbn
    Metadata:
      encoder         : dnxhd
==58509== Invalid read of size 16
==58509==    at 0x1048074C: get_pixels_vsx (pixblockdsp.c:139)
==58509==    by 0x1023BA8F: dnxhd_get_blocks (dnxhdenc.c:576)
==58509==    by 0x1023BA8F: dnxhd_calc_bits_thread (dnxhdenc.c:619)
==58509==    by 0x1023C9F3: dnxhd_find_qscale (dnxhdenc.c:866)
==58509==    by 0x1023C9F3: dnxhd_encode_fast (dnxhdenc.c:969)
==58509==    by 0x1023C9F3: dnxhd_encode_picture (dnxhdenc.c:1055)
==58509==    by 0x102625C3: avcodec_encode_video2 (encode.c:227)
==58509==    by 0x102627E3: do_encode (encode.c:274)
==58509==    by 0x10262A4F: avcodec_send_frame (encode.c:323)
==58509==    by 0x10077077: do_video_out (avconv.c:587)
==58509==    by 0x10077077: poll_filter (avconv.c:726)
==58509==    by 0x1007784F: poll_filters (avconv.c:800)
==58509==    by 0x1005EAEB: transcode (avconv.c:2771)
==58509==    by 0x1005EAEB: main (avconv.c:2940)
==58509==  Address 0x16e71078 is 921,592 bytes inside a block of size 921,600 alloc'd
==58509==    at 0x4088C90: memalign (vg_replace_malloc.c:857)
==58509==    by 0x4088DFF: posix_memalign (vg_replace_malloc.c:1020)
==58509==    by 0x108B24D7: av_malloc (mem.c:71)
==58509==    by 0x1089E747: av_buffer_alloc (buffer.c:72)
==58509==    by 0x108A9653: get_video_buffer (frame.c:119)
==58509==    by 0x108A9653: av_frame_get_buffer (frame.c:196)
==58509==    by 0x1009B9A7: ff_default_get_video_buffer (video.c:55)
==58509==    by 0x1009B9A7: ff_get_video_buffer (video.c:73)
==58509==    by 0x1009B9A7: ff_null_get_video_buffer (video.c:33)
==58509==    by 0x1009B933: ff_get_video_buffer (video.c:70)
==58509==    by 0x1009B933: ff_null_get_video_buffer (video.c:33)
==58509==    by 0x1009BB8B: ff_get_video_buffer (video.c:70)
==58509==    by 0x10095A1F: filter_frame (vf_scale.c:276)
==58509==    by 0x1007D4A3: ff_filter_frame (avfilter.c:698)
==58509==    by 0x1007D4A3: default_filter_frame (avfilter.c:638)
==58509==    by 0x1007FD23: ff_filter_frame (avfilter.c:698)
==58509==    by 0x10082513: request_frame (buffersrc.c:399)
==58509== 
==58509== Invalid read of size 16
==58509==    at 0x1048074C: get_pixels_vsx (pixblockdsp.c:139)
==58509==    by 0x1023BABF: dnxhd_get_blocks (dnxhdenc.c:578)
==58509==    by 0x1023BABF: dnxhd_calc_bits_thread (dnxhdenc.c:619)
==58509==    by 0x1023C9F3: dnxhd_find_qscale (dnxhdenc.c:866)
==58509==    by 0x1023C9F3: dnxhd_encode_fast (dnxhdenc.c:969)
==58509==    by 0x1023C9F3: dnxhd_encode_picture (dnxhdenc.c:1055)
==58509==    by 0x102625C3: avcodec_encode_video2 (encode.c:227)
==58509==    by 0x102627E3: do_encode (encode.c:274)
==58509==    by 0x10262A4F: avcodec_send_frame (encode.c:323)
==58509==    by 0x10077077: do_video_out (avconv.c:587)
==58509==    by 0x10077077: poll_filter (avconv.c:726)
==58509==    by 0x1007784F: poll_filters (avconv.c:800)
==58509==    by 0x1005EAEB: transcode (avconv.c:2771)
==58509==    by 0x1005EAEB: main (avconv.c:2940)
==58509==  Address 0x16ee1918 is 460,792 bytes inside a block of size 460,800 alloc'd
==58509==    at 0x4088C90: memalign (vg_replace_malloc.c:857)
==58509==    by 0x4088DFF: posix_memalign (vg_replace_malloc.c:1020)
==58509==    by 0x108B24D7: av_malloc (mem.c:71)
==58509==    by 0x1089E747: av_buffer_alloc (buffer.c:72)
==58509==    by 0x108A9653: get_video_buffer (frame.c:119)
==58509==    by 0x108A9653: av_frame_get_buffer (frame.c:196)
==58509==    by 0x1009B9A7: ff_default_get_video_buffer (video.c:55)
==58509==    by 0x1009B9A7: ff_get_video_buffer (video.c:73)
==58509==    by 0x1009B9A7: ff_null_get_video_buffer (video.c:33)
==58509==    by 0x1009B933: ff_get_video_buffer (video.c:70)
==58509==    by 0x1009B933: ff_null_get_video_buffer (video.c:33)
==58509==    by 0x1009BB8B: ff_get_video_buffer (video.c:70)
==58509==    by 0x10095A1F: filter_frame (vf_scale.c:276)
==58509==    by 0x1007D4A3: ff_filter_frame (avfilter.c:698)
==58509==    by 0x1007D4A3: default_filter_frame (avfilter.c:638)
==58509==    by 0x1007FD23: ff_filter_frame (avfilter.c:698)
==58509==    by 0x10082513: request_frame (buffersrc.c:399)
==58509== 
==58509== Invalid read of size 16
==58509==    at 0x1048074C: get_pixels_vsx (pixblockdsp.c:139)
==58509==    by 0x1023BAEF: dnxhd_get_blocks (dnxhdenc.c:580)
==58509==    by 0x1023BAEF: dnxhd_calc_bits_thread (dnxhdenc.c:619)
==58509==    by 0x1023C9F3: dnxhd_find_qscale (dnxhdenc.c:866)
==58509==    by 0x1023C9F3: dnxhd_encode_fast (dnxhdenc.c:969)
==58509==    by 0x1023C9F3: dnxhd_encode_picture (dnxhdenc.c:1055)
==58509==    by 0x102625C3: avcodec_encode_video2 (encode.c:227)
==58509==    by 0x102627E3: do_encode (encode.c:274)
==58509==    by 0x10262A4F: avcodec_send_frame (encode.c:323)
==58509==    by 0x10077077: do_video_out (avconv.c:587)
==58509==    by 0x10077077: poll_filter (avconv.c:726)
==58509==    by 0x1007784F: poll_filters (avconv.c:800)
==58509==    by 0x1005EAEB: transcode (avconv.c:2771)
==58509==    by 0x1005EAEB: main (avconv.c:2940)
==58509==  Address 0x16f521b8 is 460,792 bytes inside a block of size 460,800 alloc'd
==58509==    at 0x4088C90: memalign (vg_replace_malloc.c:857)
==58509==    by 0x4088DFF: posix_memalign (vg_replace_malloc.c:1020)
==58509==    by 0x108B24D7: av_malloc (mem.c:71)
==58509==    by 0x1089E747: av_buffer_alloc (buffer.c:72)
==58509==    by 0x108A9653: get_video_buffer (frame.c:119)
==58509==    by 0x108A9653: av_frame_get_buffer (frame.c:196)
==58509==    by 0x1009B9A7: ff_default_get_video_buffer (video.c:55)
==58509==    by 0x1009B9A7: ff_get_video_buffer (video.c:73)
==58509==    by 0x1009B9A7: ff_null_get_video_buffer (video.c:33)
==58509==    by 0x1009B933: ff_get_video_buffer (video.c:70)
==58509==    by 0x1009B933: ff_null_get_video_buffer (video.c:33)
==58509==    by 0x1009BB8B: ff_get_video_buffer (video.c:70)
==58509==    by 0x10095A1F: filter_frame (vf_scale.c:276)
==58509==    by 0x1007D4A3: ff_filter_frame (avfilter.c:698)
==58509==    by 0x1007D4A3: default_filter_frame (avfilter.c:638)
==58509==    by 0x1007FD23: ff_filter_frame (avfilter.c:698)
==58509==    by 0x10082513: request_frame (buffersrc.c:399)
==58509== 
==58509== Invalid read of size 16
==58509==    at 0x1048074C: get_pixels_vsx (pixblockdsp.c:139)
==58509==    by 0x1023B133: dnxhd_get_blocks (dnxhdenc.c:576)
==58509==    by 0x1023B133: dnxhd_encode_thread (dnxhdenc.c:674)
==58509==    by 0x1023D12F: dnxhd_encode_picture (dnxhdenc.c:1071)
==58509==    by 0x102625C3: avcodec_encode_video2 (encode.c:227)
==58509==    by 0x102627E3: do_encode (encode.c:274)
==58509==    by 0x10262A4F: avcodec_send_frame (encode.c:323)
==58509==    by 0x10077077: do_video_out (avconv.c:587)
==58509==    by 0x10077077: poll_filter (avconv.c:726)
==58509==    by 0x1007784F: poll_filters (avconv.c:800)
==58509==    by 0x1005EAEB: transcode (avconv.c:2771)
==58509==    by 0x1005EAEB: main (avconv.c:2940)
==58509==  Address 0x16e71078 is 921,592 bytes inside a block of size 921,600 alloc'd
==58509==    at 0x4088C90: memalign (vg_replace_malloc.c:857)
==58509==    by 0x4088DFF: posix_memalign (vg_replace_malloc.c:1020)
==58509==    by 0x108B24D7: av_malloc (mem.c:71)
==58509==    by 0x1089E747: av_buffer_alloc (buffer.c:72)
==58509==    by 0x108A9653: get_video_buffer (frame.c:119)
==58509==    by 0x108A9653: av_frame_get_buffer (frame.c:196)
==58509==    by 0x1009B9A7: ff_default_get_video_buffer (video.c:55)
==58509==    by 0x1009B9A7: ff_get_video_buffer (video.c:73)
==58509==    by 0x1009B9A7: ff_null_get_video_buffer (video.c:33)
==58509==    by 0x1009B933: ff_get_video_buffer (video.c:70)
==58509==    by 0x1009B933: ff_null_get_video_buffer (video.c:33)
==58509==    by 0x1009BB8B: ff_get_video_buffer (video.c:70)
==58509==    by 0x10095A1F: filter_frame (vf_scale.c:276)
==58509==    by 0x1007D4A3: ff_filter_frame (avfilter.c:698)
==58509==    by 0x1007D4A3: default_filter_frame (avfilter.c:638)
==58509==    by 0x1007FD23: ff_filter_frame (avfilter.c:698)
==58509==    by 0x10082513: request_frame (buffersrc.c:399)
==58509== 
==58509== Invalid read of size 16
==58509==    at 0x1048074C: get_pixels_vsx (pixblockdsp.c:139)
==58509==    by 0x1023B163: dnxhd_get_blocks (dnxhdenc.c:578)
==58509==    by 0x1023B163: dnxhd_encode_thread (dnxhdenc.c:674)
==58509==    by 0x1023D12F: dnxhd_encode_picture (dnxhdenc.c:1071)
==58509==    by 0x102625C3: avcodec_encode_video2 (encode.c:227)
==58509==    by 0x102627E3: do_encode (encode.c:274)
==58509==    by 0x10262A4F: avcodec_send_frame (encode.c:323)
==58509==    by 0x10077077: do_video_out (avconv.c:587)
==58509==    by 0x10077077: poll_filter (avconv.c:726)
==58509==    by 0x1007784F: poll_filters (avconv.c:800)
==58509==    by 0x1005EAEB: transcode (avconv.c:2771)
==58509==    by 0x1005EAEB: main (avconv.c:2940)
==58509==  Address 0x16ee1918 is 460,792 bytes inside a block of size 460,800 alloc'd
==58509==    at 0x4088C90: memalign (vg_replace_malloc.c:857)
==58509==    by 0x4088DFF: posix_memalign (vg_replace_malloc.c:1020)
==58509==    by 0x108B24D7: av_malloc (mem.c:71)
==58509==    by 0x1089E747: av_buffer_alloc (buffer.c:72)
==58509==    by 0x108A9653: get_video_buffer (frame.c:119)
==58509==    by 0x108A9653: av_frame_get_buffer (frame.c:196)
==58509==    by 0x1009B9A7: ff_default_get_video_buffer (video.c:55)
==58509==    by 0x1009B9A7: ff_get_video_buffer (video.c:73)
==58509==    by 0x1009B9A7: ff_null_get_video_buffer (video.c:33)
==58509==    by 0x1009B933: ff_get_video_buffer (video.c:70)
==58509==    by 0x1009B933: ff_null_get_video_buffer (video.c:33)
==58509==    by 0x1009BB8B: ff_get_video_buffer (video.c:70)
==58509==    by 0x10095A1F: filter_frame (vf_scale.c:276)
==58509==    by 0x1007D4A3: ff_filter_frame (avfilter.c:698)
==58509==    by 0x1007D4A3: default_filter_frame (avfilter.c:638)
==58509==    by 0x1007FD23: ff_filter_frame (avfilter.c:698)
==58509==    by 0x10082513: request_frame (buffersrc.c:399)
==58509== 
==58509== Invalid read of size 16
==58509==    at 0x1048074C: get_pixels_vsx (pixblockdsp.c:139)
==58509==    by 0x1023B193: dnxhd_get_blocks (dnxhdenc.c:580)
==58509==    by 0x1023B193: dnxhd_encode_thread (dnxhdenc.c:674)
==58509==    by 0x1023D12F: dnxhd_encode_picture (dnxhdenc.c:1071)
==58509==    by 0x102625C3: avcodec_encode_video2 (encode.c:227)
==58509==    by 0x102627E3: do_encode (encode.c:274)
==58509==    by 0x10262A4F: avcodec_send_frame (encode.c:323)
==58509==    by 0x10077077: do_video_out (avconv.c:587)
==58509==    by 0x10077077: poll_filter (avconv.c:726)
==58509==    by 0x1007784F: poll_filters (avconv.c:800)
==58509==    by 0x1005EAEB: transcode (avconv.c:2771)
==58509==    by 0x1005EAEB: main (avconv.c:2940)
==58509==  Address 0x16f521b8 is 460,792 bytes inside a block of size 460,800 alloc'd
==58509==    at 0x4088C90: memalign (vg_replace_malloc.c:857)
==58509==    by 0x4088DFF: posix_memalign (vg_replace_malloc.c:1020)
==58509==    by 0x108B24D7: av_malloc (mem.c:71)
==58509==    by 0x1089E747: av_buffer_alloc (buffer.c:72)
==58509==    by 0x108A9653: get_video_buffer (frame.c:119)
==58509==    by 0x108A9653: av_frame_get_buffer (frame.c:196)
==58509==    by 0x1009B9A7: ff_default_get_video_buffer (video.c:55)
==58509==    by 0x1009B9A7: ff_get_video_buffer (video.c:73)
==58509==    by 0x1009B9A7: ff_null_get_video_buffer (video.c:33)
==58509==    by 0x1009B933: ff_get_video_buffer (video.c:70)
==58509==    by 0x1009B933: ff_null_get_video_buffer (video.c:33)
==58509==    by 0x1009BB8B: ff_get_video_buffer (video.c:70)
==58509==    by 0x10095A1F: filter_frame (vf_scale.c:276)
==58509==    by 0x1007D4A3: ff_filter_frame (avfilter.c:698)
==58509==    by 0x1007D4A3: default_filter_frame (avfilter.c:638)
==58509==    by 0x1007FD23: ff_filter_frame (avfilter.c:698)
==58509==    by 0x10082513: request_frame (buffersrc.c:399)
==58509== 
frame=    5 fps=  0 q=1.0 Lsize=    2240kB time=0.16 bitrate=114688.0kbits/s    
video:2240kB audio:0kB other streams:0kB global headers:0kB muxing overhead: 0.000000%
==58509== 
==58509== HEAP SUMMARY:
==58509==     in use at exit: 0 bytes in 0 blocks
==58509==   total heap usage: 1,770 allocs, 1,770 frees, 22,156,167 bytes allocated
==58509== 
==58509== All heap blocks were freed -- no leaks are possible
==58509== 
==58509== For counts of detected and suppressed errors, rerun with: -v
==58509== ERROR SUMMARY: 45 errors from 6 contexts (suppressed: 0 from 0)
diffstderrvsynth1-dnxhd-720p-rd1v12_dev0-1345-g0181ae9
--- /home/mik/src/fate/src/tests/ref/vsynth/vsynth1-dnxhd-720p-rd	2014-01-10 11:16:55.734697630 +0000
+++ tests/data/fate/vsynth1-dnxhd-720p-rd	2017-11-13 13:27:29.567346546 +0000
@@ -1,4 +0,0 @@
-1dc6e95925c4f3a230848ec17c02abed *tests/data/fate/vsynth1-dnxhd-720p-rd.dnxhd
-2293760 tests/data/fate/vsynth1-dnxhd-720p-rd.dnxhd
-02972d2aec120ec1577ec9053d68ae0f *tests/data/fate/vsynth1-dnxhd-720p-rd.out.rawvideo
-stddev:    6.26 PSNR: 32.19 MAXDIFF:   65 bytes:  7603200/   760320
==58743== Memcheck, a memory error detector
==58743== Copyright (C) 2002-2015, and GNU GPL'd, by Julian Seward et al.
==58743== Using Valgrind-3.12.0.SVN and LibVEX; rerun with -h for copyright info
==58743== Command: /home/mik/src/fate/ppc64-linux-gcc-valgrind/build/avconv -nostats -cpuflags all -f rawvideo -s 352x288 -pix_fmt yuv420p -threads 1 -idct simple -flags +bitexact -sws_flags +accurate_rnd+bitexact -fflags +bitexact -hwaccel none -threads 1 -thread_type frame+slice -i /home/mik/src/fate/ppc64-linux-gcc-valgrind/build/tests/data/vsynth1.yuv -threads 1 -idct simple -dct fastint -c dnxhd -s hd720 -b 90M -threads 4 -mbd rd -pix_fmt yuv422p -frames 5 -flags +bitexact -sws_flags +accurate_rnd+bitexact -fflags +bitexact -f dnxhd -y /home/mik/src/fate/ppc64-linux-gcc-valgrind/build/tests/data/fate/vsynth1-dnxhd-720p-rd.dnxhd
==58743== 
avconv version v13_dev0-1400-gb72ac6d, Copyright (c) 2000-2017 the Libav developers
  built on Nov 13 2017 13:06:29 with gcc 5.5.0 (GCC)
[rawvideo @ 0x46caec0] Estimating duration from bitrate, this may be inaccurate
Input #0, rawvideo, from '/home/mik/src/fate/ppc64-linux-gcc-valgrind/build/tests/data/vsynth1.yuv':
  Duration: N/A, start: 0.000000, bitrate: N/A
    Stream #0:0: Video: rawvideo
      yuv420p, 352x288
      25 fps, 25 tbn
Stream mapping:
  Stream #0:0 -> #0:0 (rawvideo (native) -> dnxhd (native))
Press ctrl-c to stop encoding
Output #0, dnxhd, to '/home/mik/src/fate/ppc64-linux-gcc-valgrind/build/tests/data/fate/vsynth1-dnxhd-720p-rd.dnxhd':
    Stream #0:0: Video: dnxhd
      yuv422p, 1280x720, q=2-31, 90000 kb/s
      25 tbn
    Metadata:
      encoder         : dnxhd
==58743== Thread 67:
==58743== Invalid read of size 16
==58743==    at 0x1048074C: get_pixels_vsx (pixblockdsp.c:139)
==58743==    by 0x1023BA8F: dnxhd_get_blocks (dnxhdenc.c:576)
==58743==    by 0x1023BA8F: dnxhd_calc_bits_thread (dnxhdenc.c:619)
==58743==    by 0x43DC95B: start_thread (in /usr/lib64/libpthread-2.17.so)
==58743==    by 0x4563BBB: clone (in /usr/lib64/libc-2.17.so)
==58743==  Address 0x17e71078 is 921,592 bytes inside a block of size 921,600 alloc'd
==58743==    at 0x4088C90: memalign (vg_replace_malloc.c:857)
==58743==    by 0x4088DFF: posix_memalign (vg_replace_malloc.c:1020)
==58743==    by 0x108B24D7: av_malloc (mem.c:71)
==58743==    by 0x1089E747: av_buffer_alloc (buffer.c:72)
==58743==    by 0x108A9653: get_video_buffer (frame.c:119)
==58743==    by 0x108A9653: av_frame_get_buffer (frame.c:196)
==58743==    by 0x1009B9A7: ff_default_get_video_buffer (video.c:55)
==58743==    by 0x1009B9A7: ff_get_video_buffer (video.c:73)
==58743==    by 0x1009B9A7: ff_null_get_video_buffer (video.c:33)
==58743==    by 0x1009B933: ff_get_video_buffer (video.c:70)
==58743==    by 0x1009B933: ff_null_get_video_buffer (video.c:33)
==58743==    by 0x1009BB8B: ff_get_video_buffer (video.c:70)
==58743==    by 0x10095A1F: filter_frame (vf_scale.c:276)
==58743==    by 0x1007D4A3: ff_filter_frame (avfilter.c:698)
==58743==    by 0x1007D4A3: default_filter_frame (avfilter.c:638)
==58743==    by 0x1007FD23: ff_filter_frame (avfilter.c:698)
==58743==    by 0x10082513: request_frame (buffersrc.c:399)
==58743== 
==58743== Invalid read of size 16
==58743==    at 0x1048074C: get_pixels_vsx (pixblockdsp.c:139)
==58743==    by 0x1023BABF: dnxhd_get_blocks (dnxhdenc.c:578)
==58743==    by 0x1023BABF: dnxhd_calc_bits_thread (dnxhdenc.c:619)
==58743==    by 0x43DC95B: start_thread (in /usr/lib64/libpthread-2.17.so)
==58743==    by 0x4563BBB: clone (in /usr/lib64/libc-2.17.so)
==58743==  Address 0x17ee1918 is 460,792 bytes inside a block of size 460,800 alloc'd
==58743==    at 0x4088C90: memalign (vg_replace_malloc.c:857)
==58743==    by 0x4088DFF: posix_memalign (vg_replace_malloc.c:1020)
==58743==    by 0x108B24D7: av_malloc (mem.c:71)
==58743==    by 0x1089E747: av_buffer_alloc (buffer.c:72)
==58743==    by 0x108A9653: get_video_buffer (frame.c:119)
==58743==    by 0x108A9653: av_frame_get_buffer (frame.c:196)
==58743==    by 0x1009B9A7: ff_default_get_video_buffer (video.c:55)
==58743==    by 0x1009B9A7: ff_get_video_buffer (video.c:73)
==58743==    by 0x1009B9A7: ff_null_get_video_buffer (video.c:33)
==58743==    by 0x1009B933: ff_get_video_buffer (video.c:70)
==58743==    by 0x1009B933: ff_null_get_video_buffer (video.c:33)
==58743==    by 0x1009BB8B: ff_get_video_buffer (video.c:70)
==58743==    by 0x10095A1F: filter_frame (vf_scale.c:276)
==58743==    by 0x1007D4A3: ff_filter_frame (avfilter.c:698)
==58743==    by 0x1007D4A3: default_filter_frame (avfilter.c:638)
==58743==    by 0x1007FD23: ff_filter_frame (avfilter.c:698)
==58743==    by 0x10082513: request_frame (buffersrc.c:399)
==58743== 
==58743== Invalid read of size 16
==58743==    at 0x1048074C: get_pixels_vsx (pixblockdsp.c:139)
==58743==    by 0x1023BAEF: dnxhd_get_blocks (dnxhdenc.c:580)
==58743==    by 0x1023BAEF: dnxhd_calc_bits_thread (dnxhdenc.c:619)
==58743==    by 0x43DC95B: start_thread (in /usr/lib64/libpthread-2.17.so)
==58743==    by 0x4563BBB: clone (in /usr/lib64/libc-2.17.so)
==58743==  Address 0x17f521b8 is 460,792 bytes inside a block of size 460,800 alloc'd
==58743==    at 0x4088C90: memalign (vg_replace_malloc.c:857)
==58743==    by 0x4088DFF: posix_memalign (vg_replace_malloc.c:1020)
==58743==    by 0x108B24D7: av_malloc (mem.c:71)
==58743==    by 0x1089E747: av_buffer_alloc (buffer.c:72)
==58743==    by 0x108A9653: get_video_buffer (frame.c:119)
==58743==    by 0x108A9653: av_frame_get_buffer (frame.c:196)
==58743==    by 0x1009B9A7: ff_default_get_video_buffer (video.c:55)
==58743==    by 0x1009B9A7: ff_get_video_buffer (video.c:73)
==58743==    by 0x1009B9A7: ff_null_get_video_buffer (video.c:33)
==58743==    by 0x1009B933: ff_get_video_buffer (video.c:70)
==58743==    by 0x1009B933: ff_null_get_video_buffer (video.c:33)
==58743==    by 0x1009BB8B: ff_get_video_buffer (video.c:70)
==58743==    by 0x10095A1F: filter_frame (vf_scale.c:276)
==58743==    by 0x1007D4A3: ff_filter_frame (avfilter.c:698)
==58743==    by 0x1007D4A3: default_filter_frame (avfilter.c:638)
==58743==    by 0x1007FD23: ff_filter_frame (avfilter.c:698)
==58743==    by 0x10082513: request_frame (buffersrc.c:399)
==58743== 
==58743== Invalid read of size 16
==58743==    at 0x1048074C: get_pixels_vsx (pixblockdsp.c:139)
==58743==    by 0x1023B133: dnxhd_get_blocks (dnxhdenc.c:576)
==58743==    by 0x1023B133: dnxhd_encode_thread (dnxhdenc.c:674)
==58743==    by 0x43DC95B: start_thread (in /usr/lib64/libpthread-2.17.so)
==58743==    by 0x4563BBB: clone (in /usr/lib64/libc-2.17.so)
==58743==  Address 0x17e71078 is 921,592 bytes inside a block of size 921,600 alloc'd
==58743==    at 0x4088C90: memalign (vg_replace_malloc.c:857)
==58743==    by 0x4088DFF: posix_memalign (vg_replace_malloc.c:1020)
==58743==    by 0x108B24D7: av_malloc (mem.c:71)
==58743==    by 0x1089E747: av_buffer_alloc (buffer.c:72)
==58743==    by 0x108A9653: get_video_buffer (frame.c:119)
==58743==    by 0x108A9653: av_frame_get_buffer (frame.c:196)
==58743==    by 0x1009B9A7: ff_default_get_video_buffer (video.c:55)
==58743==    by 0x1009B9A7: ff_get_video_buffer (video.c:73)
==58743==    by 0x1009B9A7: ff_null_get_video_buffer (video.c:33)
==58743==    by 0x1009B933: ff_get_video_buffer (video.c:70)
==58743==    by 0x1009B933: ff_null_get_video_buffer (video.c:33)
==58743==    by 0x1009BB8B: ff_get_video_buffer (video.c:70)
==58743==    by 0x10095A1F: filter_frame (vf_scale.c:276)
==58743==    by 0x1007D4A3: ff_filter_frame (avfilter.c:698)
==58743==    by 0x1007D4A3: default_filter_frame (avfilter.c:638)
==58743==    by 0x1007FD23: ff_filter_frame (avfilter.c:698)
==58743==    by 0x10082513: request_frame (buffersrc.c:399)
==58743== 
==58743== Invalid read of size 16
==58743==    at 0x1048074C: get_pixels_vsx (pixblockdsp.c:139)
==58743==    by 0x1023B163: dnxhd_get_blocks (dnxhdenc.c:578)
==58743==    by 0x1023B163: dnxhd_encode_thread (dnxhdenc.c:674)
==58743==    by 0x43DC95B: start_thread (in /usr/lib64/libpthread-2.17.so)
==58743==    by 0x4563BBB: clone (in /usr/lib64/libc-2.17.so)
==58743==  Address 0x17ee1918 is 460,792 bytes inside a block of size 460,800 alloc'd
==58743==    at 0x4088C90: memalign (vg_replace_malloc.c:857)
==58743==    by 0x4088DFF: posix_memalign (vg_replace_malloc.c:1020)
==58743==    by 0x108B24D7: av_malloc (mem.c:71)
==58743==    by 0x1089E747: av_buffer_alloc (buffer.c:72)
==58743==    by 0x108A9653: get_video_buffer (frame.c:119)
==58743==    by 0x108A9653: av_frame_get_buffer (frame.c:196)
==58743==    by 0x1009B9A7: ff_default_get_video_buffer (video.c:55)
==58743==    by 0x1009B9A7: ff_get_video_buffer (video.c:73)
==58743==    by 0x1009B9A7: ff_null_get_video_buffer (video.c:33)
==58743==    by 0x1009B933: ff_get_video_buffer (video.c:70)
==58743==    by 0x1009B933: ff_null_get_video_buffer (video.c:33)
==58743==    by 0x1009BB8B: ff_get_video_buffer (video.c:70)
==58743==    by 0x10095A1F: filter_frame (vf_scale.c:276)
==58743==    by 0x1007D4A3: ff_filter_frame (avfilter.c:698)
==58743==    by 0x1007D4A3: default_filter_frame (avfilter.c:638)
==58743==    by 0x1007FD23: ff_filter_frame (avfilter.c:698)
==58743==    by 0x10082513: request_frame (buffersrc.c:399)
==58743== 
==58743== Invalid read of size 16
==58743==    at 0x1048074C: get_pixels_vsx (pixblockdsp.c:139)
==58743==    by 0x1023B193: dnxhd_get_blocks (dnxhdenc.c:580)
==58743==    by 0x1023B193: dnxhd_encode_thread (dnxhdenc.c:674)
==58743==    by 0x43DC95B: start_thread (in /usr/lib64/libpthread-2.17.so)
==58743==    by 0x4563BBB: clone (in /usr/lib64/libc-2.17.so)
==58743==  Address 0x17f521b8 is 460,792 bytes inside a block of size 460,800 alloc'd
==58743==    at 0x4088C90: memalign (vg_replace_malloc.c:857)
==58743==    by 0x4088DFF: posix_memalign (vg_replace_malloc.c:1020)
==58743==    by 0x108B24D7: av_malloc (mem.c:71)
==58743==    by 0x1089E747: av_buffer_alloc (buffer.c:72)
==58743==    by 0x108A9653: get_video_buffer (frame.c:119)
==58743==    by 0x108A9653: av_frame_get_buffer (frame.c:196)
==58743==    by 0x1009B9A7: ff_default_get_video_buffer (video.c:55)
==58743==    by 0x1009B9A7: ff_get_video_buffer (video.c:73)
==58743==    by 0x1009B9A7: ff_null_get_video_buffer (video.c:33)
==58743==    by 0x1009B933: ff_get_video_buffer (video.c:70)
==58743==    by 0x1009B933: ff_null_get_video_buffer (video.c:33)
==58743==    by 0x1009BB8B: ff_get_video_buffer (video.c:70)
==58743==    by 0x10095A1F: filter_frame (vf_scale.c:276)
==58743==    by 0x1007D4A3: ff_filter_frame (avfilter.c:698)
==58743==    by 0x1007D4A3: default_filter_frame (avfilter.c:638)
==58743==    by 0x1007FD23: ff_filter_frame (avfilter.c:698)
==58743==    by 0x10082513: request_frame (buffersrc.c:399)
==58743== 
frame=    5 fps=  0 q=30.0 Lsize=    2240kB time=0.16 bitrate=114688.0kbits/s    
video:2240kB audio:0kB other streams:0kB global headers:0kB muxing overhead: 0.000000%
==58743== 
==58743== HEAP SUMMARY:
==58743==     in use at exit: 0 bytes in 0 blocks
==58743==   total heap usage: 1,790 allocs, 1,790 frees, 22,020,343 bytes allocated
==58743== 
==58743== All heap blocks were freed -- no leaks are possible
==58743== 
==58743== For counts of detected and suppressed errors, rerun with: -v
==58743== ERROR SUMMARY: 465 errors from 6 contexts (suppressed: 0 from 0)
diffstderrvsynth2-dnxhd-720p1v12_dev0-1345-g0181ae9
--- /home/mik/src/fate/src/tests/ref/vsynth/vsynth2-dnxhd-720p	2014-11-30 15:37:05.674204650 +0000
+++ tests/data/fate/vsynth2-dnxhd-720p	2017-11-13 13:30:18.117717356 +0000
@@ -1,4 +0,0 @@
-71c7491a41545882b36f07ee98021b4b *tests/data/fate/vsynth2-dnxhd-720p.dnxhd
-2293760 tests/data/fate/vsynth2-dnxhd-720p.dnxhd
-adef978dc9c9e4f10dc7c30418af62af *tests/data/fate/vsynth2-dnxhd-720p.out.rawvideo
-stddev:    6.69 PSNR: 31.62 MAXDIFF:  171 bytes:  7603200/   760320
==16115== Memcheck, a memory error detector
==16115== Copyright (C) 2002-2015, and GNU GPL'd, by Julian Seward et al.
==16115== Using Valgrind-3.12.0.SVN and LibVEX; rerun with -h for copyright info
==16115== Command: /home/mik/src/fate/ppc64-linux-gcc-valgrind/build/avconv -nostats -cpuflags all -f rawvideo -s 352x288 -pix_fmt yuv420p -threads 1 -idct simple -flags +bitexact -sws_flags +accurate_rnd+bitexact -fflags +bitexact -hwaccel none -threads 1 -thread_type frame+slice -i /home/mik/src/fate/ppc64-linux-gcc-valgrind/build/tests/data/vsynth2.yuv -threads 1 -idct simple -dct fastint -c dnxhd -s hd720 -b 90M -pix_fmt yuv422p -frames 5 -flags +bitexact -sws_flags +accurate_rnd+bitexact -fflags +bitexact -f dnxhd -y /home/mik/src/fate/ppc64-linux-gcc-valgrind/build/tests/data/fate/vsynth2-dnxhd-720p.dnxhd
==16115== 
avconv version v13_dev0-1400-gb72ac6d, Copyright (c) 2000-2017 the Libav developers
  built on Nov 13 2017 13:06:29 with gcc 5.5.0 (GCC)
[rawvideo @ 0x46cae20] Estimating duration from bitrate, this may be inaccurate
Input #0, rawvideo, from '/home/mik/src/fate/ppc64-linux-gcc-valgrind/build/tests/data/vsynth2.yuv':
  Duration: N/A, start: 0.000000, bitrate: N/A
    Stream #0:0: Video: rawvideo
      yuv420p, 352x288
      25 fps, 25 tbn
Stream mapping:
  Stream #0:0 -> #0:0 (rawvideo (native) -> dnxhd (native))
Press ctrl-c to stop encoding
Output #0, dnxhd, to '/home/mik/src/fate/ppc64-linux-gcc-valgrind/build/tests/data/fate/vsynth2-dnxhd-720p.dnxhd':
    Stream #0:0: Video: dnxhd
      yuv422p, 1280x720, q=2-31, 90000 kb/s
      25 tbn
    Metadata:
      encoder         : dnxhd
==16115== Invalid read of size 16
==16115==    at 0x1048074C: get_pixels_vsx (pixblockdsp.c:139)
==16115==    by 0x1023BA8F: dnxhd_get_blocks (dnxhdenc.c:576)
==16115==    by 0x1023BA8F: dnxhd_calc_bits_thread (dnxhdenc.c:619)
==16115==    by 0x1023C9F3: dnxhd_find_qscale (dnxhdenc.c:866)
==16115==    by 0x1023C9F3: dnxhd_encode_fast (dnxhdenc.c:969)
==16115==    by 0x1023C9F3: dnxhd_encode_picture (dnxhdenc.c:1055)
==16115==    by 0x102625C3: avcodec_encode_video2 (encode.c:227)
==16115==    by 0x102627E3: do_encode (encode.c:274)
==16115==    by 0x10262A4F: avcodec_send_frame (encode.c:323)
==16115==    by 0x10077077: do_video_out (avconv.c:587)
==16115==    by 0x10077077: poll_filter (avconv.c:726)
==16115==    by 0x1007784F: poll_filters (avconv.c:800)
==16115==    by 0x1005EAEB: transcode (avconv.c:2771)
==16115==    by 0x1005EAEB: main (avconv.c:2940)
==16115==  Address 0x16e71078 is 921,592 bytes inside a block of size 921,600 alloc'd
==16115==    at 0x4088C90: memalign (vg_replace_malloc.c:857)
==16115==    by 0x4088DFF: posix_memalign (vg_replace_malloc.c:1020)
==16115==    by 0x108B24D7: av_malloc (mem.c:71)
==16115==    by 0x1089E747: av_buffer_alloc (buffer.c:72)
==16115==    by 0x108A9653: get_video_buffer (frame.c:119)
==16115==    by 0x108A9653: av_frame_get_buffer (frame.c:196)
==16115==    by 0x1009B9A7: ff_default_get_video_buffer (video.c:55)
==16115==    by 0x1009B9A7: ff_get_video_buffer (video.c:73)
==16115==    by 0x1009B9A7: ff_null_get_video_buffer (video.c:33)
==16115==    by 0x1009B933: ff_get_video_buffer (video.c:70)
==16115==    by 0x1009B933: ff_null_get_video_buffer (video.c:33)
==16115==    by 0x1009BB8B: ff_get_video_buffer (video.c:70)
==16115==    by 0x10095A1F: filter_frame (vf_scale.c:276)
==16115==    by 0x1007D4A3: ff_filter_frame (avfilter.c:698)
==16115==    by 0x1007D4A3: default_filter_frame (avfilter.c:638)
==16115==    by 0x1007FD23: ff_filter_frame (avfilter.c:698)
==16115==    by 0x10082513: request_frame (buffersrc.c:399)
==16115== 
==16115== Invalid read of size 16
==16115==    at 0x1048074C: get_pixels_vsx (pixblockdsp.c:139)
==16115==    by 0x1023BABF: dnxhd_get_blocks (dnxhdenc.c:578)
==16115==    by 0x1023BABF: dnxhd_calc_bits_thread (dnxhdenc.c:619)
==16115==    by 0x1023C9F3: dnxhd_find_qscale (dnxhdenc.c:866)
==16115==    by 0x1023C9F3: dnxhd_encode_fast (dnxhdenc.c:969)
==16115==    by 0x1023C9F3: dnxhd_encode_picture (dnxhdenc.c:1055)
==16115==    by 0x102625C3: avcodec_encode_video2 (encode.c:227)
==16115==    by 0x102627E3: do_encode (encode.c:274)
==16115==    by 0x10262A4F: avcodec_send_frame (encode.c:323)
==16115==    by 0x10077077: do_video_out (avconv.c:587)
==16115==    by 0x10077077: poll_filter (avconv.c:726)
==16115==    by 0x1007784F: poll_filters (avconv.c:800)
==16115==    by 0x1005EAEB: transcode (avconv.c:2771)
==16115==    by 0x1005EAEB: main (avconv.c:2940)
==16115==  Address 0x16ee1918 is 460,792 bytes inside a block of size 460,800 alloc'd
==16115==    at 0x4088C90: memalign (vg_replace_malloc.c:857)
==16115==    by 0x4088DFF: posix_memalign (vg_replace_malloc.c:1020)
==16115==    by 0x108B24D7: av_malloc (mem.c:71)
==16115==    by 0x1089E747: av_buffer_alloc (buffer.c:72)
==16115==    by 0x108A9653: get_video_buffer (frame.c:119)
==16115==    by 0x108A9653: av_frame_get_buffer (frame.c:196)
==16115==    by 0x1009B9A7: ff_default_get_video_buffer (video.c:55)
==16115==    by 0x1009B9A7: ff_get_video_buffer (video.c:73)
==16115==    by 0x1009B9A7: ff_null_get_video_buffer (video.c:33)
==16115==    by 0x1009B933: ff_get_video_buffer (video.c:70)
==16115==    by 0x1009B933: ff_null_get_video_buffer (video.c:33)
==16115==    by 0x1009BB8B: ff_get_video_buffer (video.c:70)
==16115==    by 0x10095A1F: filter_frame (vf_scale.c:276)
==16115==    by 0x1007D4A3: ff_filter_frame (avfilter.c:698)
==16115==    by 0x1007D4A3: default_filter_frame (avfilter.c:638)
==16115==    by 0x1007FD23: ff_filter_frame (avfilter.c:698)
==16115==    by 0x10082513: request_frame (buffersrc.c:399)
==16115== 
==16115== Invalid read of size 16
==16115==    at 0x1048074C: get_pixels_vsx (pixblockdsp.c:139)
==16115==    by 0x1023BAEF: dnxhd_get_blocks (dnxhdenc.c:580)
==16115==    by 0x1023BAEF: dnxhd_calc_bits_thread (dnxhdenc.c:619)
==16115==    by 0x1023C9F3: dnxhd_find_qscale (dnxhdenc.c:866)
==16115==    by 0x1023C9F3: dnxhd_encode_fast (dnxhdenc.c:969)
==16115==    by 0x1023C9F3: dnxhd_encode_picture (dnxhdenc.c:1055)
==16115==    by 0x102625C3: avcodec_encode_video2 (encode.c:227)
==16115==    by 0x102627E3: do_encode (encode.c:274)
==16115==    by 0x10262A4F: avcodec_send_frame (encode.c:323)
==16115==    by 0x10077077: do_video_out (avconv.c:587)
==16115==    by 0x10077077: poll_filter (avconv.c:726)
==16115==    by 0x1007784F: poll_filters (avconv.c:800)
==16115==    by 0x1005EAEB: transcode (avconv.c:2771)
==16115==    by 0x1005EAEB: main (avconv.c:2940)
==16115==  Address 0x16f521b8 is 460,792 bytes inside a block of size 460,800 alloc'd
==16115==    at 0x4088C90: memalign (vg_replace_malloc.c:857)
==16115==    by 0x4088DFF: posix_memalign (vg_replace_malloc.c:1020)
==16115==    by 0x108B24D7: av_malloc (mem.c:71)
==16115==    by 0x1089E747: av_buffer_alloc (buffer.c:72)
==16115==    by 0x108A9653: get_video_buffer (frame.c:119)
==16115==    by 0x108A9653: av_frame_get_buffer (frame.c:196)
==16115==    by 0x1009B9A7: ff_default_get_video_buffer (video.c:55)
==16115==    by 0x1009B9A7: ff_get_video_buffer (video.c:73)
==16115==    by 0x1009B9A7: ff_null_get_video_buffer (video.c:33)
==16115==    by 0x1009B933: ff_get_video_buffer (video.c:70)
==16115==    by 0x1009B933: ff_null_get_video_buffer (video.c:33)
==16115==    by 0x1009BB8B: ff_get_video_buffer (video.c:70)
==16115==    by 0x10095A1F: filter_frame (vf_scale.c:276)
==16115==    by 0x1007D4A3: ff_filter_frame (avfilter.c:698)
==16115==    by 0x1007D4A3: default_filter_frame (avfilter.c:638)
==16115==    by 0x1007FD23: ff_filter_frame (avfilter.c:698)
==16115==    by 0x10082513: request_frame (buffersrc.c:399)
==16115== 
==16115== Invalid read of size 16
==16115==    at 0x1048074C: get_pixels_vsx (pixblockdsp.c:139)
==16115==    by 0x1023B133: dnxhd_get_blocks (dnxhdenc.c:576)
==16115==    by 0x1023B133: dnxhd_encode_thread (dnxhdenc.c:674)
==16115==    by 0x1023D12F: dnxhd_encode_picture (dnxhdenc.c:1071)
==16115==    by 0x102625C3: avcodec_encode_video2 (encode.c:227)
==16115==    by 0x102627E3: do_encode (encode.c:274)
==16115==    by 0x10262A4F: avcodec_send_frame (encode.c:323)
==16115==    by 0x10077077: do_video_out (avconv.c:587)
==16115==    by 0x10077077: poll_filter (avconv.c:726)
==16115==    by 0x1007784F: poll_filters (avconv.c:800)
==16115==    by 0x1005EAEB: transcode (avconv.c:2771)
==16115==    by 0x1005EAEB: main (avconv.c:2940)
==16115==  Address 0x16e71078 is 921,592 bytes inside a block of size 921,600 alloc'd
==16115==    at 0x4088C90: memalign (vg_replace_malloc.c:857)
==16115==    by 0x4088DFF: posix_memalign (vg_replace_malloc.c:1020)
==16115==    by 0x108B24D7: av_malloc (mem.c:71)
==16115==    by 0x1089E747: av_buffer_alloc (buffer.c:72)
==16115==    by 0x108A9653: get_video_buffer (frame.c:119)
==16115==    by 0x108A9653: av_frame_get_buffer (frame.c:196)
==16115==    by 0x1009B9A7: ff_default_get_video_buffer (video.c:55)
==16115==    by 0x1009B9A7: ff_get_video_buffer (video.c:73)
==16115==    by 0x1009B9A7: ff_null_get_video_buffer (video.c:33)
==16115==    by 0x1009B933: ff_get_video_buffer (video.c:70)
==16115==    by 0x1009B933: ff_null_get_video_buffer (video.c:33)
==16115==    by 0x1009BB8B: ff_get_video_buffer (video.c:70)
==16115==    by 0x10095A1F: filter_frame (vf_scale.c:276)
==16115==    by 0x1007D4A3: ff_filter_frame (avfilter.c:698)
==16115==    by 0x1007D4A3: default_filter_frame (avfilter.c:638)
==16115==    by 0x1007FD23: ff_filter_frame (avfilter.c:698)
==16115==    by 0x10082513: request_frame (buffersrc.c:399)
==16115== 
==16115== Invalid read of size 16
==16115==    at 0x1048074C: get_pixels_vsx (pixblockdsp.c:139)
==16115==    by 0x1023B163: dnxhd_get_blocks (dnxhdenc.c:578)
==16115==    by 0x1023B163: dnxhd_encode_thread (dnxhdenc.c:674)
==16115==    by 0x1023D12F: dnxhd_encode_picture (dnxhdenc.c:1071)
==16115==    by 0x102625C3: avcodec_encode_video2 (encode.c:227)
==16115==    by 0x102627E3: do_encode (encode.c:274)
==16115==    by 0x10262A4F: avcodec_send_frame (encode.c:323)
==16115==    by 0x10077077: do_video_out (avconv.c:587)
==16115==    by 0x10077077: poll_filter (avconv.c:726)
==16115==    by 0x1007784F: poll_filters (avconv.c:800)
==16115==    by 0x1005EAEB: transcode (avconv.c:2771)
==16115==    by 0x1005EAEB: main (avconv.c:2940)
==16115==  Address 0x16ee1918 is 460,792 bytes inside a block of size 460,800 alloc'd
==16115==    at 0x4088C90: memalign (vg_replace_malloc.c:857)
==16115==    by 0x4088DFF: posix_memalign (vg_replace_malloc.c:1020)
==16115==    by 0x108B24D7: av_malloc (mem.c:71)
==16115==    by 0x1089E747: av_buffer_alloc (buffer.c:72)
==16115==    by 0x108A9653: get_video_buffer (frame.c:119)
==16115==    by 0x108A9653: av_frame_get_buffer (frame.c:196)
==16115==    by 0x1009B9A7: ff_default_get_video_buffer (video.c:55)
==16115==    by 0x1009B9A7: ff_get_video_buffer (video.c:73)
==16115==    by 0x1009B9A7: ff_null_get_video_buffer (video.c:33)
==16115==    by 0x1009B933: ff_get_video_buffer (video.c:70)
==16115==    by 0x1009B933: ff_null_get_video_buffer (video.c:33)
==16115==    by 0x1009BB8B: ff_get_video_buffer (video.c:70)
==16115==    by 0x10095A1F: filter_frame (vf_scale.c:276)
==16115==    by 0x1007D4A3: ff_filter_frame (avfilter.c:698)
==16115==    by 0x1007D4A3: default_filter_frame (avfilter.c:638)
==16115==    by 0x1007FD23: ff_filter_frame (avfilter.c:698)
==16115==    by 0x10082513: request_frame (buffersrc.c:399)
==16115== 
==16115== Invalid read of size 16
==16115==    at 0x1048074C: get_pixels_vsx (pixblockdsp.c:139)
==16115==    by 0x1023B193: dnxhd_get_blocks (dnxhdenc.c:580)
==16115==    by 0x1023B193: dnxhd_encode_thread (dnxhdenc.c:674)
==16115==    by 0x1023D12F: dnxhd_encode_picture (dnxhdenc.c:1071)
==16115==    by 0x102625C3: avcodec_encode_video2 (encode.c:227)
==16115==    by 0x102627E3: do_encode (encode.c:274)
==16115==    by 0x10262A4F: avcodec_send_frame (encode.c:323)
==16115==    by 0x10077077: do_video_out (avconv.c:587)
==16115==    by 0x10077077: poll_filter (avconv.c:726)
==16115==    by 0x1007784F: poll_filters (avconv.c:800)
==16115==    by 0x1005EAEB: transcode (avconv.c:2771)
==16115==    by 0x1005EAEB: main (avconv.c:2940)
==16115==  Address 0x16f521b8 is 460,792 bytes inside a block of size 460,800 alloc'd
==16115==    at 0x4088C90: memalign (vg_replace_malloc.c:857)
==16115==    by 0x4088DFF: posix_memalign (vg_replace_malloc.c:1020)
==16115==    by 0x108B24D7: av_malloc (mem.c:71)
==16115==    by 0x1089E747: av_buffer_alloc (buffer.c:72)
==16115==    by 0x108A9653: get_video_buffer (frame.c:119)
==16115==    by 0x108A9653: av_frame_get_buffer (frame.c:196)
==16115==    by 0x1009B9A7: ff_default_get_video_buffer (video.c:55)
==16115==    by 0x1009B9A7: ff_get_video_buffer (video.c:73)
==16115==    by 0x1009B9A7: ff_null_get_video_buffer (video.c:33)
==16115==    by 0x1009B933: ff_get_video_buffer (video.c:70)
==16115==    by 0x1009B933: ff_null_get_video_buffer (video.c:33)
==16115==    by 0x1009BB8B: ff_get_video_buffer (video.c:70)
==16115==    by 0x10095A1F: filter_frame (vf_scale.c:276)
==16115==    by 0x1007D4A3: ff_filter_frame (avfilter.c:698)
==16115==    by 0x1007D4A3: default_filter_frame (avfilter.c:638)
==16115==    by 0x1007FD23: ff_filter_frame (avfilter.c:698)
==16115==    by 0x10082513: request_frame (buffersrc.c:399)
==16115== 
frame=    5 fps=  1 q=1.0 Lsize=    2240kB time=0.16 bitrate=114688.0kbits/s    
video:2240kB audio:0kB other streams:0kB global headers:0kB muxing overhead: 0.000000%
==16115== 
==16115== HEAP SUMMARY:
==16115==     in use at exit: 0 bytes in 0 blocks
==16115==   total heap usage: 1,765 allocs, 1,765 frees, 22,012,167 bytes allocated
==16115== 
==16115== All heap blocks were freed -- no leaks are possible
==16115== 
==16115== For counts of detected and suppressed errors, rerun with: -v
==16115== ERROR SUMMARY: 30 errors from 6 contexts (suppressed: 0 from 0)
diffstderrvsynth2-dnxhd-720p-rd1v12_dev0-1345-g0181ae9
--- /home/mik/src/fate/src/tests/ref/vsynth/vsynth2-dnxhd-720p-rd	2014-11-30 15:37:05.674204650 +0000
+++ tests/data/fate/vsynth2-dnxhd-720p-rd	2017-11-13 13:30:19.547720502 +0000
@@ -1,4 +0,0 @@
-819a7714098e098981bf08253ef2e490 *tests/data/fate/vsynth2-dnxhd-720p-rd.dnxhd
-2293760 tests/data/fate/vsynth2-dnxhd-720p-rd.dnxhd
-a05c35b99e5e74a9c8b3a9c66da01775 *tests/data/fate/vsynth2-dnxhd-720p-rd.out.rawvideo
-stddev:    1.53 PSNR: 44.39 MAXDIFF:   31 bytes:  7603200/   760320
==16345== Memcheck, a memory error detector
==16345== Copyright (C) 2002-2015, and GNU GPL'd, by Julian Seward et al.
==16345== Using Valgrind-3.12.0.SVN and LibVEX; rerun with -h for copyright info
==16345== Command: /home/mik/src/fate/ppc64-linux-gcc-valgrind/build/avconv -nostats -cpuflags all -f rawvideo -s 352x288 -pix_fmt yuv420p -threads 1 -idct simple -flags +bitexact -sws_flags +accurate_rnd+bitexact -fflags +bitexact -hwaccel none -threads 1 -thread_type frame+slice -i /home/mik/src/fate/ppc64-linux-gcc-valgrind/build/tests/data/vsynth2.yuv -threads 1 -idct simple -dct fastint -c dnxhd -s hd720 -b 90M -threads 4 -mbd rd -pix_fmt yuv422p -frames 5 -flags +bitexact -sws_flags +accurate_rnd+bitexact -fflags +bitexact -f dnxhd -y /home/mik/src/fate/ppc64-linux-gcc-valgrind/build/tests/data/fate/vsynth2-dnxhd-720p-rd.dnxhd
==16345== 
avconv version v13_dev0-1400-gb72ac6d, Copyright (c) 2000-2017 the Libav developers
  built on Nov 13 2017 13:06:29 with gcc 5.5.0 (GCC)
[rawvideo @ 0x46caec0] Estimating duration from bitrate, this may be inaccurate
Input #0, rawvideo, from '/home/mik/src/fate/ppc64-linux-gcc-valgrind/build/tests/data/vsynth2.yuv':
  Duration: N/A, start: 0.000000, bitrate: N/A
    Stream #0:0: Video: rawvideo
      yuv420p, 352x288
      25 fps, 25 tbn
Stream mapping:
  Stream #0:0 -> #0:0 (rawvideo (native) -> dnxhd (native))
Press ctrl-c to stop encoding
Output #0, dnxhd, to '/home/mik/src/fate/ppc64-linux-gcc-valgrind/build/tests/data/fate/vsynth2-dnxhd-720p-rd.dnxhd':
    Stream #0:0: Video: dnxhd
      yuv422p, 1280x720, q=2-31, 90000 kb/s
      25 tbn
    Metadata:
      encoder         : dnxhd
==16345== Thread 67:
==16345== Invalid read of size 16
==16345==    at 0x1048074C: get_pixels_vsx (pixblockdsp.c:139)
==16345==    by 0x1023BA8F: dnxhd_get_blocks (dnxhdenc.c:576)
==16345==    by 0x1023BA8F: dnxhd_calc_bits_thread (dnxhdenc.c:619)
==16345==    by 0x43DC95B: start_thread (in /usr/lib64/libpthread-2.17.so)
==16345==    by 0x4563BBB: clone (in /usr/lib64/libc-2.17.so)
==16345==  Address 0x17e71078 is 921,592 bytes inside a block of size 921,600 alloc'd
==16345==    at 0x4088C90: memalign (vg_replace_malloc.c:857)
==16345==    by 0x4088DFF: posix_memalign (vg_replace_malloc.c:1020)
==16345==    by 0x108B24D7: av_malloc (mem.c:71)
==16345==    by 0x1089E747: av_buffer_alloc (buffer.c:72)
==16345==    by 0x108A9653: get_video_buffer (frame.c:119)
==16345==    by 0x108A9653: av_frame_get_buffer (frame.c:196)
==16345==    by 0x1009B9A7: ff_default_get_video_buffer (video.c:55)
==16345==    by 0x1009B9A7: ff_get_video_buffer (video.c:73)
==16345==    by 0x1009B9A7: ff_null_get_video_buffer (video.c:33)
==16345==    by 0x1009B933: ff_get_video_buffer (video.c:70)
==16345==    by 0x1009B933: ff_null_get_video_buffer (video.c:33)
==16345==    by 0x1009BB8B: ff_get_video_buffer (video.c:70)
==16345==    by 0x10095A1F: filter_frame (vf_scale.c:276)
==16345==    by 0x1007D4A3: ff_filter_frame (avfilter.c:698)
==16345==    by 0x1007D4A3: default_filter_frame (avfilter.c:638)
==16345==    by 0x1007FD23: ff_filter_frame (avfilter.c:698)
==16345==    by 0x10082513: request_frame (buffersrc.c:399)
==16345== 
==16345== Invalid read of size 16
==16345==    at 0x1048074C: get_pixels_vsx (pixblockdsp.c:139)
==16345==    by 0x1023BABF: dnxhd_get_blocks (dnxhdenc.c:578)
==16345==    by 0x1023BABF: dnxhd_calc_bits_thread (dnxhdenc.c:619)
==16345==    by 0x43DC95B: start_thread (in /usr/lib64/libpthread-2.17.so)
==16345==    by 0x4563BBB: clone (in /usr/lib64/libc-2.17.so)
==16345==  Address 0x17ee1918 is 460,792 bytes inside a block of size 460,800 alloc'd
==16345==    at 0x4088C90: memalign (vg_replace_malloc.c:857)
==16345==    by 0x4088DFF: posix_memalign (vg_replace_malloc.c:1020)
==16345==    by 0x108B24D7: av_malloc (mem.c:71)
==16345==    by 0x1089E747: av_buffer_alloc (buffer.c:72)
==16345==    by 0x108A9653: get_video_buffer (frame.c:119)
==16345==    by 0x108A9653: av_frame_get_buffer (frame.c:196)
==16345==    by 0x1009B9A7: ff_default_get_video_buffer (video.c:55)
==16345==    by 0x1009B9A7: ff_get_video_buffer (video.c:73)
==16345==    by 0x1009B9A7: ff_null_get_video_buffer (video.c:33)
==16345==    by 0x1009B933: ff_get_video_buffer (video.c:70)
==16345==    by 0x1009B933: ff_null_get_video_buffer (video.c:33)
==16345==    by 0x1009BB8B: ff_get_video_buffer (video.c:70)
==16345==    by 0x10095A1F: filter_frame (vf_scale.c:276)
==16345==    by 0x1007D4A3: ff_filter_frame (avfilter.c:698)
==16345==    by 0x1007D4A3: default_filter_frame (avfilter.c:638)
==16345==    by 0x1007FD23: ff_filter_frame (avfilter.c:698)
==16345==    by 0x10082513: request_frame (buffersrc.c:399)
==16345== 
==16345== Invalid read of size 16
==16345==    at 0x1048074C: get_pixels_vsx (pixblockdsp.c:139)
==16345==    by 0x1023BAEF: dnxhd_get_blocks (dnxhdenc.c:580)
==16345==    by 0x1023BAEF: dnxhd_calc_bits_thread (dnxhdenc.c:619)
==16345==    by 0x43DC95B: start_thread (in /usr/lib64/libpthread-2.17.so)
==16345==    by 0x4563BBB: clone (in /usr/lib64/libc-2.17.so)
==16345==  Address 0x17f521b8 is 460,792 bytes inside a block of size 460,800 alloc'd
==16345==    at 0x4088C90: memalign (vg_replace_malloc.c:857)
==16345==    by 0x4088DFF: posix_memalign (vg_replace_malloc.c:1020)
==16345==    by 0x108B24D7: av_malloc (mem.c:71)
==16345==    by 0x1089E747: av_buffer_alloc (buffer.c:72)
==16345==    by 0x108A9653: get_video_buffer (frame.c:119)
==16345==    by 0x108A9653: av_frame_get_buffer (frame.c:196)
==16345==    by 0x1009B9A7: ff_default_get_video_buffer (video.c:55)
==16345==    by 0x1009B9A7: ff_get_video_buffer (video.c:73)
==16345==    by 0x1009B9A7: ff_null_get_video_buffer (video.c:33)
==16345==    by 0x1009B933: ff_get_video_buffer (video.c:70)
==16345==    by 0x1009B933: ff_null_get_video_buffer (video.c:33)
==16345==    by 0x1009BB8B: ff_get_video_buffer (video.c:70)
==16345==    by 0x10095A1F: filter_frame (vf_scale.c:276)
==16345==    by 0x1007D4A3: ff_filter_frame (avfilter.c:698)
==16345==    by 0x1007D4A3: default_filter_frame (avfilter.c:638)
==16345==    by 0x1007FD23: ff_filter_frame (avfilter.c:698)
==16345==    by 0x10082513: request_frame (buffersrc.c:399)
==16345== 
==16345== Thread 70:
==16345== Invalid read of size 16
==16345==    at 0x1048074C: get_pixels_vsx (pixblockdsp.c:139)
==16345==    by 0x1023B133: dnxhd_get_blocks (dnxhdenc.c:576)
==16345==    by 0x1023B133: dnxhd_encode_thread (dnxhdenc.c:674)
==16345==    by 0x43DC95B: start_thread (in /usr/lib64/libpthread-2.17.so)
==16345==    by 0x4563BBB: clone (in /usr/lib64/libc-2.17.so)
==16345==  Address 0x17e71078 is 921,592 bytes inside a block of size 921,600 alloc'd
==16345==    at 0x4088C90: memalign (vg_replace_malloc.c:857)
==16345==    by 0x4088DFF: posix_memalign (vg_replace_malloc.c:1020)
==16345==    by 0x108B24D7: av_malloc (mem.c:71)
==16345==    by 0x1089E747: av_buffer_alloc (buffer.c:72)
==16345==    by 0x108A9653: get_video_buffer (frame.c:119)
==16345==    by 0x108A9653: av_frame_get_buffer (frame.c:196)
==16345==    by 0x1009B9A7: ff_default_get_video_buffer (video.c:55)
==16345==    by 0x1009B9A7: ff_get_video_buffer (video.c:73)
==16345==    by 0x1009B9A7: ff_null_get_video_buffer (video.c:33)
==16345==    by 0x1009B933: ff_get_video_buffer (video.c:70)
==16345==    by 0x1009B933: ff_null_get_video_buffer (video.c:33)
==16345==    by 0x1009BB8B: ff_get_video_buffer (video.c:70)
==16345==    by 0x10095A1F: filter_frame (vf_scale.c:276)
==16345==    by 0x1007D4A3: ff_filter_frame (avfilter.c:698)
==16345==    by 0x1007D4A3: default_filter_frame (avfilter.c:638)
==16345==    by 0x1007FD23: ff_filter_frame (avfilter.c:698)
==16345==    by 0x10082513: request_frame (buffersrc.c:399)
==16345== 
==16345== Invalid read of size 16
==16345==    at 0x1048074C: get_pixels_vsx (pixblockdsp.c:139)
==16345==    by 0x1023B163: dnxhd_get_blocks (dnxhdenc.c:578)
==16345==    by 0x1023B163: dnxhd_encode_thread (dnxhdenc.c:674)
==16345==    by 0x43DC95B: start_thread (in /usr/lib64/libpthread-2.17.so)
==16345==    by 0x4563BBB: clone (in /usr/lib64/libc-2.17.so)
==16345==  Address 0x17ee1918 is 460,792 bytes inside a block of size 460,800 alloc'd
==16345==    at 0x4088C90: memalign (vg_replace_malloc.c:857)
==16345==    by 0x4088DFF: posix_memalign (vg_replace_malloc.c:1020)
==16345==    by 0x108B24D7: av_malloc (mem.c:71)
==16345==    by 0x1089E747: av_buffer_alloc (buffer.c:72)
==16345==    by 0x108A9653: get_video_buffer (frame.c:119)
==16345==    by 0x108A9653: av_frame_get_buffer (frame.c:196)
==16345==    by 0x1009B9A7: ff_default_get_video_buffer (video.c:55)
==16345==    by 0x1009B9A7: ff_get_video_buffer (video.c:73)
==16345==    by 0x1009B9A7: ff_null_get_video_buffer (video.c:33)
==16345==    by 0x1009B933: ff_get_video_buffer (video.c:70)
==16345==    by 0x1009B933: ff_null_get_video_buffer (video.c:33)
==16345==    by 0x1009BB8B: ff_get_video_buffer (video.c:70)
==16345==    by 0x10095A1F: filter_frame (vf_scale.c:276)
==16345==    by 0x1007D4A3: ff_filter_frame (avfilter.c:698)
==16345==    by 0x1007D4A3: default_filter_frame (avfilter.c:638)
==16345==    by 0x1007FD23: ff_filter_frame (avfilter.c:698)
==16345==    by 0x10082513: request_frame (buffersrc.c:399)
==16345== 
==16345== Invalid read of size 16
==16345==    at 0x1048074C: get_pixels_vsx (pixblockdsp.c:139)
==16345==    by 0x1023B193: dnxhd_get_blocks (dnxhdenc.c:580)
==16345==    by 0x1023B193: dnxhd_encode_thread (dnxhdenc.c:674)
==16345==    by 0x43DC95B: start_thread (in /usr/lib64/libpthread-2.17.so)
==16345==    by 0x4563BBB: clone (in /usr/lib64/libc-2.17.so)
==16345==  Address 0x17f521b8 is 460,792 bytes inside a block of size 460,800 alloc'd
==16345==    at 0x4088C90: memalign (vg_replace_malloc.c:857)
==16345==    by 0x4088DFF: posix_memalign (vg_replace_malloc.c:1020)
==16345==    by 0x108B24D7: av_malloc (mem.c:71)
==16345==    by 0x1089E747: av_buffer_alloc (buffer.c:72)
==16345==    by 0x108A9653: get_video_buffer (frame.c:119)
==16345==    by 0x108A9653: av_frame_get_buffer (frame.c:196)
==16345==    by 0x1009B9A7: ff_default_get_video_buffer (video.c:55)
==16345==    by 0x1009B9A7: ff_get_video_buffer (video.c:73)
==16345==    by 0x1009B9A7: ff_null_get_video_buffer (video.c:33)
==16345==    by 0x1009B933: ff_get_video_buffer (video.c:70)
==16345==    by 0x1009B933: ff_null_get_video_buffer (video.c:33)
==16345==    by 0x1009BB8B: ff_get_video_buffer (video.c:70)
==16345==    by 0x10095A1F: filter_frame (vf_scale.c:276)
==16345==    by 0x1007D4A3: ff_filter_frame (avfilter.c:698)
==16345==    by 0x1007D4A3: default_filter_frame (avfilter.c:638)
==16345==    by 0x1007FD23: ff_filter_frame (avfilter.c:698)
==16345==    by 0x10082513: request_frame (buffersrc.c:399)
==16345== 
frame=    5 fps=  0 q=30.0 Lsize=    2240kB time=0.16 bitrate=114688.0kbits/s    
video:2240kB audio:0kB other streams:0kB global headers:0kB muxing overhead: 0.000000%
==16345== 
==16345== HEAP SUMMARY:
==16345==     in use at exit: 0 bytes in 0 blocks
==16345==   total heap usage: 1,790 allocs, 1,790 frees, 22,020,343 bytes allocated
==16345== 
==16345== All heap blocks were freed -- no leaks are possible
==16345== 
==16345== For counts of detected and suppressed errors, rerun with: -v
==16345== ERROR SUMMARY: 465 errors from 6 contexts (suppressed: 0 from 0)