ppc64-linux-gcc-valgrind v13_dev0-1331-g010baac

Architectureppc
Variantppc64
CPUgeneric
OSlinux
Ownerkostylev
Compilergcc 5.5.0 (GCC)
Configuration--prefix=/home/mik/src/fate/ppc64-linux-gcc-valgrind/install --samples=/home/mik/src/fate/fate-suite --enable-gpl --cc=gcc-5 --target-exec='valgrind --leak-check=full --show-reachable=yes --error-exitcode=1 --malloc-fill=0x4a --undef-value-errors=no'
Commentvalgrind --undef-value-errors=no
Revisionv13_dev0-1331-g010baac
Date2017-10-12 01:27:12
Status2141 / 2146
Warnings69
Logscompile configure test
5 failed testsStatusLast good rev
diffstderrsvq3-21n / a
--- /home/mik/src/fate/src/tests/ref/fate/svq3-2	2017-02-27 10:07:05.303380676 +0000
+++ tests/data/fate/svq3-2	2017-10-12 01:13:50.071382786 +0000
@@ -1,5 +1,5 @@
 #tb 0: 1/19200
-0,     -20000,     -20000,        0,   185280, 0x061c0d85
+0,     -20000,     -20000,        0,   185280, 0xc0bd953f
 0,     -19200,     -19200,        0,   185280, 0x427ef9a7
 0,     -18400,     -18400,        0,   185280, 0x64c74d6a
 0,     -17600,     -17600,        0,   185280, 0x5bfd0e5b
==25855== Memcheck, a memory error detector
==25855== Copyright (C) 2002-2015, and GNU GPL'd, by Julian Seward et al.
==25855== Using Valgrind-3.12.0.SVN and LibVEX; rerun with -h for copyright info
==25855== Command: /home/mik/src/fate/ppc64-linux-gcc-valgrind/build/avconv -nostats -cpuflags all -flags +bitexact -hwaccel none -threads 1 -thread_type frame+slice -i /home/mik/src/fate/fate-suite/svq3/svq3_decoding_regression.mov -an -f framecrc -
==25855== 
avconv version v13_dev0-1331-g010baac, Copyright (c) 2000-2017 the Libav developers
  built on Oct 12 2017 00:55:58 with gcc 5.5.0 (GCC)
Input #0, mov,mp4,m4a,3gp,3g2,mj2, from '/home/mik/src/fate/fate-suite/svq3/svq3_decoding_regression.mov':
  Metadata:
    major_brand     : qt  
    minor_version   : 512
    compatible_brands: qt  
    artist          : Mark Strube - SupaDupaStrube@msn.com
    artist-eng      : Mark Strube - SupaDupaStrube@msn.com
    title           : Movie-List Presents: The Abyss
    title-eng       : Movie-List Presents: The Abyss
    encoder         : Lavf57.66.101
    copyright       : © 1989 Twentieth Century Fox
    copyright-eng   : © 1989 Twentieth Century Fox
  Duration: 00:00:00.83, bitrate: 2376 kb/s
    Stream #0:0(eng): Video: svq3 [SVQ3 / 0x33515653]
      yuvj420p, pc, 480x257, 2366 kb/s
      24 fps, 19200 tbn (default)
    Metadata:
      handler_name    : DataHandler
      encoder         : Sorenson Video 3
Stream mapping:
  Stream #0:0 -> #0:0 (svq3 (native) -> rawvideo (native))
Press ctrl-c to stop encoding
[svq3 @ 0x4727660] Missing reference frame.
Output #0, framecrc, to 'pipe:':
  Metadata:
    major_brand     : qt  
    minor_version   : 512
    compatible_brands: qt  
    artist          : Mark Strube - SupaDupaStrube@msn.com
    artist-eng      : Mark Strube - SupaDupaStrube@msn.com
    title           : Movie-List Presents: The Abyss
    title-eng       : Movie-List Presents: The Abyss
    copyright-eng   : © 1989 Twentieth Century Fox
    copyright       : © 1989 Twentieth Century Fox
    encoder         : Lavf58.1.0
    Stream #0:0(eng): Video: rawvideo [I420 / 0x30323449]
      yuvj420p, 480x257, q=2-31, 200 kb/s
      19200 tbn (default)
    Metadata:
      handler_name    : DataHandler
      encoder         : Sorenson Video 3
*** dropping frame 19 from stream 0 at ts -6400
frame=   19 fps=  0 q=-0.0 Lsize=       1kB time=10000000000.00 bitrate=   0.0kbits/s drop=1    
video:3438kB audio:0kB other streams:0kB global headers:0kB muxing overhead: unknown
==25855== 
==25855== HEAP SUMMARY:
==25855==     in use at exit: 0 bytes in 0 blocks
==25855==   total heap usage: 1,668 allocs, 1,668 frees, 8,678,202 bytes allocated
==25855== 
==25855== All heap blocks were freed -- no leaks are possible
==25855== 
==25855== For counts of detected and suppressed errors, rerun with: -v
==25855== ERROR SUMMARY: 0 errors from 0 contexts (suppressed: 0 from 0)
diffstderrvsynth1-dnxhd-720p1v12_dev0-1345-g0181ae9
--- /home/mik/src/fate/src/tests/ref/vsynth/vsynth1-dnxhd-720p	2014-01-10 11:16:55.734697630 +0000
+++ tests/data/fate/vsynth1-dnxhd-720p	2017-10-12 01:20:56.142234926 +0000
@@ -1,4 +0,0 @@
-81f5be451dc18cf8a1d333c7885de60b *tests/data/fate/vsynth1-dnxhd-720p.dnxhd
-2293760 tests/data/fate/vsynth1-dnxhd-720p.dnxhd
-94b21e5e68ccf9471eff74afd0ebe319 *tests/data/fate/vsynth1-dnxhd-720p.out.rawvideo
-stddev:    6.32 PSNR: 32.11 MAXDIFF:  183 bytes:  7603200/   760320
==50476== Memcheck, a memory error detector
==50476== Copyright (C) 2002-2015, and GNU GPL'd, by Julian Seward et al.
==50476== Using Valgrind-3.12.0.SVN and LibVEX; rerun with -h for copyright info
==50476== Command: /home/mik/src/fate/ppc64-linux-gcc-valgrind/build/avconv -nostats -cpuflags all -f rawvideo -s 352x288 -pix_fmt yuv420p -threads 1 -idct simple -flags +bitexact -sws_flags +accurate_rnd+bitexact -fflags +bitexact -hwaccel none -threads 1 -thread_type frame+slice -i /home/mik/src/fate/ppc64-linux-gcc-valgrind/build/tests/data/vsynth1.yuv -threads 1 -idct simple -dct fastint -c dnxhd -s hd720 -b 90M -pix_fmt yuv422p -frames 5 -flags +bitexact -sws_flags +accurate_rnd+bitexact -fflags +bitexact -f dnxhd -y /home/mik/src/fate/ppc64-linux-gcc-valgrind/build/tests/data/fate/vsynth1-dnxhd-720p.dnxhd
==50476== 
avconv version v13_dev0-1331-g010baac, Copyright (c) 2000-2017 the Libav developers
  built on Oct 12 2017 00:55:58 with gcc 5.5.0 (GCC)
[rawvideo @ 0x46cae20] Estimating duration from bitrate, this may be inaccurate
Input #0, rawvideo, from '/home/mik/src/fate/ppc64-linux-gcc-valgrind/build/tests/data/vsynth1.yuv':
  Duration: N/A, start: 0.000000, bitrate: N/A
    Stream #0:0: Video: rawvideo
      yuv420p, 352x288
      25 fps, 25 tbn
Stream mapping:
  Stream #0:0 -> #0:0 (rawvideo (native) -> dnxhd (native))
Press ctrl-c to stop encoding
Output #0, dnxhd, to '/home/mik/src/fate/ppc64-linux-gcc-valgrind/build/tests/data/fate/vsynth1-dnxhd-720p.dnxhd':
    Stream #0:0: Video: dnxhd
      yuv422p, 1280x720, q=2-31, 90000 kb/s
      25 tbn
    Metadata:
      encoder         : dnxhd
==50476== Invalid read of size 16
==50476==    at 0x104813EC: get_pixels_vsx (pixblockdsp.c:139)
==50476==    by 0x1023C74F: dnxhd_get_blocks (dnxhdenc.c:576)
==50476==    by 0x1023C74F: dnxhd_calc_bits_thread (dnxhdenc.c:619)
==50476==    by 0x1023D6B3: dnxhd_find_qscale (dnxhdenc.c:866)
==50476==    by 0x1023D6B3: dnxhd_encode_fast (dnxhdenc.c:969)
==50476==    by 0x1023D6B3: dnxhd_encode_picture (dnxhdenc.c:1055)
==50476==    by 0x10263283: avcodec_encode_video2 (encode.c:227)
==50476==    by 0x102634A3: do_encode (encode.c:274)
==50476==    by 0x1026370F: avcodec_send_frame (encode.c:323)
==50476==    by 0x10077377: do_video_out (avconv.c:587)
==50476==    by 0x10077377: poll_filter (avconv.c:726)
==50476==    by 0x10077B4F: poll_filters (avconv.c:800)
==50476==    by 0x1005EECB: transcode (avconv.c:2771)
==50476==    by 0x1005EECB: main (avconv.c:2940)
==50476==  Address 0x16e71078 is 921,592 bytes inside a block of size 921,600 alloc'd
==50476==    at 0x4088C90: memalign (vg_replace_malloc.c:857)
==50476==    by 0x4088DFF: posix_memalign (vg_replace_malloc.c:1020)
==50476==    by 0x108B2F37: av_malloc (mem.c:71)
==50476==    by 0x1089F1A7: av_buffer_alloc (buffer.c:72)
==50476==    by 0x108AA0B3: get_video_buffer (frame.c:119)
==50476==    by 0x108AA0B3: av_frame_get_buffer (frame.c:196)
==50476==    by 0x1009CAA7: ff_default_get_video_buffer (video.c:55)
==50476==    by 0x1009CAA7: ff_get_video_buffer (video.c:73)
==50476==    by 0x1009CAA7: ff_null_get_video_buffer (video.c:33)
==50476==    by 0x1009CA33: ff_get_video_buffer (video.c:70)
==50476==    by 0x1009CA33: ff_null_get_video_buffer (video.c:33)
==50476==    by 0x1009CC8B: ff_get_video_buffer (video.c:70)
==50476==    by 0x10096B1F: filter_frame (vf_scale.c:276)
==50476==    by 0x1007E5A3: ff_filter_frame (avfilter.c:698)
==50476==    by 0x1007E5A3: default_filter_frame (avfilter.c:638)
==50476==    by 0x10080E23: ff_filter_frame (avfilter.c:698)
==50476==    by 0x10083613: request_frame (buffersrc.c:399)
==50476== 
==50476== Invalid read of size 16
==50476==    at 0x104813EC: get_pixels_vsx (pixblockdsp.c:139)
==50476==    by 0x1023C77F: dnxhd_get_blocks (dnxhdenc.c:578)
==50476==    by 0x1023C77F: dnxhd_calc_bits_thread (dnxhdenc.c:619)
==50476==    by 0x1023D6B3: dnxhd_find_qscale (dnxhdenc.c:866)
==50476==    by 0x1023D6B3: dnxhd_encode_fast (dnxhdenc.c:969)
==50476==    by 0x1023D6B3: dnxhd_encode_picture (dnxhdenc.c:1055)
==50476==    by 0x10263283: avcodec_encode_video2 (encode.c:227)
==50476==    by 0x102634A3: do_encode (encode.c:274)
==50476==    by 0x1026370F: avcodec_send_frame (encode.c:323)
==50476==    by 0x10077377: do_video_out (avconv.c:587)
==50476==    by 0x10077377: poll_filter (avconv.c:726)
==50476==    by 0x10077B4F: poll_filters (avconv.c:800)
==50476==    by 0x1005EECB: transcode (avconv.c:2771)
==50476==    by 0x1005EECB: main (avconv.c:2940)
==50476==  Address 0x16ee1918 is 460,792 bytes inside a block of size 460,800 alloc'd
==50476==    at 0x4088C90: memalign (vg_replace_malloc.c:857)
==50476==    by 0x4088DFF: posix_memalign (vg_replace_malloc.c:1020)
==50476==    by 0x108B2F37: av_malloc (mem.c:71)
==50476==    by 0x1089F1A7: av_buffer_alloc (buffer.c:72)
==50476==    by 0x108AA0B3: get_video_buffer (frame.c:119)
==50476==    by 0x108AA0B3: av_frame_get_buffer (frame.c:196)
==50476==    by 0x1009CAA7: ff_default_get_video_buffer (video.c:55)
==50476==    by 0x1009CAA7: ff_get_video_buffer (video.c:73)
==50476==    by 0x1009CAA7: ff_null_get_video_buffer (video.c:33)
==50476==    by 0x1009CA33: ff_get_video_buffer (video.c:70)
==50476==    by 0x1009CA33: ff_null_get_video_buffer (video.c:33)
==50476==    by 0x1009CC8B: ff_get_video_buffer (video.c:70)
==50476==    by 0x10096B1F: filter_frame (vf_scale.c:276)
==50476==    by 0x1007E5A3: ff_filter_frame (avfilter.c:698)
==50476==    by 0x1007E5A3: default_filter_frame (avfilter.c:638)
==50476==    by 0x10080E23: ff_filter_frame (avfilter.c:698)
==50476==    by 0x10083613: request_frame (buffersrc.c:399)
==50476== 
==50476== Invalid read of size 16
==50476==    at 0x104813EC: get_pixels_vsx (pixblockdsp.c:139)
==50476==    by 0x1023C7AF: dnxhd_get_blocks (dnxhdenc.c:580)
==50476==    by 0x1023C7AF: dnxhd_calc_bits_thread (dnxhdenc.c:619)
==50476==    by 0x1023D6B3: dnxhd_find_qscale (dnxhdenc.c:866)
==50476==    by 0x1023D6B3: dnxhd_encode_fast (dnxhdenc.c:969)
==50476==    by 0x1023D6B3: dnxhd_encode_picture (dnxhdenc.c:1055)
==50476==    by 0x10263283: avcodec_encode_video2 (encode.c:227)
==50476==    by 0x102634A3: do_encode (encode.c:274)
==50476==    by 0x1026370F: avcodec_send_frame (encode.c:323)
==50476==    by 0x10077377: do_video_out (avconv.c:587)
==50476==    by 0x10077377: poll_filter (avconv.c:726)
==50476==    by 0x10077B4F: poll_filters (avconv.c:800)
==50476==    by 0x1005EECB: transcode (avconv.c:2771)
==50476==    by 0x1005EECB: main (avconv.c:2940)
==50476==  Address 0x16f521b8 is 460,792 bytes inside a block of size 460,800 alloc'd
==50476==    at 0x4088C90: memalign (vg_replace_malloc.c:857)
==50476==    by 0x4088DFF: posix_memalign (vg_replace_malloc.c:1020)
==50476==    by 0x108B2F37: av_malloc (mem.c:71)
==50476==    by 0x1089F1A7: av_buffer_alloc (buffer.c:72)
==50476==    by 0x108AA0B3: get_video_buffer (frame.c:119)
==50476==    by 0x108AA0B3: av_frame_get_buffer (frame.c:196)
==50476==    by 0x1009CAA7: ff_default_get_video_buffer (video.c:55)
==50476==    by 0x1009CAA7: ff_get_video_buffer (video.c:73)
==50476==    by 0x1009CAA7: ff_null_get_video_buffer (video.c:33)
==50476==    by 0x1009CA33: ff_get_video_buffer (video.c:70)
==50476==    by 0x1009CA33: ff_null_get_video_buffer (video.c:33)
==50476==    by 0x1009CC8B: ff_get_video_buffer (video.c:70)
==50476==    by 0x10096B1F: filter_frame (vf_scale.c:276)
==50476==    by 0x1007E5A3: ff_filter_frame (avfilter.c:698)
==50476==    by 0x1007E5A3: default_filter_frame (avfilter.c:638)
==50476==    by 0x10080E23: ff_filter_frame (avfilter.c:698)
==50476==    by 0x10083613: request_frame (buffersrc.c:399)
==50476== 
==50476== Invalid read of size 16
==50476==    at 0x104813EC: get_pixels_vsx (pixblockdsp.c:139)
==50476==    by 0x1023BDF3: dnxhd_get_blocks (dnxhdenc.c:576)
==50476==    by 0x1023BDF3: dnxhd_encode_thread (dnxhdenc.c:674)
==50476==    by 0x1023DDEF: dnxhd_encode_picture (dnxhdenc.c:1071)
==50476==    by 0x10263283: avcodec_encode_video2 (encode.c:227)
==50476==    by 0x102634A3: do_encode (encode.c:274)
==50476==    by 0x1026370F: avcodec_send_frame (encode.c:323)
==50476==    by 0x10077377: do_video_out (avconv.c:587)
==50476==    by 0x10077377: poll_filter (avconv.c:726)
==50476==    by 0x10077B4F: poll_filters (avconv.c:800)
==50476==    by 0x1005EECB: transcode (avconv.c:2771)
==50476==    by 0x1005EECB: main (avconv.c:2940)
==50476==  Address 0x16e71078 is 921,592 bytes inside a block of size 921,600 alloc'd
==50476==    at 0x4088C90: memalign (vg_replace_malloc.c:857)
==50476==    by 0x4088DFF: posix_memalign (vg_replace_malloc.c:1020)
==50476==    by 0x108B2F37: av_malloc (mem.c:71)
==50476==    by 0x1089F1A7: av_buffer_alloc (buffer.c:72)
==50476==    by 0x108AA0B3: get_video_buffer (frame.c:119)
==50476==    by 0x108AA0B3: av_frame_get_buffer (frame.c:196)
==50476==    by 0x1009CAA7: ff_default_get_video_buffer (video.c:55)
==50476==    by 0x1009CAA7: ff_get_video_buffer (video.c:73)
==50476==    by 0x1009CAA7: ff_null_get_video_buffer (video.c:33)
==50476==    by 0x1009CA33: ff_get_video_buffer (video.c:70)
==50476==    by 0x1009CA33: ff_null_get_video_buffer (video.c:33)
==50476==    by 0x1009CC8B: ff_get_video_buffer (video.c:70)
==50476==    by 0x10096B1F: filter_frame (vf_scale.c:276)
==50476==    by 0x1007E5A3: ff_filter_frame (avfilter.c:698)
==50476==    by 0x1007E5A3: default_filter_frame (avfilter.c:638)
==50476==    by 0x10080E23: ff_filter_frame (avfilter.c:698)
==50476==    by 0x10083613: request_frame (buffersrc.c:399)
==50476== 
==50476== Invalid read of size 16
==50476==    at 0x104813EC: get_pixels_vsx (pixblockdsp.c:139)
==50476==    by 0x1023BE23: dnxhd_get_blocks (dnxhdenc.c:578)
==50476==    by 0x1023BE23: dnxhd_encode_thread (dnxhdenc.c:674)
==50476==    by 0x1023DDEF: dnxhd_encode_picture (dnxhdenc.c:1071)
==50476==    by 0x10263283: avcodec_encode_video2 (encode.c:227)
==50476==    by 0x102634A3: do_encode (encode.c:274)
==50476==    by 0x1026370F: avcodec_send_frame (encode.c:323)
==50476==    by 0x10077377: do_video_out (avconv.c:587)
==50476==    by 0x10077377: poll_filter (avconv.c:726)
==50476==    by 0x10077B4F: poll_filters (avconv.c:800)
==50476==    by 0x1005EECB: transcode (avconv.c:2771)
==50476==    by 0x1005EECB: main (avconv.c:2940)
==50476==  Address 0x16ee1918 is 460,792 bytes inside a block of size 460,800 alloc'd
==50476==    at 0x4088C90: memalign (vg_replace_malloc.c:857)
==50476==    by 0x4088DFF: posix_memalign (vg_replace_malloc.c:1020)
==50476==    by 0x108B2F37: av_malloc (mem.c:71)
==50476==    by 0x1089F1A7: av_buffer_alloc (buffer.c:72)
==50476==    by 0x108AA0B3: get_video_buffer (frame.c:119)
==50476==    by 0x108AA0B3: av_frame_get_buffer (frame.c:196)
==50476==    by 0x1009CAA7: ff_default_get_video_buffer (video.c:55)
==50476==    by 0x1009CAA7: ff_get_video_buffer (video.c:73)
==50476==    by 0x1009CAA7: ff_null_get_video_buffer (video.c:33)
==50476==    by 0x1009CA33: ff_get_video_buffer (video.c:70)
==50476==    by 0x1009CA33: ff_null_get_video_buffer (video.c:33)
==50476==    by 0x1009CC8B: ff_get_video_buffer (video.c:70)
==50476==    by 0x10096B1F: filter_frame (vf_scale.c:276)
==50476==    by 0x1007E5A3: ff_filter_frame (avfilter.c:698)
==50476==    by 0x1007E5A3: default_filter_frame (avfilter.c:638)
==50476==    by 0x10080E23: ff_filter_frame (avfilter.c:698)
==50476==    by 0x10083613: request_frame (buffersrc.c:399)
==50476== 
==50476== Invalid read of size 16
==50476==    at 0x104813EC: get_pixels_vsx (pixblockdsp.c:139)
==50476==    by 0x1023BE53: dnxhd_get_blocks (dnxhdenc.c:580)
==50476==    by 0x1023BE53: dnxhd_encode_thread (dnxhdenc.c:674)
==50476==    by 0x1023DDEF: dnxhd_encode_picture (dnxhdenc.c:1071)
==50476==    by 0x10263283: avcodec_encode_video2 (encode.c:227)
==50476==    by 0x102634A3: do_encode (encode.c:274)
==50476==    by 0x1026370F: avcodec_send_frame (encode.c:323)
==50476==    by 0x10077377: do_video_out (avconv.c:587)
==50476==    by 0x10077377: poll_filter (avconv.c:726)
==50476==    by 0x10077B4F: poll_filters (avconv.c:800)
==50476==    by 0x1005EECB: transcode (avconv.c:2771)
==50476==    by 0x1005EECB: main (avconv.c:2940)
==50476==  Address 0x16f521b8 is 460,792 bytes inside a block of size 460,800 alloc'd
==50476==    at 0x4088C90: memalign (vg_replace_malloc.c:857)
==50476==    by 0x4088DFF: posix_memalign (vg_replace_malloc.c:1020)
==50476==    by 0x108B2F37: av_malloc (mem.c:71)
==50476==    by 0x1089F1A7: av_buffer_alloc (buffer.c:72)
==50476==    by 0x108AA0B3: get_video_buffer (frame.c:119)
==50476==    by 0x108AA0B3: av_frame_get_buffer (frame.c:196)
==50476==    by 0x1009CAA7: ff_default_get_video_buffer (video.c:55)
==50476==    by 0x1009CAA7: ff_get_video_buffer (video.c:73)
==50476==    by 0x1009CAA7: ff_null_get_video_buffer (video.c:33)
==50476==    by 0x1009CA33: ff_get_video_buffer (video.c:70)
==50476==    by 0x1009CA33: ff_null_get_video_buffer (video.c:33)
==50476==    by 0x1009CC8B: ff_get_video_buffer (video.c:70)
==50476==    by 0x10096B1F: filter_frame (vf_scale.c:276)
==50476==    by 0x1007E5A3: ff_filter_frame (avfilter.c:698)
==50476==    by 0x1007E5A3: default_filter_frame (avfilter.c:638)
==50476==    by 0x10080E23: ff_filter_frame (avfilter.c:698)
==50476==    by 0x10083613: request_frame (buffersrc.c:399)
==50476== 
frame=    5 fps=  0 q=1.0 Lsize=    2240kB time=0.16 bitrate=114688.0kbits/s    
video:2240kB audio:0kB other streams:0kB global headers:0kB muxing overhead: 0.000000%
==50476== 
==50476== HEAP SUMMARY:
==50476==     in use at exit: 0 bytes in 0 blocks
==50476==   total heap usage: 1,770 allocs, 1,770 frees, 22,156,167 bytes allocated
==50476== 
==50476== All heap blocks were freed -- no leaks are possible
==50476== 
==50476== For counts of detected and suppressed errors, rerun with: -v
==50476== ERROR SUMMARY: 45 errors from 6 contexts (suppressed: 0 from 0)
diffstderrvsynth1-dnxhd-720p-rd1v12_dev0-1345-g0181ae9
--- /home/mik/src/fate/src/tests/ref/vsynth/vsynth1-dnxhd-720p-rd	2014-01-10 11:16:55.734697630 +0000
+++ tests/data/fate/vsynth1-dnxhd-720p-rd	2017-10-12 01:20:57.552237746 +0000
@@ -1,4 +0,0 @@
-1dc6e95925c4f3a230848ec17c02abed *tests/data/fate/vsynth1-dnxhd-720p-rd.dnxhd
-2293760 tests/data/fate/vsynth1-dnxhd-720p-rd.dnxhd
-02972d2aec120ec1577ec9053d68ae0f *tests/data/fate/vsynth1-dnxhd-720p-rd.out.rawvideo
-stddev:    6.26 PSNR: 32.19 MAXDIFF:   65 bytes:  7603200/   760320
==50746== Memcheck, a memory error detector
==50746== Copyright (C) 2002-2015, and GNU GPL'd, by Julian Seward et al.
==50746== Using Valgrind-3.12.0.SVN and LibVEX; rerun with -h for copyright info
==50746== Command: /home/mik/src/fate/ppc64-linux-gcc-valgrind/build/avconv -nostats -cpuflags all -f rawvideo -s 352x288 -pix_fmt yuv420p -threads 1 -idct simple -flags +bitexact -sws_flags +accurate_rnd+bitexact -fflags +bitexact -hwaccel none -threads 1 -thread_type frame+slice -i /home/mik/src/fate/ppc64-linux-gcc-valgrind/build/tests/data/vsynth1.yuv -threads 1 -idct simple -dct fastint -c dnxhd -s hd720 -b 90M -threads 4 -mbd rd -pix_fmt yuv422p -frames 5 -flags +bitexact -sws_flags +accurate_rnd+bitexact -fflags +bitexact -f dnxhd -y /home/mik/src/fate/ppc64-linux-gcc-valgrind/build/tests/data/fate/vsynth1-dnxhd-720p-rd.dnxhd
==50746== 
avconv version v13_dev0-1331-g010baac, Copyright (c) 2000-2017 the Libav developers
  built on Oct 12 2017 00:55:58 with gcc 5.5.0 (GCC)
[rawvideo @ 0x46caec0] Estimating duration from bitrate, this may be inaccurate
Input #0, rawvideo, from '/home/mik/src/fate/ppc64-linux-gcc-valgrind/build/tests/data/vsynth1.yuv':
  Duration: N/A, start: 0.000000, bitrate: N/A
    Stream #0:0: Video: rawvideo
      yuv420p, 352x288
      25 fps, 25 tbn
Stream mapping:
  Stream #0:0 -> #0:0 (rawvideo (native) -> dnxhd (native))
Press ctrl-c to stop encoding
Output #0, dnxhd, to '/home/mik/src/fate/ppc64-linux-gcc-valgrind/build/tests/data/fate/vsynth1-dnxhd-720p-rd.dnxhd':
    Stream #0:0: Video: dnxhd
      yuv422p, 1280x720, q=2-31, 90000 kb/s
      25 tbn
    Metadata:
      encoder         : dnxhd
==50746== Thread 70:
==50746== Invalid read of size 16
==50746==    at 0x104813EC: get_pixels_vsx (pixblockdsp.c:139)
==50746==    by 0x1023C74F: dnxhd_get_blocks (dnxhdenc.c:576)
==50746==    by 0x1023C74F: dnxhd_calc_bits_thread (dnxhdenc.c:619)
==50746==    by 0x43DC95B: start_thread (in /usr/lib64/libpthread-2.17.so)
==50746==    by 0x4563BBB: clone (in /usr/lib64/libc-2.17.so)
==50746==  Address 0x17e71078 is 921,592 bytes inside a block of size 921,600 alloc'd
==50746==    at 0x4088C90: memalign (vg_replace_malloc.c:857)
==50746==    by 0x4088DFF: posix_memalign (vg_replace_malloc.c:1020)
==50746==    by 0x108B2F37: av_malloc (mem.c:71)
==50746==    by 0x1089F1A7: av_buffer_alloc (buffer.c:72)
==50746==    by 0x108AA0B3: get_video_buffer (frame.c:119)
==50746==    by 0x108AA0B3: av_frame_get_buffer (frame.c:196)
==50746==    by 0x1009CAA7: ff_default_get_video_buffer (video.c:55)
==50746==    by 0x1009CAA7: ff_get_video_buffer (video.c:73)
==50746==    by 0x1009CAA7: ff_null_get_video_buffer (video.c:33)
==50746==    by 0x1009CA33: ff_get_video_buffer (video.c:70)
==50746==    by 0x1009CA33: ff_null_get_video_buffer (video.c:33)
==50746==    by 0x1009CC8B: ff_get_video_buffer (video.c:70)
==50746==    by 0x10096B1F: filter_frame (vf_scale.c:276)
==50746==    by 0x1007E5A3: ff_filter_frame (avfilter.c:698)
==50746==    by 0x1007E5A3: default_filter_frame (avfilter.c:638)
==50746==    by 0x10080E23: ff_filter_frame (avfilter.c:698)
==50746==    by 0x10083613: request_frame (buffersrc.c:399)
==50746== 
==50746== Invalid read of size 16
==50746==    at 0x104813EC: get_pixels_vsx (pixblockdsp.c:139)
==50746==    by 0x1023C77F: dnxhd_get_blocks (dnxhdenc.c:578)
==50746==    by 0x1023C77F: dnxhd_calc_bits_thread (dnxhdenc.c:619)
==50746==    by 0x43DC95B: start_thread (in /usr/lib64/libpthread-2.17.so)
==50746==    by 0x4563BBB: clone (in /usr/lib64/libc-2.17.so)
==50746==  Address 0x17ee1918 is 460,792 bytes inside a block of size 460,800 alloc'd
==50746==    at 0x4088C90: memalign (vg_replace_malloc.c:857)
==50746==    by 0x4088DFF: posix_memalign (vg_replace_malloc.c:1020)
==50746==    by 0x108B2F37: av_malloc (mem.c:71)
==50746==    by 0x1089F1A7: av_buffer_alloc (buffer.c:72)
==50746==    by 0x108AA0B3: get_video_buffer (frame.c:119)
==50746==    by 0x108AA0B3: av_frame_get_buffer (frame.c:196)
==50746==    by 0x1009CAA7: ff_default_get_video_buffer (video.c:55)
==50746==    by 0x1009CAA7: ff_get_video_buffer (video.c:73)
==50746==    by 0x1009CAA7: ff_null_get_video_buffer (video.c:33)
==50746==    by 0x1009CA33: ff_get_video_buffer (video.c:70)
==50746==    by 0x1009CA33: ff_null_get_video_buffer (video.c:33)
==50746==    by 0x1009CC8B: ff_get_video_buffer (video.c:70)
==50746==    by 0x10096B1F: filter_frame (vf_scale.c:276)
==50746==    by 0x1007E5A3: ff_filter_frame (avfilter.c:698)
==50746==    by 0x1007E5A3: default_filter_frame (avfilter.c:638)
==50746==    by 0x10080E23: ff_filter_frame (avfilter.c:698)
==50746==    by 0x10083613: request_frame (buffersrc.c:399)
==50746== 
==50746== Invalid read of size 16
==50746==    at 0x104813EC: get_pixels_vsx (pixblockdsp.c:139)
==50746==    by 0x1023C7AF: dnxhd_get_blocks (dnxhdenc.c:580)
==50746==    by 0x1023C7AF: dnxhd_calc_bits_thread (dnxhdenc.c:619)
==50746==    by 0x43DC95B: start_thread (in /usr/lib64/libpthread-2.17.so)
==50746==    by 0x4563BBB: clone (in /usr/lib64/libc-2.17.so)
==50746==  Address 0x17f521b8 is 460,792 bytes inside a block of size 460,800 alloc'd
==50746==    at 0x4088C90: memalign (vg_replace_malloc.c:857)
==50746==    by 0x4088DFF: posix_memalign (vg_replace_malloc.c:1020)
==50746==    by 0x108B2F37: av_malloc (mem.c:71)
==50746==    by 0x1089F1A7: av_buffer_alloc (buffer.c:72)
==50746==    by 0x108AA0B3: get_video_buffer (frame.c:119)
==50746==    by 0x108AA0B3: av_frame_get_buffer (frame.c:196)
==50746==    by 0x1009CAA7: ff_default_get_video_buffer (video.c:55)
==50746==    by 0x1009CAA7: ff_get_video_buffer (video.c:73)
==50746==    by 0x1009CAA7: ff_null_get_video_buffer (video.c:33)
==50746==    by 0x1009CA33: ff_get_video_buffer (video.c:70)
==50746==    by 0x1009CA33: ff_null_get_video_buffer (video.c:33)
==50746==    by 0x1009CC8B: ff_get_video_buffer (video.c:70)
==50746==    by 0x10096B1F: filter_frame (vf_scale.c:276)
==50746==    by 0x1007E5A3: ff_filter_frame (avfilter.c:698)
==50746==    by 0x1007E5A3: default_filter_frame (avfilter.c:638)
==50746==    by 0x10080E23: ff_filter_frame (avfilter.c:698)
==50746==    by 0x10083613: request_frame (buffersrc.c:399)
==50746== 
==50746== Thread 68:
==50746== Invalid read of size 16
==50746==    at 0x104813EC: get_pixels_vsx (pixblockdsp.c:139)
==50746==    by 0x1023BDF3: dnxhd_get_blocks (dnxhdenc.c:576)
==50746==    by 0x1023BDF3: dnxhd_encode_thread (dnxhdenc.c:674)
==50746==    by 0x43DC95B: start_thread (in /usr/lib64/libpthread-2.17.so)
==50746==    by 0x4563BBB: clone (in /usr/lib64/libc-2.17.so)
==50746==  Address 0x17e71078 is 921,592 bytes inside a block of size 921,600 alloc'd
==50746==    at 0x4088C90: memalign (vg_replace_malloc.c:857)
==50746==    by 0x4088DFF: posix_memalign (vg_replace_malloc.c:1020)
==50746==    by 0x108B2F37: av_malloc (mem.c:71)
==50746==    by 0x1089F1A7: av_buffer_alloc (buffer.c:72)
==50746==    by 0x108AA0B3: get_video_buffer (frame.c:119)
==50746==    by 0x108AA0B3: av_frame_get_buffer (frame.c:196)
==50746==    by 0x1009CAA7: ff_default_get_video_buffer (video.c:55)
==50746==    by 0x1009CAA7: ff_get_video_buffer (video.c:73)
==50746==    by 0x1009CAA7: ff_null_get_video_buffer (video.c:33)
==50746==    by 0x1009CA33: ff_get_video_buffer (video.c:70)
==50746==    by 0x1009CA33: ff_null_get_video_buffer (video.c:33)
==50746==    by 0x1009CC8B: ff_get_video_buffer (video.c:70)
==50746==    by 0x10096B1F: filter_frame (vf_scale.c:276)
==50746==    by 0x1007E5A3: ff_filter_frame (avfilter.c:698)
==50746==    by 0x1007E5A3: default_filter_frame (avfilter.c:638)
==50746==    by 0x10080E23: ff_filter_frame (avfilter.c:698)
==50746==    by 0x10083613: request_frame (buffersrc.c:399)
==50746== 
==50746== Invalid read of size 16
==50746==    at 0x104813EC: get_pixels_vsx (pixblockdsp.c:139)
==50746==    by 0x1023BE23: dnxhd_get_blocks (dnxhdenc.c:578)
==50746==    by 0x1023BE23: dnxhd_encode_thread (dnxhdenc.c:674)
==50746==    by 0x43DC95B: start_thread (in /usr/lib64/libpthread-2.17.so)
==50746==    by 0x4563BBB: clone (in /usr/lib64/libc-2.17.so)
==50746==  Address 0x17ee1918 is 460,792 bytes inside a block of size 460,800 alloc'd
==50746==    at 0x4088C90: memalign (vg_replace_malloc.c:857)
==50746==    by 0x4088DFF: posix_memalign (vg_replace_malloc.c:1020)
==50746==    by 0x108B2F37: av_malloc (mem.c:71)
==50746==    by 0x1089F1A7: av_buffer_alloc (buffer.c:72)
==50746==    by 0x108AA0B3: get_video_buffer (frame.c:119)
==50746==    by 0x108AA0B3: av_frame_get_buffer (frame.c:196)
==50746==    by 0x1009CAA7: ff_default_get_video_buffer (video.c:55)
==50746==    by 0x1009CAA7: ff_get_video_buffer (video.c:73)
==50746==    by 0x1009CAA7: ff_null_get_video_buffer (video.c:33)
==50746==    by 0x1009CA33: ff_get_video_buffer (video.c:70)
==50746==    by 0x1009CA33: ff_null_get_video_buffer (video.c:33)
==50746==    by 0x1009CC8B: ff_get_video_buffer (video.c:70)
==50746==    by 0x10096B1F: filter_frame (vf_scale.c:276)
==50746==    by 0x1007E5A3: ff_filter_frame (avfilter.c:698)
==50746==    by 0x1007E5A3: default_filter_frame (avfilter.c:638)
==50746==    by 0x10080E23: ff_filter_frame (avfilter.c:698)
==50746==    by 0x10083613: request_frame (buffersrc.c:399)
==50746== 
==50746== Invalid read of size 16
==50746==    at 0x104813EC: get_pixels_vsx (pixblockdsp.c:139)
==50746==    by 0x1023BE53: dnxhd_get_blocks (dnxhdenc.c:580)
==50746==    by 0x1023BE53: dnxhd_encode_thread (dnxhdenc.c:674)
==50746==    by 0x43DC95B: start_thread (in /usr/lib64/libpthread-2.17.so)
==50746==    by 0x4563BBB: clone (in /usr/lib64/libc-2.17.so)
==50746==  Address 0x17f521b8 is 460,792 bytes inside a block of size 460,800 alloc'd
==50746==    at 0x4088C90: memalign (vg_replace_malloc.c:857)
==50746==    by 0x4088DFF: posix_memalign (vg_replace_malloc.c:1020)
==50746==    by 0x108B2F37: av_malloc (mem.c:71)
==50746==    by 0x1089F1A7: av_buffer_alloc (buffer.c:72)
==50746==    by 0x108AA0B3: get_video_buffer (frame.c:119)
==50746==    by 0x108AA0B3: av_frame_get_buffer (frame.c:196)
==50746==    by 0x1009CAA7: ff_default_get_video_buffer (video.c:55)
==50746==    by 0x1009CAA7: ff_get_video_buffer (video.c:73)
==50746==    by 0x1009CAA7: ff_null_get_video_buffer (video.c:33)
==50746==    by 0x1009CA33: ff_get_video_buffer (video.c:70)
==50746==    by 0x1009CA33: ff_null_get_video_buffer (video.c:33)
==50746==    by 0x1009CC8B: ff_get_video_buffer (video.c:70)
==50746==    by 0x10096B1F: filter_frame (vf_scale.c:276)
==50746==    by 0x1007E5A3: ff_filter_frame (avfilter.c:698)
==50746==    by 0x1007E5A3: default_filter_frame (avfilter.c:638)
==50746==    by 0x10080E23: ff_filter_frame (avfilter.c:698)
==50746==    by 0x10083613: request_frame (buffersrc.c:399)
==50746== 
frame=    5 fps=  0 q=30.0 Lsize=    2240kB time=0.16 bitrate=114688.0kbits/s    
video:2240kB audio:0kB other streams:0kB global headers:0kB muxing overhead: 0.000000%
==50746== 
==50746== HEAP SUMMARY:
==50746==     in use at exit: 0 bytes in 0 blocks
==50746==   total heap usage: 1,790 allocs, 1,790 frees, 22,020,343 bytes allocated
==50746== 
==50746== All heap blocks were freed -- no leaks are possible
==50746== 
==50746== For counts of detected and suppressed errors, rerun with: -v
==50746== ERROR SUMMARY: 465 errors from 6 contexts (suppressed: 0 from 0)
diffstderrvsynth2-dnxhd-720p1v12_dev0-1345-g0181ae9
--- /home/mik/src/fate/src/tests/ref/vsynth/vsynth2-dnxhd-720p	2014-11-30 15:37:05.674204650 +0000
+++ tests/data/fate/vsynth2-dnxhd-720p	2017-10-12 01:23:50.112582866 +0000
@@ -1,4 +0,0 @@
-71c7491a41545882b36f07ee98021b4b *tests/data/fate/vsynth2-dnxhd-720p.dnxhd
-2293760 tests/data/fate/vsynth2-dnxhd-720p.dnxhd
-adef978dc9c9e4f10dc7c30418af62af *tests/data/fate/vsynth2-dnxhd-720p.out.rawvideo
-stddev:    6.69 PSNR: 31.62 MAXDIFF:  171 bytes:  7603200/   760320
==11978== Memcheck, a memory error detector
==11978== Copyright (C) 2002-2015, and GNU GPL'd, by Julian Seward et al.
==11978== Using Valgrind-3.12.0.SVN and LibVEX; rerun with -h for copyright info
==11978== Command: /home/mik/src/fate/ppc64-linux-gcc-valgrind/build/avconv -nostats -cpuflags all -f rawvideo -s 352x288 -pix_fmt yuv420p -threads 1 -idct simple -flags +bitexact -sws_flags +accurate_rnd+bitexact -fflags +bitexact -hwaccel none -threads 1 -thread_type frame+slice -i /home/mik/src/fate/ppc64-linux-gcc-valgrind/build/tests/data/vsynth2.yuv -threads 1 -idct simple -dct fastint -c dnxhd -s hd720 -b 90M -pix_fmt yuv422p -frames 5 -flags +bitexact -sws_flags +accurate_rnd+bitexact -fflags +bitexact -f dnxhd -y /home/mik/src/fate/ppc64-linux-gcc-valgrind/build/tests/data/fate/vsynth2-dnxhd-720p.dnxhd
==11978== 
avconv version v13_dev0-1331-g010baac, Copyright (c) 2000-2017 the Libav developers
  built on Oct 12 2017 00:55:58 with gcc 5.5.0 (GCC)
[rawvideo @ 0x46cae20] Estimating duration from bitrate, this may be inaccurate
Input #0, rawvideo, from '/home/mik/src/fate/ppc64-linux-gcc-valgrind/build/tests/data/vsynth2.yuv':
  Duration: N/A, start: 0.000000, bitrate: N/A
    Stream #0:0: Video: rawvideo
      yuv420p, 352x288
      25 fps, 25 tbn
Stream mapping:
  Stream #0:0 -> #0:0 (rawvideo (native) -> dnxhd (native))
Press ctrl-c to stop encoding
Output #0, dnxhd, to '/home/mik/src/fate/ppc64-linux-gcc-valgrind/build/tests/data/fate/vsynth2-dnxhd-720p.dnxhd':
    Stream #0:0: Video: dnxhd
      yuv422p, 1280x720, q=2-31, 90000 kb/s
      25 tbn
    Metadata:
      encoder         : dnxhd
==11978== Invalid read of size 16
==11978==    at 0x104813EC: get_pixels_vsx (pixblockdsp.c:139)
==11978==    by 0x1023C74F: dnxhd_get_blocks (dnxhdenc.c:576)
==11978==    by 0x1023C74F: dnxhd_calc_bits_thread (dnxhdenc.c:619)
==11978==    by 0x1023D6B3: dnxhd_find_qscale (dnxhdenc.c:866)
==11978==    by 0x1023D6B3: dnxhd_encode_fast (dnxhdenc.c:969)
==11978==    by 0x1023D6B3: dnxhd_encode_picture (dnxhdenc.c:1055)
==11978==    by 0x10263283: avcodec_encode_video2 (encode.c:227)
==11978==    by 0x102634A3: do_encode (encode.c:274)
==11978==    by 0x1026370F: avcodec_send_frame (encode.c:323)
==11978==    by 0x10077377: do_video_out (avconv.c:587)
==11978==    by 0x10077377: poll_filter (avconv.c:726)
==11978==    by 0x10077B4F: poll_filters (avconv.c:800)
==11978==    by 0x1005EECB: transcode (avconv.c:2771)
==11978==    by 0x1005EECB: main (avconv.c:2940)
==11978==  Address 0x16e71078 is 921,592 bytes inside a block of size 921,600 alloc'd
==11978==    at 0x4088C90: memalign (vg_replace_malloc.c:857)
==11978==    by 0x4088DFF: posix_memalign (vg_replace_malloc.c:1020)
==11978==    by 0x108B2F37: av_malloc (mem.c:71)
==11978==    by 0x1089F1A7: av_buffer_alloc (buffer.c:72)
==11978==    by 0x108AA0B3: get_video_buffer (frame.c:119)
==11978==    by 0x108AA0B3: av_frame_get_buffer (frame.c:196)
==11978==    by 0x1009CAA7: ff_default_get_video_buffer (video.c:55)
==11978==    by 0x1009CAA7: ff_get_video_buffer (video.c:73)
==11978==    by 0x1009CAA7: ff_null_get_video_buffer (video.c:33)
==11978==    by 0x1009CA33: ff_get_video_buffer (video.c:70)
==11978==    by 0x1009CA33: ff_null_get_video_buffer (video.c:33)
==11978==    by 0x1009CC8B: ff_get_video_buffer (video.c:70)
==11978==    by 0x10096B1F: filter_frame (vf_scale.c:276)
==11978==    by 0x1007E5A3: ff_filter_frame (avfilter.c:698)
==11978==    by 0x1007E5A3: default_filter_frame (avfilter.c:638)
==11978==    by 0x10080E23: ff_filter_frame (avfilter.c:698)
==11978==    by 0x10083613: request_frame (buffersrc.c:399)
==11978== 
==11978== Invalid read of size 16
==11978==    at 0x104813EC: get_pixels_vsx (pixblockdsp.c:139)
==11978==    by 0x1023C77F: dnxhd_get_blocks (dnxhdenc.c:578)
==11978==    by 0x1023C77F: dnxhd_calc_bits_thread (dnxhdenc.c:619)
==11978==    by 0x1023D6B3: dnxhd_find_qscale (dnxhdenc.c:866)
==11978==    by 0x1023D6B3: dnxhd_encode_fast (dnxhdenc.c:969)
==11978==    by 0x1023D6B3: dnxhd_encode_picture (dnxhdenc.c:1055)
==11978==    by 0x10263283: avcodec_encode_video2 (encode.c:227)
==11978==    by 0x102634A3: do_encode (encode.c:274)
==11978==    by 0x1026370F: avcodec_send_frame (encode.c:323)
==11978==    by 0x10077377: do_video_out (avconv.c:587)
==11978==    by 0x10077377: poll_filter (avconv.c:726)
==11978==    by 0x10077B4F: poll_filters (avconv.c:800)
==11978==    by 0x1005EECB: transcode (avconv.c:2771)
==11978==    by 0x1005EECB: main (avconv.c:2940)
==11978==  Address 0x16ee1918 is 460,792 bytes inside a block of size 460,800 alloc'd
==11978==    at 0x4088C90: memalign (vg_replace_malloc.c:857)
==11978==    by 0x4088DFF: posix_memalign (vg_replace_malloc.c:1020)
==11978==    by 0x108B2F37: av_malloc (mem.c:71)
==11978==    by 0x1089F1A7: av_buffer_alloc (buffer.c:72)
==11978==    by 0x108AA0B3: get_video_buffer (frame.c:119)
==11978==    by 0x108AA0B3: av_frame_get_buffer (frame.c:196)
==11978==    by 0x1009CAA7: ff_default_get_video_buffer (video.c:55)
==11978==    by 0x1009CAA7: ff_get_video_buffer (video.c:73)
==11978==    by 0x1009CAA7: ff_null_get_video_buffer (video.c:33)
==11978==    by 0x1009CA33: ff_get_video_buffer (video.c:70)
==11978==    by 0x1009CA33: ff_null_get_video_buffer (video.c:33)
==11978==    by 0x1009CC8B: ff_get_video_buffer (video.c:70)
==11978==    by 0x10096B1F: filter_frame (vf_scale.c:276)
==11978==    by 0x1007E5A3: ff_filter_frame (avfilter.c:698)
==11978==    by 0x1007E5A3: default_filter_frame (avfilter.c:638)
==11978==    by 0x10080E23: ff_filter_frame (avfilter.c:698)
==11978==    by 0x10083613: request_frame (buffersrc.c:399)
==11978== 
==11978== Invalid read of size 16
==11978==    at 0x104813EC: get_pixels_vsx (pixblockdsp.c:139)
==11978==    by 0x1023C7AF: dnxhd_get_blocks (dnxhdenc.c:580)
==11978==    by 0x1023C7AF: dnxhd_calc_bits_thread (dnxhdenc.c:619)
==11978==    by 0x1023D6B3: dnxhd_find_qscale (dnxhdenc.c:866)
==11978==    by 0x1023D6B3: dnxhd_encode_fast (dnxhdenc.c:969)
==11978==    by 0x1023D6B3: dnxhd_encode_picture (dnxhdenc.c:1055)
==11978==    by 0x10263283: avcodec_encode_video2 (encode.c:227)
==11978==    by 0x102634A3: do_encode (encode.c:274)
==11978==    by 0x1026370F: avcodec_send_frame (encode.c:323)
==11978==    by 0x10077377: do_video_out (avconv.c:587)
==11978==    by 0x10077377: poll_filter (avconv.c:726)
==11978==    by 0x10077B4F: poll_filters (avconv.c:800)
==11978==    by 0x1005EECB: transcode (avconv.c:2771)
==11978==    by 0x1005EECB: main (avconv.c:2940)
==11978==  Address 0x16f521b8 is 460,792 bytes inside a block of size 460,800 alloc'd
==11978==    at 0x4088C90: memalign (vg_replace_malloc.c:857)
==11978==    by 0x4088DFF: posix_memalign (vg_replace_malloc.c:1020)
==11978==    by 0x108B2F37: av_malloc (mem.c:71)
==11978==    by 0x1089F1A7: av_buffer_alloc (buffer.c:72)
==11978==    by 0x108AA0B3: get_video_buffer (frame.c:119)
==11978==    by 0x108AA0B3: av_frame_get_buffer (frame.c:196)
==11978==    by 0x1009CAA7: ff_default_get_video_buffer (video.c:55)
==11978==    by 0x1009CAA7: ff_get_video_buffer (video.c:73)
==11978==    by 0x1009CAA7: ff_null_get_video_buffer (video.c:33)
==11978==    by 0x1009CA33: ff_get_video_buffer (video.c:70)
==11978==    by 0x1009CA33: ff_null_get_video_buffer (video.c:33)
==11978==    by 0x1009CC8B: ff_get_video_buffer (video.c:70)
==11978==    by 0x10096B1F: filter_frame (vf_scale.c:276)
==11978==    by 0x1007E5A3: ff_filter_frame (avfilter.c:698)
==11978==    by 0x1007E5A3: default_filter_frame (avfilter.c:638)
==11978==    by 0x10080E23: ff_filter_frame (avfilter.c:698)
==11978==    by 0x10083613: request_frame (buffersrc.c:399)
==11978== 
==11978== Invalid read of size 16
==11978==    at 0x104813EC: get_pixels_vsx (pixblockdsp.c:139)
==11978==    by 0x1023BDF3: dnxhd_get_blocks (dnxhdenc.c:576)
==11978==    by 0x1023BDF3: dnxhd_encode_thread (dnxhdenc.c:674)
==11978==    by 0x1023DDEF: dnxhd_encode_picture (dnxhdenc.c:1071)
==11978==    by 0x10263283: avcodec_encode_video2 (encode.c:227)
==11978==    by 0x102634A3: do_encode (encode.c:274)
==11978==    by 0x1026370F: avcodec_send_frame (encode.c:323)
==11978==    by 0x10077377: do_video_out (avconv.c:587)
==11978==    by 0x10077377: poll_filter (avconv.c:726)
==11978==    by 0x10077B4F: poll_filters (avconv.c:800)
==11978==    by 0x1005EECB: transcode (avconv.c:2771)
==11978==    by 0x1005EECB: main (avconv.c:2940)
==11978==  Address 0x16e71078 is 921,592 bytes inside a block of size 921,600 alloc'd
==11978==    at 0x4088C90: memalign (vg_replace_malloc.c:857)
==11978==    by 0x4088DFF: posix_memalign (vg_replace_malloc.c:1020)
==11978==    by 0x108B2F37: av_malloc (mem.c:71)
==11978==    by 0x1089F1A7: av_buffer_alloc (buffer.c:72)
==11978==    by 0x108AA0B3: get_video_buffer (frame.c:119)
==11978==    by 0x108AA0B3: av_frame_get_buffer (frame.c:196)
==11978==    by 0x1009CAA7: ff_default_get_video_buffer (video.c:55)
==11978==    by 0x1009CAA7: ff_get_video_buffer (video.c:73)
==11978==    by 0x1009CAA7: ff_null_get_video_buffer (video.c:33)
==11978==    by 0x1009CA33: ff_get_video_buffer (video.c:70)
==11978==    by 0x1009CA33: ff_null_get_video_buffer (video.c:33)
==11978==    by 0x1009CC8B: ff_get_video_buffer (video.c:70)
==11978==    by 0x10096B1F: filter_frame (vf_scale.c:276)
==11978==    by 0x1007E5A3: ff_filter_frame (avfilter.c:698)
==11978==    by 0x1007E5A3: default_filter_frame (avfilter.c:638)
==11978==    by 0x10080E23: ff_filter_frame (avfilter.c:698)
==11978==    by 0x10083613: request_frame (buffersrc.c:399)
==11978== 
==11978== Invalid read of size 16
==11978==    at 0x104813EC: get_pixels_vsx (pixblockdsp.c:139)
==11978==    by 0x1023BE23: dnxhd_get_blocks (dnxhdenc.c:578)
==11978==    by 0x1023BE23: dnxhd_encode_thread (dnxhdenc.c:674)
==11978==    by 0x1023DDEF: dnxhd_encode_picture (dnxhdenc.c:1071)
==11978==    by 0x10263283: avcodec_encode_video2 (encode.c:227)
==11978==    by 0x102634A3: do_encode (encode.c:274)
==11978==    by 0x1026370F: avcodec_send_frame (encode.c:323)
==11978==    by 0x10077377: do_video_out (avconv.c:587)
==11978==    by 0x10077377: poll_filter (avconv.c:726)
==11978==    by 0x10077B4F: poll_filters (avconv.c:800)
==11978==    by 0x1005EECB: transcode (avconv.c:2771)
==11978==    by 0x1005EECB: main (avconv.c:2940)
==11978==  Address 0x16ee1918 is 460,792 bytes inside a block of size 460,800 alloc'd
==11978==    at 0x4088C90: memalign (vg_replace_malloc.c:857)
==11978==    by 0x4088DFF: posix_memalign (vg_replace_malloc.c:1020)
==11978==    by 0x108B2F37: av_malloc (mem.c:71)
==11978==    by 0x1089F1A7: av_buffer_alloc (buffer.c:72)
==11978==    by 0x108AA0B3: get_video_buffer (frame.c:119)
==11978==    by 0x108AA0B3: av_frame_get_buffer (frame.c:196)
==11978==    by 0x1009CAA7: ff_default_get_video_buffer (video.c:55)
==11978==    by 0x1009CAA7: ff_get_video_buffer (video.c:73)
==11978==    by 0x1009CAA7: ff_null_get_video_buffer (video.c:33)
==11978==    by 0x1009CA33: ff_get_video_buffer (video.c:70)
==11978==    by 0x1009CA33: ff_null_get_video_buffer (video.c:33)
==11978==    by 0x1009CC8B: ff_get_video_buffer (video.c:70)
==11978==    by 0x10096B1F: filter_frame (vf_scale.c:276)
==11978==    by 0x1007E5A3: ff_filter_frame (avfilter.c:698)
==11978==    by 0x1007E5A3: default_filter_frame (avfilter.c:638)
==11978==    by 0x10080E23: ff_filter_frame (avfilter.c:698)
==11978==    by 0x10083613: request_frame (buffersrc.c:399)
==11978== 
==11978== Invalid read of size 16
==11978==    at 0x104813EC: get_pixels_vsx (pixblockdsp.c:139)
==11978==    by 0x1023BE53: dnxhd_get_blocks (dnxhdenc.c:580)
==11978==    by 0x1023BE53: dnxhd_encode_thread (dnxhdenc.c:674)
==11978==    by 0x1023DDEF: dnxhd_encode_picture (dnxhdenc.c:1071)
==11978==    by 0x10263283: avcodec_encode_video2 (encode.c:227)
==11978==    by 0x102634A3: do_encode (encode.c:274)
==11978==    by 0x1026370F: avcodec_send_frame (encode.c:323)
==11978==    by 0x10077377: do_video_out (avconv.c:587)
==11978==    by 0x10077377: poll_filter (avconv.c:726)
==11978==    by 0x10077B4F: poll_filters (avconv.c:800)
==11978==    by 0x1005EECB: transcode (avconv.c:2771)
==11978==    by 0x1005EECB: main (avconv.c:2940)
==11978==  Address 0x16f521b8 is 460,792 bytes inside a block of size 460,800 alloc'd
==11978==    at 0x4088C90: memalign (vg_replace_malloc.c:857)
==11978==    by 0x4088DFF: posix_memalign (vg_replace_malloc.c:1020)
==11978==    by 0x108B2F37: av_malloc (mem.c:71)
==11978==    by 0x1089F1A7: av_buffer_alloc (buffer.c:72)
==11978==    by 0x108AA0B3: get_video_buffer (frame.c:119)
==11978==    by 0x108AA0B3: av_frame_get_buffer (frame.c:196)
==11978==    by 0x1009CAA7: ff_default_get_video_buffer (video.c:55)
==11978==    by 0x1009CAA7: ff_get_video_buffer (video.c:73)
==11978==    by 0x1009CAA7: ff_null_get_video_buffer (video.c:33)
==11978==    by 0x1009CA33: ff_get_video_buffer (video.c:70)
==11978==    by 0x1009CA33: ff_null_get_video_buffer (video.c:33)
==11978==    by 0x1009CC8B: ff_get_video_buffer (video.c:70)
==11978==    by 0x10096B1F: filter_frame (vf_scale.c:276)
==11978==    by 0x1007E5A3: ff_filter_frame (avfilter.c:698)
==11978==    by 0x1007E5A3: default_filter_frame (avfilter.c:638)
==11978==    by 0x10080E23: ff_filter_frame (avfilter.c:698)
==11978==    by 0x10083613: request_frame (buffersrc.c:399)
==11978== 
frame=    5 fps=  1 q=1.0 Lsize=    2240kB time=0.16 bitrate=114688.0kbits/s    
video:2240kB audio:0kB other streams:0kB global headers:0kB muxing overhead: 0.000000%
==11978== 
==11978== HEAP SUMMARY:
==11978==     in use at exit: 0 bytes in 0 blocks
==11978==   total heap usage: 1,765 allocs, 1,765 frees, 22,012,167 bytes allocated
==11978== 
==11978== All heap blocks were freed -- no leaks are possible
==11978== 
==11978== For counts of detected and suppressed errors, rerun with: -v
==11978== ERROR SUMMARY: 30 errors from 6 contexts (suppressed: 0 from 0)
diffstderrvsynth2-dnxhd-720p-rd1v12_dev0-1345-g0181ae9
--- /home/mik/src/fate/src/tests/ref/vsynth/vsynth2-dnxhd-720p-rd	2014-11-30 15:37:05.674204650 +0000
+++ tests/data/fate/vsynth2-dnxhd-720p-rd	2017-10-12 01:23:50.922584486 +0000
@@ -1,4 +0,0 @@
-819a7714098e098981bf08253ef2e490 *tests/data/fate/vsynth2-dnxhd-720p-rd.dnxhd
-2293760 tests/data/fate/vsynth2-dnxhd-720p-rd.dnxhd
-a05c35b99e5e74a9c8b3a9c66da01775 *tests/data/fate/vsynth2-dnxhd-720p-rd.out.rawvideo
-stddev:    1.53 PSNR: 44.39 MAXDIFF:   31 bytes:  7603200/   760320
==12029== Memcheck, a memory error detector
==12029== Copyright (C) 2002-2015, and GNU GPL'd, by Julian Seward et al.
==12029== Using Valgrind-3.12.0.SVN and LibVEX; rerun with -h for copyright info
==12029== Command: /home/mik/src/fate/ppc64-linux-gcc-valgrind/build/avconv -nostats -cpuflags all -f rawvideo -s 352x288 -pix_fmt yuv420p -threads 1 -idct simple -flags +bitexact -sws_flags +accurate_rnd+bitexact -fflags +bitexact -hwaccel none -threads 1 -thread_type frame+slice -i /home/mik/src/fate/ppc64-linux-gcc-valgrind/build/tests/data/vsynth2.yuv -threads 1 -idct simple -dct fastint -c dnxhd -s hd720 -b 90M -threads 4 -mbd rd -pix_fmt yuv422p -frames 5 -flags +bitexact -sws_flags +accurate_rnd+bitexact -fflags +bitexact -f dnxhd -y /home/mik/src/fate/ppc64-linux-gcc-valgrind/build/tests/data/fate/vsynth2-dnxhd-720p-rd.dnxhd
==12029== 
avconv version v13_dev0-1331-g010baac, Copyright (c) 2000-2017 the Libav developers
  built on Oct 12 2017 00:55:58 with gcc 5.5.0 (GCC)
[rawvideo @ 0x46caec0] Estimating duration from bitrate, this may be inaccurate
Input #0, rawvideo, from '/home/mik/src/fate/ppc64-linux-gcc-valgrind/build/tests/data/vsynth2.yuv':
  Duration: N/A, start: 0.000000, bitrate: N/A
    Stream #0:0: Video: rawvideo
      yuv420p, 352x288
      25 fps, 25 tbn
Stream mapping:
  Stream #0:0 -> #0:0 (rawvideo (native) -> dnxhd (native))
Press ctrl-c to stop encoding
Output #0, dnxhd, to '/home/mik/src/fate/ppc64-linux-gcc-valgrind/build/tests/data/fate/vsynth2-dnxhd-720p-rd.dnxhd':
    Stream #0:0: Video: dnxhd
      yuv422p, 1280x720, q=2-31, 90000 kb/s
      25 tbn
    Metadata:
      encoder         : dnxhd
==12029== Thread 70:
==12029== Invalid read of size 16
==12029==    at 0x104813EC: get_pixels_vsx (pixblockdsp.c:139)
==12029==    by 0x1023C74F: dnxhd_get_blocks (dnxhdenc.c:576)
==12029==    by 0x1023C74F: dnxhd_calc_bits_thread (dnxhdenc.c:619)
==12029==    by 0x43DC95B: start_thread (in /usr/lib64/libpthread-2.17.so)
==12029==    by 0x4563BBB: clone (in /usr/lib64/libc-2.17.so)
==12029==  Address 0x17e71078 is 921,592 bytes inside a block of size 921,600 alloc'd
==12029==    at 0x4088C90: memalign (vg_replace_malloc.c:857)
==12029==    by 0x4088DFF: posix_memalign (vg_replace_malloc.c:1020)
==12029==    by 0x108B2F37: av_malloc (mem.c:71)
==12029==    by 0x1089F1A7: av_buffer_alloc (buffer.c:72)
==12029==    by 0x108AA0B3: get_video_buffer (frame.c:119)
==12029==    by 0x108AA0B3: av_frame_get_buffer (frame.c:196)
==12029==    by 0x1009CAA7: ff_default_get_video_buffer (video.c:55)
==12029==    by 0x1009CAA7: ff_get_video_buffer (video.c:73)
==12029==    by 0x1009CAA7: ff_null_get_video_buffer (video.c:33)
==12029==    by 0x1009CA33: ff_get_video_buffer (video.c:70)
==12029==    by 0x1009CA33: ff_null_get_video_buffer (video.c:33)
==12029==    by 0x1009CC8B: ff_get_video_buffer (video.c:70)
==12029==    by 0x10096B1F: filter_frame (vf_scale.c:276)
==12029==    by 0x1007E5A3: ff_filter_frame (avfilter.c:698)
==12029==    by 0x1007E5A3: default_filter_frame (avfilter.c:638)
==12029==    by 0x10080E23: ff_filter_frame (avfilter.c:698)
==12029==    by 0x10083613: request_frame (buffersrc.c:399)
==12029== 
==12029== Invalid read of size 16
==12029==    at 0x104813EC: get_pixels_vsx (pixblockdsp.c:139)
==12029==    by 0x1023C77F: dnxhd_get_blocks (dnxhdenc.c:578)
==12029==    by 0x1023C77F: dnxhd_calc_bits_thread (dnxhdenc.c:619)
==12029==    by 0x43DC95B: start_thread (in /usr/lib64/libpthread-2.17.so)
==12029==    by 0x4563BBB: clone (in /usr/lib64/libc-2.17.so)
==12029==  Address 0x17ee1918 is 460,792 bytes inside a block of size 460,800 alloc'd
==12029==    at 0x4088C90: memalign (vg_replace_malloc.c:857)
==12029==    by 0x4088DFF: posix_memalign (vg_replace_malloc.c:1020)
==12029==    by 0x108B2F37: av_malloc (mem.c:71)
==12029==    by 0x1089F1A7: av_buffer_alloc (buffer.c:72)
==12029==    by 0x108AA0B3: get_video_buffer (frame.c:119)
==12029==    by 0x108AA0B3: av_frame_get_buffer (frame.c:196)
==12029==    by 0x1009CAA7: ff_default_get_video_buffer (video.c:55)
==12029==    by 0x1009CAA7: ff_get_video_buffer (video.c:73)
==12029==    by 0x1009CAA7: ff_null_get_video_buffer (video.c:33)
==12029==    by 0x1009CA33: ff_get_video_buffer (video.c:70)
==12029==    by 0x1009CA33: ff_null_get_video_buffer (video.c:33)
==12029==    by 0x1009CC8B: ff_get_video_buffer (video.c:70)
==12029==    by 0x10096B1F: filter_frame (vf_scale.c:276)
==12029==    by 0x1007E5A3: ff_filter_frame (avfilter.c:698)
==12029==    by 0x1007E5A3: default_filter_frame (avfilter.c:638)
==12029==    by 0x10080E23: ff_filter_frame (avfilter.c:698)
==12029==    by 0x10083613: request_frame (buffersrc.c:399)
==12029== 
==12029== Invalid read of size 16
==12029==    at 0x104813EC: get_pixels_vsx (pixblockdsp.c:139)
==12029==    by 0x1023C7AF: dnxhd_get_blocks (dnxhdenc.c:580)
==12029==    by 0x1023C7AF: dnxhd_calc_bits_thread (dnxhdenc.c:619)
==12029==    by 0x43DC95B: start_thread (in /usr/lib64/libpthread-2.17.so)
==12029==    by 0x4563BBB: clone (in /usr/lib64/libc-2.17.so)
==12029==  Address 0x17f521b8 is 460,792 bytes inside a block of size 460,800 alloc'd
==12029==    at 0x4088C90: memalign (vg_replace_malloc.c:857)
==12029==    by 0x4088DFF: posix_memalign (vg_replace_malloc.c:1020)
==12029==    by 0x108B2F37: av_malloc (mem.c:71)
==12029==    by 0x1089F1A7: av_buffer_alloc (buffer.c:72)
==12029==    by 0x108AA0B3: get_video_buffer (frame.c:119)
==12029==    by 0x108AA0B3: av_frame_get_buffer (frame.c:196)
==12029==    by 0x1009CAA7: ff_default_get_video_buffer (video.c:55)
==12029==    by 0x1009CAA7: ff_get_video_buffer (video.c:73)
==12029==    by 0x1009CAA7: ff_null_get_video_buffer (video.c:33)
==12029==    by 0x1009CA33: ff_get_video_buffer (video.c:70)
==12029==    by 0x1009CA33: ff_null_get_video_buffer (video.c:33)
==12029==    by 0x1009CC8B: ff_get_video_buffer (video.c:70)
==12029==    by 0x10096B1F: filter_frame (vf_scale.c:276)
==12029==    by 0x1007E5A3: ff_filter_frame (avfilter.c:698)
==12029==    by 0x1007E5A3: default_filter_frame (avfilter.c:638)
==12029==    by 0x10080E23: ff_filter_frame (avfilter.c:698)
==12029==    by 0x10083613: request_frame (buffersrc.c:399)
==12029== 
==12029== Thread 69:
==12029== Invalid read of size 16
==12029==    at 0x104813EC: get_pixels_vsx (pixblockdsp.c:139)
==12029==    by 0x1023BDF3: dnxhd_get_blocks (dnxhdenc.c:576)
==12029==    by 0x1023BDF3: dnxhd_encode_thread (dnxhdenc.c:674)
==12029==    by 0x43DC95B: start_thread (in /usr/lib64/libpthread-2.17.so)
==12029==    by 0x4563BBB: clone (in /usr/lib64/libc-2.17.so)
==12029==  Address 0x17e71078 is 921,592 bytes inside a block of size 921,600 alloc'd
==12029==    at 0x4088C90: memalign (vg_replace_malloc.c:857)
==12029==    by 0x4088DFF: posix_memalign (vg_replace_malloc.c:1020)
==12029==    by 0x108B2F37: av_malloc (mem.c:71)
==12029==    by 0x1089F1A7: av_buffer_alloc (buffer.c:72)
==12029==    by 0x108AA0B3: get_video_buffer (frame.c:119)
==12029==    by 0x108AA0B3: av_frame_get_buffer (frame.c:196)
==12029==    by 0x1009CAA7: ff_default_get_video_buffer (video.c:55)
==12029==    by 0x1009CAA7: ff_get_video_buffer (video.c:73)
==12029==    by 0x1009CAA7: ff_null_get_video_buffer (video.c:33)
==12029==    by 0x1009CA33: ff_get_video_buffer (video.c:70)
==12029==    by 0x1009CA33: ff_null_get_video_buffer (video.c:33)
==12029==    by 0x1009CC8B: ff_get_video_buffer (video.c:70)
==12029==    by 0x10096B1F: filter_frame (vf_scale.c:276)
==12029==    by 0x1007E5A3: ff_filter_frame (avfilter.c:698)
==12029==    by 0x1007E5A3: default_filter_frame (avfilter.c:638)
==12029==    by 0x10080E23: ff_filter_frame (avfilter.c:698)
==12029==    by 0x10083613: request_frame (buffersrc.c:399)
==12029== 
==12029== Invalid read of size 16
==12029==    at 0x104813EC: get_pixels_vsx (pixblockdsp.c:139)
==12029==    by 0x1023BE23: dnxhd_get_blocks (dnxhdenc.c:578)
==12029==    by 0x1023BE23: dnxhd_encode_thread (dnxhdenc.c:674)
==12029==    by 0x43DC95B: start_thread (in /usr/lib64/libpthread-2.17.so)
==12029==    by 0x4563BBB: clone (in /usr/lib64/libc-2.17.so)
==12029==  Address 0x17ee1918 is 460,792 bytes inside a block of size 460,800 alloc'd
==12029==    at 0x4088C90: memalign (vg_replace_malloc.c:857)
==12029==    by 0x4088DFF: posix_memalign (vg_replace_malloc.c:1020)
==12029==    by 0x108B2F37: av_malloc (mem.c:71)
==12029==    by 0x1089F1A7: av_buffer_alloc (buffer.c:72)
==12029==    by 0x108AA0B3: get_video_buffer (frame.c:119)
==12029==    by 0x108AA0B3: av_frame_get_buffer (frame.c:196)
==12029==    by 0x1009CAA7: ff_default_get_video_buffer (video.c:55)
==12029==    by 0x1009CAA7: ff_get_video_buffer (video.c:73)
==12029==    by 0x1009CAA7: ff_null_get_video_buffer (video.c:33)
==12029==    by 0x1009CA33: ff_get_video_buffer (video.c:70)
==12029==    by 0x1009CA33: ff_null_get_video_buffer (video.c:33)
==12029==    by 0x1009CC8B: ff_get_video_buffer (video.c:70)
==12029==    by 0x10096B1F: filter_frame (vf_scale.c:276)
==12029==    by 0x1007E5A3: ff_filter_frame (avfilter.c:698)
==12029==    by 0x1007E5A3: default_filter_frame (avfilter.c:638)
==12029==    by 0x10080E23: ff_filter_frame (avfilter.c:698)
==12029==    by 0x10083613: request_frame (buffersrc.c:399)
==12029== 
==12029== Invalid read of size 16
==12029==    at 0x104813EC: get_pixels_vsx (pixblockdsp.c:139)
==12029==    by 0x1023BE53: dnxhd_get_blocks (dnxhdenc.c:580)
==12029==    by 0x1023BE53: dnxhd_encode_thread (dnxhdenc.c:674)
==12029==    by 0x43DC95B: start_thread (in /usr/lib64/libpthread-2.17.so)
==12029==    by 0x4563BBB: clone (in /usr/lib64/libc-2.17.so)
==12029==  Address 0x17f521b8 is 460,792 bytes inside a block of size 460,800 alloc'd
==12029==    at 0x4088C90: memalign (vg_replace_malloc.c:857)
==12029==    by 0x4088DFF: posix_memalign (vg_replace_malloc.c:1020)
==12029==    by 0x108B2F37: av_malloc (mem.c:71)
==12029==    by 0x1089F1A7: av_buffer_alloc (buffer.c:72)
==12029==    by 0x108AA0B3: get_video_buffer (frame.c:119)
==12029==    by 0x108AA0B3: av_frame_get_buffer (frame.c:196)
==12029==    by 0x1009CAA7: ff_default_get_video_buffer (video.c:55)
==12029==    by 0x1009CAA7: ff_get_video_buffer (video.c:73)
==12029==    by 0x1009CAA7: ff_null_get_video_buffer (video.c:33)
==12029==    by 0x1009CA33: ff_get_video_buffer (video.c:70)
==12029==    by 0x1009CA33: ff_null_get_video_buffer (video.c:33)
==12029==    by 0x1009CC8B: ff_get_video_buffer (video.c:70)
==12029==    by 0x10096B1F: filter_frame (vf_scale.c:276)
==12029==    by 0x1007E5A3: ff_filter_frame (avfilter.c:698)
==12029==    by 0x1007E5A3: default_filter_frame (avfilter.c:638)
==12029==    by 0x10080E23: ff_filter_frame (avfilter.c:698)
==12029==    by 0x10083613: request_frame (buffersrc.c:399)
==12029== 
frame=    5 fps=  0 q=30.0 Lsize=    2240kB time=0.16 bitrate=114688.0kbits/s    
video:2240kB audio:0kB other streams:0kB global headers:0kB muxing overhead: 0.000000%
==12029== 
==12029== HEAP SUMMARY:
==12029==     in use at exit: 0 bytes in 0 blocks
==12029==   total heap usage: 1,790 allocs, 1,790 frees, 22,020,343 bytes allocated
==12029== 
==12029== All heap blocks were freed -- no leaks are possible
==12029== 
==12029== For counts of detected and suppressed errors, rerun with: -v
==12029== ERROR SUMMARY: 465 errors from 6 contexts (suppressed: 0 from 0)