ppc64-linux-gcc-valgrind v13_dev0-1248-g19388a7

Architectureppc
Variantppc64
CPUgeneric
OSlinux
Ownerkostylev
Compilergcc 5.4.0 (GCC)
Configuration--prefix=/home/mik/src/fate/ppc64-linux-gcc-valgrind/install --samples=/home/mik/src/fate/fate-suite --enable-gpl --cc=gcc-5 --target-exec='valgrind --leak-check=full --show-reachable=yes --error-exitcode=1 --malloc-fill=0x4a --undef-value-errors=no'
Commentvalgrind --undef-value-errors=no
Revisionv13_dev0-1248-g19388a7
Date2017-08-07 01:19:40
Status2104 / 2109
Warnings67
Logscompile configure test
5 failed testsStatusLast good rev
diffstderrsvq3-21n / a
--- /home/mik/src/fate/src/tests/ref/fate/svq3-2	2017-02-27 10:07:05.303380676 +0000
+++ tests/data/fate/svq3-2	2017-08-07 01:05:49.813484725 +0000
@@ -1,5 +1,5 @@
 #tb 0: 1/19200
-0,     -20000,     -20000,        0,   185280, 0x061c0d85
+0,     -20000,     -20000,        0,   185280, 0xc0bd953f
 0,     -19200,     -19200,        0,   185280, 0x427ef9a7
 0,     -18400,     -18400,        0,   185280, 0x64c74d6a
 0,     -17600,     -17600,        0,   185280, 0x5bfd0e5b
==20436== Memcheck, a memory error detector
==20436== Copyright (C) 2002-2015, and GNU GPL'd, by Julian Seward et al.
==20436== Using Valgrind-3.12.0.SVN and LibVEX; rerun with -h for copyright info
==20436== Command: /home/mik/src/fate/ppc64-linux-gcc-valgrind/build/avconv -nostats -cpuflags all -flags +bitexact -hwaccel none -threads 1 -thread_type frame+slice -i /home/mik/src/fate/fate-suite/svq3/svq3_decoding_regression.mov -an -f framecrc -
==20436== 
avconv version v13_dev0-1248-g19388a7, Copyright (c) 2000-2017 the Libav developers
  built on Aug  7 2017 00:53:48 with gcc 5.4.0 (GCC)
Input #0, mov,mp4,m4a,3gp,3g2,mj2, from '/home/mik/src/fate/fate-suite/svq3/svq3_decoding_regression.mov':
  Metadata:
    major_brand     : qt  
    minor_version   : 512
    compatible_brands: qt  
    artist          : Mark Strube - SupaDupaStrube@msn.com
    artist-eng      : Mark Strube - SupaDupaStrube@msn.com
    title           : Movie-List Presents: The Abyss
    title-eng       : Movie-List Presents: The Abyss
    encoder         : Lavf57.66.101
    copyright       : © 1989 Twentieth Century Fox
    copyright-eng   : © 1989 Twentieth Century Fox
  Duration: 00:00:00.83, bitrate: 2376 kb/s
    Stream #0:0(eng): Video: svq3 [SVQ3 / 0x33515653]
      yuvj420p, pc, 480x257, 2366 kb/s
      24 fps, 19200 tbn (default)
    Metadata:
      handler_name    : DataHandler
      encoder         : Sorenson Video 3
Stream mapping:
  Stream #0:0 -> #0:0 (svq3 (native) -> rawvideo (native))
Press ctrl-c to stop encoding
[svq3 @ 0x46d7660] Missing reference frame.
Output #0, framecrc, to 'pipe:':
  Metadata:
    major_brand     : qt  
    minor_version   : 512
    compatible_brands: qt  
    artist          : Mark Strube - SupaDupaStrube@msn.com
    artist-eng      : Mark Strube - SupaDupaStrube@msn.com
    title           : Movie-List Presents: The Abyss
    title-eng       : Movie-List Presents: The Abyss
    copyright-eng   : © 1989 Twentieth Century Fox
    copyright       : © 1989 Twentieth Century Fox
    encoder         : Lavf58.0.0
    Stream #0:0(eng): Video: rawvideo [I420 / 0x30323449]
      yuvj420p, 480x257, q=2-31, 200 kb/s
      19200 tbn (default)
    Metadata:
      handler_name    : DataHandler
      encoder         : Sorenson Video 3
*** dropping frame 19 from stream 0 at ts -6400
frame=   19 fps=  0 q=-0.0 Lsize=       1kB time=10000000000.00 bitrate=   0.0kbits/s drop=1    
video:3438kB audio:0kB other streams:0kB global headers:0kB muxing overhead: unknown
==20436== 
==20436== HEAP SUMMARY:
==20436==     in use at exit: 0 bytes in 0 blocks
==20436==   total heap usage: 1,668 allocs, 1,668 frees, 8,659,482 bytes allocated
==20436== 
==20436== All heap blocks were freed -- no leaks are possible
==20436== 
==20436== For counts of detected and suppressed errors, rerun with: -v
==20436== ERROR SUMMARY: 0 errors from 0 contexts (suppressed: 0 from 0)
diffstderrvsynth1-dnxhd-720p1v12_dev0-1345-g0181ae9
--- /home/mik/src/fate/src/tests/ref/vsynth/vsynth1-dnxhd-720p	2014-01-10 11:16:55.734697630 +0000
+++ tests/data/fate/vsynth1-dnxhd-720p	2017-08-07 01:13:41.754381411 +0000
@@ -1,4 +0,0 @@
-81f5be451dc18cf8a1d333c7885de60b *tests/data/fate/vsynth1-dnxhd-720p.dnxhd
-2293760 tests/data/fate/vsynth1-dnxhd-720p.dnxhd
-94b21e5e68ccf9471eff74afd0ebe319 *tests/data/fate/vsynth1-dnxhd-720p.out.rawvideo
-stddev:    6.32 PSNR: 32.11 MAXDIFF:  183 bytes:  7603200/   760320
==51822== Memcheck, a memory error detector
==51822== Copyright (C) 2002-2015, and GNU GPL'd, by Julian Seward et al.
==51822== Using Valgrind-3.12.0.SVN and LibVEX; rerun with -h for copyright info
==51822== Command: /home/mik/src/fate/ppc64-linux-gcc-valgrind/build/avconv -nostats -cpuflags all -f rawvideo -s 352x288 -pix_fmt yuv420p -threads 1 -idct simple -flags +bitexact -sws_flags +accurate_rnd+bitexact -fflags +bitexact -hwaccel none -threads 1 -thread_type frame+slice -i /home/mik/src/fate/ppc64-linux-gcc-valgrind/build/tests/data/vsynth1.yuv -threads 1 -idct simple -dct fastint -c dnxhd -s hd720 -b 90M -pix_fmt yuv422p -frames 5 -flags +bitexact -sws_flags +accurate_rnd+bitexact -fflags +bitexact -f dnxhd -y /home/mik/src/fate/ppc64-linux-gcc-valgrind/build/tests/data/fate/vsynth1-dnxhd-720p.dnxhd
==51822== 
avconv version v13_dev0-1248-g19388a7, Copyright (c) 2000-2017 the Libav developers
  built on Aug  7 2017 00:53:48 with gcc 5.4.0 (GCC)
[rawvideo @ 0x467ae20] Estimating duration from bitrate, this may be inaccurate
Input #0, rawvideo, from '/home/mik/src/fate/ppc64-linux-gcc-valgrind/build/tests/data/vsynth1.yuv':
  Duration: N/A, start: 0.000000, bitrate: N/A
    Stream #0:0: Video: rawvideo
      yuv420p, 352x288
      25 fps, 25 tbn
Stream mapping:
  Stream #0:0 -> #0:0 (rawvideo (native) -> dnxhd (native))
Press ctrl-c to stop encoding
Output #0, dnxhd, to '/home/mik/src/fate/ppc64-linux-gcc-valgrind/build/tests/data/fate/vsynth1-dnxhd-720p.dnxhd':
    Stream #0:0: Video: dnxhd
      yuv422p, 1280x720, q=2-31, 90000 kb/s
      25 tbn
    Metadata:
      encoder         : dnxhd
==51822== Invalid read of size 16
==51822==    at 0x1047C36C: get_pixels_vsx (pixblockdsp.c:139)
==51822==    by 0x1023A68F: dnxhd_get_blocks (dnxhdenc.c:576)
==51822==    by 0x1023A68F: dnxhd_calc_bits_thread (dnxhdenc.c:619)
==51822==    by 0x1023B5F3: dnxhd_find_qscale (dnxhdenc.c:866)
==51822==    by 0x1023B5F3: dnxhd_encode_fast (dnxhdenc.c:969)
==51822==    by 0x1023B5F3: dnxhd_encode_picture (dnxhdenc.c:1055)
==51822==    by 0x102611C3: avcodec_encode_video2 (encode.c:227)
==51822==    by 0x102613E3: do_encode (encode.c:274)
==51822==    by 0x1026164F: avcodec_send_frame (encode.c:323)
==51822==    by 0x100755D7: do_video_out (avconv.c:587)
==51822==    by 0x100755D7: poll_filter (avconv.c:726)
==51822==    by 0x10075DAF: poll_filters (avconv.c:800)
==51822==    by 0x1005D12B: transcode (avconv.c:2771)
==51822==    by 0x1005D12B: main (avconv.c:2940)
==51822==  Address 0x16e31078 is 921,592 bytes inside a block of size 921,600 alloc'd
==51822==    at 0x4088C90: memalign (vg_replace_malloc.c:857)
==51822==    by 0x4088DFF: posix_memalign (vg_replace_malloc.c:1020)
==51822==    by 0x10888BB7: av_malloc (mem.c:71)
==51822==    by 0x10874DC7: av_buffer_alloc (buffer.c:72)
==51822==    by 0x1087FD33: get_video_buffer (frame.c:119)
==51822==    by 0x1087FD33: av_frame_get_buffer (frame.c:196)
==51822==    by 0x1009A917: ff_default_get_video_buffer (video.c:55)
==51822==    by 0x1009A917: ff_get_video_buffer (video.c:73)
==51822==    by 0x1009A917: ff_null_get_video_buffer (video.c:33)
==51822==    by 0x1009A8A3: ff_get_video_buffer (video.c:70)
==51822==    by 0x1009A8A3: ff_null_get_video_buffer (video.c:33)
==51822==    by 0x1009AAFB: ff_get_video_buffer (video.c:70)
==51822==    by 0x10094D5F: filter_frame (vf_scale.c:276)
==51822==    by 0x1007C803: ff_filter_frame (avfilter.c:698)
==51822==    by 0x1007C803: default_filter_frame (avfilter.c:638)
==51822==    by 0x1007F083: ff_filter_frame (avfilter.c:698)
==51822==    by 0x10081873: request_frame (buffersrc.c:399)
==51822== 
==51822== Invalid read of size 16
==51822==    at 0x1047C36C: get_pixels_vsx (pixblockdsp.c:139)
==51822==    by 0x1023A6BF: dnxhd_get_blocks (dnxhdenc.c:578)
==51822==    by 0x1023A6BF: dnxhd_calc_bits_thread (dnxhdenc.c:619)
==51822==    by 0x1023B5F3: dnxhd_find_qscale (dnxhdenc.c:866)
==51822==    by 0x1023B5F3: dnxhd_encode_fast (dnxhdenc.c:969)
==51822==    by 0x1023B5F3: dnxhd_encode_picture (dnxhdenc.c:1055)
==51822==    by 0x102611C3: avcodec_encode_video2 (encode.c:227)
==51822==    by 0x102613E3: do_encode (encode.c:274)
==51822==    by 0x1026164F: avcodec_send_frame (encode.c:323)
==51822==    by 0x100755D7: do_video_out (avconv.c:587)
==51822==    by 0x100755D7: poll_filter (avconv.c:726)
==51822==    by 0x10075DAF: poll_filters (avconv.c:800)
==51822==    by 0x1005D12B: transcode (avconv.c:2771)
==51822==    by 0x1005D12B: main (avconv.c:2940)
==51822==  Address 0x16ea1918 is 460,792 bytes inside a block of size 460,800 alloc'd
==51822==    at 0x4088C90: memalign (vg_replace_malloc.c:857)
==51822==    by 0x4088DFF: posix_memalign (vg_replace_malloc.c:1020)
==51822==    by 0x10888BB7: av_malloc (mem.c:71)
==51822==    by 0x10874DC7: av_buffer_alloc (buffer.c:72)
==51822==    by 0x1087FD33: get_video_buffer (frame.c:119)
==51822==    by 0x1087FD33: av_frame_get_buffer (frame.c:196)
==51822==    by 0x1009A917: ff_default_get_video_buffer (video.c:55)
==51822==    by 0x1009A917: ff_get_video_buffer (video.c:73)
==51822==    by 0x1009A917: ff_null_get_video_buffer (video.c:33)
==51822==    by 0x1009A8A3: ff_get_video_buffer (video.c:70)
==51822==    by 0x1009A8A3: ff_null_get_video_buffer (video.c:33)
==51822==    by 0x1009AAFB: ff_get_video_buffer (video.c:70)
==51822==    by 0x10094D5F: filter_frame (vf_scale.c:276)
==51822==    by 0x1007C803: ff_filter_frame (avfilter.c:698)
==51822==    by 0x1007C803: default_filter_frame (avfilter.c:638)
==51822==    by 0x1007F083: ff_filter_frame (avfilter.c:698)
==51822==    by 0x10081873: request_frame (buffersrc.c:399)
==51822== 
==51822== Invalid read of size 16
==51822==    at 0x1047C36C: get_pixels_vsx (pixblockdsp.c:139)
==51822==    by 0x1023A6EF: dnxhd_get_blocks (dnxhdenc.c:580)
==51822==    by 0x1023A6EF: dnxhd_calc_bits_thread (dnxhdenc.c:619)
==51822==    by 0x1023B5F3: dnxhd_find_qscale (dnxhdenc.c:866)
==51822==    by 0x1023B5F3: dnxhd_encode_fast (dnxhdenc.c:969)
==51822==    by 0x1023B5F3: dnxhd_encode_picture (dnxhdenc.c:1055)
==51822==    by 0x102611C3: avcodec_encode_video2 (encode.c:227)
==51822==    by 0x102613E3: do_encode (encode.c:274)
==51822==    by 0x1026164F: avcodec_send_frame (encode.c:323)
==51822==    by 0x100755D7: do_video_out (avconv.c:587)
==51822==    by 0x100755D7: poll_filter (avconv.c:726)
==51822==    by 0x10075DAF: poll_filters (avconv.c:800)
==51822==    by 0x1005D12B: transcode (avconv.c:2771)
==51822==    by 0x1005D12B: main (avconv.c:2940)
==51822==  Address 0x16f121b8 is 460,792 bytes inside a block of size 460,800 alloc'd
==51822==    at 0x4088C90: memalign (vg_replace_malloc.c:857)
==51822==    by 0x4088DFF: posix_memalign (vg_replace_malloc.c:1020)
==51822==    by 0x10888BB7: av_malloc (mem.c:71)
==51822==    by 0x10874DC7: av_buffer_alloc (buffer.c:72)
==51822==    by 0x1087FD33: get_video_buffer (frame.c:119)
==51822==    by 0x1087FD33: av_frame_get_buffer (frame.c:196)
==51822==    by 0x1009A917: ff_default_get_video_buffer (video.c:55)
==51822==    by 0x1009A917: ff_get_video_buffer (video.c:73)
==51822==    by 0x1009A917: ff_null_get_video_buffer (video.c:33)
==51822==    by 0x1009A8A3: ff_get_video_buffer (video.c:70)
==51822==    by 0x1009A8A3: ff_null_get_video_buffer (video.c:33)
==51822==    by 0x1009AAFB: ff_get_video_buffer (video.c:70)
==51822==    by 0x10094D5F: filter_frame (vf_scale.c:276)
==51822==    by 0x1007C803: ff_filter_frame (avfilter.c:698)
==51822==    by 0x1007C803: default_filter_frame (avfilter.c:638)
==51822==    by 0x1007F083: ff_filter_frame (avfilter.c:698)
==51822==    by 0x10081873: request_frame (buffersrc.c:399)
==51822== 
==51822== Invalid read of size 16
==51822==    at 0x1047C36C: get_pixels_vsx (pixblockdsp.c:139)
==51822==    by 0x10239D33: dnxhd_get_blocks (dnxhdenc.c:576)
==51822==    by 0x10239D33: dnxhd_encode_thread (dnxhdenc.c:674)
==51822==    by 0x1023BD2F: dnxhd_encode_picture (dnxhdenc.c:1071)
==51822==    by 0x102611C3: avcodec_encode_video2 (encode.c:227)
==51822==    by 0x102613E3: do_encode (encode.c:274)
==51822==    by 0x1026164F: avcodec_send_frame (encode.c:323)
==51822==    by 0x100755D7: do_video_out (avconv.c:587)
==51822==    by 0x100755D7: poll_filter (avconv.c:726)
==51822==    by 0x10075DAF: poll_filters (avconv.c:800)
==51822==    by 0x1005D12B: transcode (avconv.c:2771)
==51822==    by 0x1005D12B: main (avconv.c:2940)
==51822==  Address 0x16e31078 is 921,592 bytes inside a block of size 921,600 alloc'd
==51822==    at 0x4088C90: memalign (vg_replace_malloc.c:857)
==51822==    by 0x4088DFF: posix_memalign (vg_replace_malloc.c:1020)
==51822==    by 0x10888BB7: av_malloc (mem.c:71)
==51822==    by 0x10874DC7: av_buffer_alloc (buffer.c:72)
==51822==    by 0x1087FD33: get_video_buffer (frame.c:119)
==51822==    by 0x1087FD33: av_frame_get_buffer (frame.c:196)
==51822==    by 0x1009A917: ff_default_get_video_buffer (video.c:55)
==51822==    by 0x1009A917: ff_get_video_buffer (video.c:73)
==51822==    by 0x1009A917: ff_null_get_video_buffer (video.c:33)
==51822==    by 0x1009A8A3: ff_get_video_buffer (video.c:70)
==51822==    by 0x1009A8A3: ff_null_get_video_buffer (video.c:33)
==51822==    by 0x1009AAFB: ff_get_video_buffer (video.c:70)
==51822==    by 0x10094D5F: filter_frame (vf_scale.c:276)
==51822==    by 0x1007C803: ff_filter_frame (avfilter.c:698)
==51822==    by 0x1007C803: default_filter_frame (avfilter.c:638)
==51822==    by 0x1007F083: ff_filter_frame (avfilter.c:698)
==51822==    by 0x10081873: request_frame (buffersrc.c:399)
==51822== 
==51822== Invalid read of size 16
==51822==    at 0x1047C36C: get_pixels_vsx (pixblockdsp.c:139)
==51822==    by 0x10239D63: dnxhd_get_blocks (dnxhdenc.c:578)
==51822==    by 0x10239D63: dnxhd_encode_thread (dnxhdenc.c:674)
==51822==    by 0x1023BD2F: dnxhd_encode_picture (dnxhdenc.c:1071)
==51822==    by 0x102611C3: avcodec_encode_video2 (encode.c:227)
==51822==    by 0x102613E3: do_encode (encode.c:274)
==51822==    by 0x1026164F: avcodec_send_frame (encode.c:323)
==51822==    by 0x100755D7: do_video_out (avconv.c:587)
==51822==    by 0x100755D7: poll_filter (avconv.c:726)
==51822==    by 0x10075DAF: poll_filters (avconv.c:800)
==51822==    by 0x1005D12B: transcode (avconv.c:2771)
==51822==    by 0x1005D12B: main (avconv.c:2940)
==51822==  Address 0x16ea1918 is 460,792 bytes inside a block of size 460,800 alloc'd
==51822==    at 0x4088C90: memalign (vg_replace_malloc.c:857)
==51822==    by 0x4088DFF: posix_memalign (vg_replace_malloc.c:1020)
==51822==    by 0x10888BB7: av_malloc (mem.c:71)
==51822==    by 0x10874DC7: av_buffer_alloc (buffer.c:72)
==51822==    by 0x1087FD33: get_video_buffer (frame.c:119)
==51822==    by 0x1087FD33: av_frame_get_buffer (frame.c:196)
==51822==    by 0x1009A917: ff_default_get_video_buffer (video.c:55)
==51822==    by 0x1009A917: ff_get_video_buffer (video.c:73)
==51822==    by 0x1009A917: ff_null_get_video_buffer (video.c:33)
==51822==    by 0x1009A8A3: ff_get_video_buffer (video.c:70)
==51822==    by 0x1009A8A3: ff_null_get_video_buffer (video.c:33)
==51822==    by 0x1009AAFB: ff_get_video_buffer (video.c:70)
==51822==    by 0x10094D5F: filter_frame (vf_scale.c:276)
==51822==    by 0x1007C803: ff_filter_frame (avfilter.c:698)
==51822==    by 0x1007C803: default_filter_frame (avfilter.c:638)
==51822==    by 0x1007F083: ff_filter_frame (avfilter.c:698)
==51822==    by 0x10081873: request_frame (buffersrc.c:399)
==51822== 
==51822== Invalid read of size 16
==51822==    at 0x1047C36C: get_pixels_vsx (pixblockdsp.c:139)
==51822==    by 0x10239D93: dnxhd_get_blocks (dnxhdenc.c:580)
==51822==    by 0x10239D93: dnxhd_encode_thread (dnxhdenc.c:674)
==51822==    by 0x1023BD2F: dnxhd_encode_picture (dnxhdenc.c:1071)
==51822==    by 0x102611C3: avcodec_encode_video2 (encode.c:227)
==51822==    by 0x102613E3: do_encode (encode.c:274)
==51822==    by 0x1026164F: avcodec_send_frame (encode.c:323)
==51822==    by 0x100755D7: do_video_out (avconv.c:587)
==51822==    by 0x100755D7: poll_filter (avconv.c:726)
==51822==    by 0x10075DAF: poll_filters (avconv.c:800)
==51822==    by 0x1005D12B: transcode (avconv.c:2771)
==51822==    by 0x1005D12B: main (avconv.c:2940)
==51822==  Address 0x16f121b8 is 460,792 bytes inside a block of size 460,800 alloc'd
==51822==    at 0x4088C90: memalign (vg_replace_malloc.c:857)
==51822==    by 0x4088DFF: posix_memalign (vg_replace_malloc.c:1020)
==51822==    by 0x10888BB7: av_malloc (mem.c:71)
==51822==    by 0x10874DC7: av_buffer_alloc (buffer.c:72)
==51822==    by 0x1087FD33: get_video_buffer (frame.c:119)
==51822==    by 0x1087FD33: av_frame_get_buffer (frame.c:196)
==51822==    by 0x1009A917: ff_default_get_video_buffer (video.c:55)
==51822==    by 0x1009A917: ff_get_video_buffer (video.c:73)
==51822==    by 0x1009A917: ff_null_get_video_buffer (video.c:33)
==51822==    by 0x1009A8A3: ff_get_video_buffer (video.c:70)
==51822==    by 0x1009A8A3: ff_null_get_video_buffer (video.c:33)
==51822==    by 0x1009AAFB: ff_get_video_buffer (video.c:70)
==51822==    by 0x10094D5F: filter_frame (vf_scale.c:276)
==51822==    by 0x1007C803: ff_filter_frame (avfilter.c:698)
==51822==    by 0x1007C803: default_filter_frame (avfilter.c:638)
==51822==    by 0x1007F083: ff_filter_frame (avfilter.c:698)
==51822==    by 0x10081873: request_frame (buffersrc.c:399)
==51822== 
frame=    5 fps=  0 q=1.0 Lsize=    2240kB time=0.16 bitrate=114688.0kbits/s    
video:2240kB audio:0kB other streams:0kB global headers:0kB muxing overhead: 0.000000%
==51822== 
==51822== HEAP SUMMARY:
==51822==     in use at exit: 0 bytes in 0 blocks
==51822==   total heap usage: 1,770 allocs, 1,770 frees, 22,137,447 bytes allocated
==51822== 
==51822== All heap blocks were freed -- no leaks are possible
==51822== 
==51822== For counts of detected and suppressed errors, rerun with: -v
==51822== ERROR SUMMARY: 45 errors from 6 contexts (suppressed: 0 from 0)
diffstderrvsynth1-dnxhd-720p-rd1v12_dev0-1345-g0181ae9
--- /home/mik/src/fate/src/tests/ref/vsynth/vsynth1-dnxhd-720p-rd	2014-01-10 11:16:55.734697630 +0000
+++ tests/data/fate/vsynth1-dnxhd-720p-rd	2017-08-07 01:13:42.524382874 +0000
@@ -1,4 +0,0 @@
-1dc6e95925c4f3a230848ec17c02abed *tests/data/fate/vsynth1-dnxhd-720p-rd.dnxhd
-2293760 tests/data/fate/vsynth1-dnxhd-720p-rd.dnxhd
-02972d2aec120ec1577ec9053d68ae0f *tests/data/fate/vsynth1-dnxhd-720p-rd.out.rawvideo
-stddev:    6.26 PSNR: 32.19 MAXDIFF:   65 bytes:  7603200/   760320
==52041== Memcheck, a memory error detector
==52041== Copyright (C) 2002-2015, and GNU GPL'd, by Julian Seward et al.
==52041== Using Valgrind-3.12.0.SVN and LibVEX; rerun with -h for copyright info
==52041== Command: /home/mik/src/fate/ppc64-linux-gcc-valgrind/build/avconv -nostats -cpuflags all -f rawvideo -s 352x288 -pix_fmt yuv420p -threads 1 -idct simple -flags +bitexact -sws_flags +accurate_rnd+bitexact -fflags +bitexact -hwaccel none -threads 1 -thread_type frame+slice -i /home/mik/src/fate/ppc64-linux-gcc-valgrind/build/tests/data/vsynth1.yuv -threads 1 -idct simple -dct fastint -c dnxhd -s hd720 -b 90M -threads 4 -mbd rd -pix_fmt yuv422p -frames 5 -flags +bitexact -sws_flags +accurate_rnd+bitexact -fflags +bitexact -f dnxhd -y /home/mik/src/fate/ppc64-linux-gcc-valgrind/build/tests/data/fate/vsynth1-dnxhd-720p-rd.dnxhd
==52041== 
avconv version v13_dev0-1248-g19388a7, Copyright (c) 2000-2017 the Libav developers
  built on Aug  7 2017 00:53:48 with gcc 5.4.0 (GCC)
[rawvideo @ 0x467aec0] Estimating duration from bitrate, this may be inaccurate
Input #0, rawvideo, from '/home/mik/src/fate/ppc64-linux-gcc-valgrind/build/tests/data/vsynth1.yuv':
  Duration: N/A, start: 0.000000, bitrate: N/A
    Stream #0:0: Video: rawvideo
      yuv420p, 352x288
      25 fps, 25 tbn
Stream mapping:
  Stream #0:0 -> #0:0 (rawvideo (native) -> dnxhd (native))
Press ctrl-c to stop encoding
Output #0, dnxhd, to '/home/mik/src/fate/ppc64-linux-gcc-valgrind/build/tests/data/fate/vsynth1-dnxhd-720p-rd.dnxhd':
    Stream #0:0: Video: dnxhd
      yuv422p, 1280x720, q=2-31, 90000 kb/s
      25 tbn
    Metadata:
      encoder         : dnxhd
==52041== Thread 67:
==52041== Invalid read of size 16
==52041==    at 0x1047C36C: get_pixels_vsx (pixblockdsp.c:139)
==52041==    by 0x1023A68F: dnxhd_get_blocks (dnxhdenc.c:576)
==52041==    by 0x1023A68F: dnxhd_calc_bits_thread (dnxhdenc.c:619)
==52041==    by 0x43BC327: start_thread (in /usr/lib64/libpthread-2.18.so)
==52041==    by 0x451DC6F: clone (in /usr/lib64/libc-2.18.so)
==52041==  Address 0x17e31078 is 921,592 bytes inside a block of size 921,600 alloc'd
==52041==    at 0x4088C90: memalign (vg_replace_malloc.c:857)
==52041==    by 0x4088DFF: posix_memalign (vg_replace_malloc.c:1020)
==52041==    by 0x10888BB7: av_malloc (mem.c:71)
==52041==    by 0x10874DC7: av_buffer_alloc (buffer.c:72)
==52041==    by 0x1087FD33: get_video_buffer (frame.c:119)
==52041==    by 0x1087FD33: av_frame_get_buffer (frame.c:196)
==52041==    by 0x1009A917: ff_default_get_video_buffer (video.c:55)
==52041==    by 0x1009A917: ff_get_video_buffer (video.c:73)
==52041==    by 0x1009A917: ff_null_get_video_buffer (video.c:33)
==52041==    by 0x1009A8A3: ff_get_video_buffer (video.c:70)
==52041==    by 0x1009A8A3: ff_null_get_video_buffer (video.c:33)
==52041==    by 0x1009AAFB: ff_get_video_buffer (video.c:70)
==52041==    by 0x10094D5F: filter_frame (vf_scale.c:276)
==52041==    by 0x1007C803: ff_filter_frame (avfilter.c:698)
==52041==    by 0x1007C803: default_filter_frame (avfilter.c:638)
==52041==    by 0x1007F083: ff_filter_frame (avfilter.c:698)
==52041==    by 0x10081873: request_frame (buffersrc.c:399)
==52041== 
==52041== Invalid read of size 16
==52041==    at 0x1047C36C: get_pixels_vsx (pixblockdsp.c:139)
==52041==    by 0x1023A6BF: dnxhd_get_blocks (dnxhdenc.c:578)
==52041==    by 0x1023A6BF: dnxhd_calc_bits_thread (dnxhdenc.c:619)
==52041==    by 0x43BC327: start_thread (in /usr/lib64/libpthread-2.18.so)
==52041==    by 0x451DC6F: clone (in /usr/lib64/libc-2.18.so)
==52041==  Address 0x17ea1918 is 460,792 bytes inside a block of size 460,800 alloc'd
==52041==    at 0x4088C90: memalign (vg_replace_malloc.c:857)
==52041==    by 0x4088DFF: posix_memalign (vg_replace_malloc.c:1020)
==52041==    by 0x10888BB7: av_malloc (mem.c:71)
==52041==    by 0x10874DC7: av_buffer_alloc (buffer.c:72)
==52041==    by 0x1087FD33: get_video_buffer (frame.c:119)
==52041==    by 0x1087FD33: av_frame_get_buffer (frame.c:196)
==52041==    by 0x1009A917: ff_default_get_video_buffer (video.c:55)
==52041==    by 0x1009A917: ff_get_video_buffer (video.c:73)
==52041==    by 0x1009A917: ff_null_get_video_buffer (video.c:33)
==52041==    by 0x1009A8A3: ff_get_video_buffer (video.c:70)
==52041==    by 0x1009A8A3: ff_null_get_video_buffer (video.c:33)
==52041==    by 0x1009AAFB: ff_get_video_buffer (video.c:70)
==52041==    by 0x10094D5F: filter_frame (vf_scale.c:276)
==52041==    by 0x1007C803: ff_filter_frame (avfilter.c:698)
==52041==    by 0x1007C803: default_filter_frame (avfilter.c:638)
==52041==    by 0x1007F083: ff_filter_frame (avfilter.c:698)
==52041==    by 0x10081873: request_frame (buffersrc.c:399)
==52041== 
==52041== Invalid read of size 16
==52041==    at 0x1047C36C: get_pixels_vsx (pixblockdsp.c:139)
==52041==    by 0x1023A6EF: dnxhd_get_blocks (dnxhdenc.c:580)
==52041==    by 0x1023A6EF: dnxhd_calc_bits_thread (dnxhdenc.c:619)
==52041==    by 0x43BC327: start_thread (in /usr/lib64/libpthread-2.18.so)
==52041==    by 0x451DC6F: clone (in /usr/lib64/libc-2.18.so)
==52041==  Address 0x17f121b8 is 460,792 bytes inside a block of size 460,800 alloc'd
==52041==    at 0x4088C90: memalign (vg_replace_malloc.c:857)
==52041==    by 0x4088DFF: posix_memalign (vg_replace_malloc.c:1020)
==52041==    by 0x10888BB7: av_malloc (mem.c:71)
==52041==    by 0x10874DC7: av_buffer_alloc (buffer.c:72)
==52041==    by 0x1087FD33: get_video_buffer (frame.c:119)
==52041==    by 0x1087FD33: av_frame_get_buffer (frame.c:196)
==52041==    by 0x1009A917: ff_default_get_video_buffer (video.c:55)
==52041==    by 0x1009A917: ff_get_video_buffer (video.c:73)
==52041==    by 0x1009A917: ff_null_get_video_buffer (video.c:33)
==52041==    by 0x1009A8A3: ff_get_video_buffer (video.c:70)
==52041==    by 0x1009A8A3: ff_null_get_video_buffer (video.c:33)
==52041==    by 0x1009AAFB: ff_get_video_buffer (video.c:70)
==52041==    by 0x10094D5F: filter_frame (vf_scale.c:276)
==52041==    by 0x1007C803: ff_filter_frame (avfilter.c:698)
==52041==    by 0x1007C803: default_filter_frame (avfilter.c:638)
==52041==    by 0x1007F083: ff_filter_frame (avfilter.c:698)
==52041==    by 0x10081873: request_frame (buffersrc.c:399)
==52041== 
==52041== Thread 68:
==52041== Invalid read of size 16
==52041==    at 0x1047C36C: get_pixels_vsx (pixblockdsp.c:139)
==52041==    by 0x10239D33: dnxhd_get_blocks (dnxhdenc.c:576)
==52041==    by 0x10239D33: dnxhd_encode_thread (dnxhdenc.c:674)
==52041==    by 0x43BC327: start_thread (in /usr/lib64/libpthread-2.18.so)
==52041==    by 0x451DC6F: clone (in /usr/lib64/libc-2.18.so)
==52041==  Address 0x17e31078 is 921,592 bytes inside a block of size 921,600 alloc'd
==52041==    at 0x4088C90: memalign (vg_replace_malloc.c:857)
==52041==    by 0x4088DFF: posix_memalign (vg_replace_malloc.c:1020)
==52041==    by 0x10888BB7: av_malloc (mem.c:71)
==52041==    by 0x10874DC7: av_buffer_alloc (buffer.c:72)
==52041==    by 0x1087FD33: get_video_buffer (frame.c:119)
==52041==    by 0x1087FD33: av_frame_get_buffer (frame.c:196)
==52041==    by 0x1009A917: ff_default_get_video_buffer (video.c:55)
==52041==    by 0x1009A917: ff_get_video_buffer (video.c:73)
==52041==    by 0x1009A917: ff_null_get_video_buffer (video.c:33)
==52041==    by 0x1009A8A3: ff_get_video_buffer (video.c:70)
==52041==    by 0x1009A8A3: ff_null_get_video_buffer (video.c:33)
==52041==    by 0x1009AAFB: ff_get_video_buffer (video.c:70)
==52041==    by 0x10094D5F: filter_frame (vf_scale.c:276)
==52041==    by 0x1007C803: ff_filter_frame (avfilter.c:698)
==52041==    by 0x1007C803: default_filter_frame (avfilter.c:638)
==52041==    by 0x1007F083: ff_filter_frame (avfilter.c:698)
==52041==    by 0x10081873: request_frame (buffersrc.c:399)
==52041== 
==52041== Invalid read of size 16
==52041==    at 0x1047C36C: get_pixels_vsx (pixblockdsp.c:139)
==52041==    by 0x10239D63: dnxhd_get_blocks (dnxhdenc.c:578)
==52041==    by 0x10239D63: dnxhd_encode_thread (dnxhdenc.c:674)
==52041==    by 0x43BC327: start_thread (in /usr/lib64/libpthread-2.18.so)
==52041==    by 0x451DC6F: clone (in /usr/lib64/libc-2.18.so)
==52041==  Address 0x17ea1918 is 460,792 bytes inside a block of size 460,800 alloc'd
==52041==    at 0x4088C90: memalign (vg_replace_malloc.c:857)
==52041==    by 0x4088DFF: posix_memalign (vg_replace_malloc.c:1020)
==52041==    by 0x10888BB7: av_malloc (mem.c:71)
==52041==    by 0x10874DC7: av_buffer_alloc (buffer.c:72)
==52041==    by 0x1087FD33: get_video_buffer (frame.c:119)
==52041==    by 0x1087FD33: av_frame_get_buffer (frame.c:196)
==52041==    by 0x1009A917: ff_default_get_video_buffer (video.c:55)
==52041==    by 0x1009A917: ff_get_video_buffer (video.c:73)
==52041==    by 0x1009A917: ff_null_get_video_buffer (video.c:33)
==52041==    by 0x1009A8A3: ff_get_video_buffer (video.c:70)
==52041==    by 0x1009A8A3: ff_null_get_video_buffer (video.c:33)
==52041==    by 0x1009AAFB: ff_get_video_buffer (video.c:70)
==52041==    by 0x10094D5F: filter_frame (vf_scale.c:276)
==52041==    by 0x1007C803: ff_filter_frame (avfilter.c:698)
==52041==    by 0x1007C803: default_filter_frame (avfilter.c:638)
==52041==    by 0x1007F083: ff_filter_frame (avfilter.c:698)
==52041==    by 0x10081873: request_frame (buffersrc.c:399)
==52041== 
==52041== Invalid read of size 16
==52041==    at 0x1047C36C: get_pixels_vsx (pixblockdsp.c:139)
==52041==    by 0x10239D93: dnxhd_get_blocks (dnxhdenc.c:580)
==52041==    by 0x10239D93: dnxhd_encode_thread (dnxhdenc.c:674)
==52041==    by 0x43BC327: start_thread (in /usr/lib64/libpthread-2.18.so)
==52041==    by 0x451DC6F: clone (in /usr/lib64/libc-2.18.so)
==52041==  Address 0x17f121b8 is 460,792 bytes inside a block of size 460,800 alloc'd
==52041==    at 0x4088C90: memalign (vg_replace_malloc.c:857)
==52041==    by 0x4088DFF: posix_memalign (vg_replace_malloc.c:1020)
==52041==    by 0x10888BB7: av_malloc (mem.c:71)
==52041==    by 0x10874DC7: av_buffer_alloc (buffer.c:72)
==52041==    by 0x1087FD33: get_video_buffer (frame.c:119)
==52041==    by 0x1087FD33: av_frame_get_buffer (frame.c:196)
==52041==    by 0x1009A917: ff_default_get_video_buffer (video.c:55)
==52041==    by 0x1009A917: ff_get_video_buffer (video.c:73)
==52041==    by 0x1009A917: ff_null_get_video_buffer (video.c:33)
==52041==    by 0x1009A8A3: ff_get_video_buffer (video.c:70)
==52041==    by 0x1009A8A3: ff_null_get_video_buffer (video.c:33)
==52041==    by 0x1009AAFB: ff_get_video_buffer (video.c:70)
==52041==    by 0x10094D5F: filter_frame (vf_scale.c:276)
==52041==    by 0x1007C803: ff_filter_frame (avfilter.c:698)
==52041==    by 0x1007C803: default_filter_frame (avfilter.c:638)
==52041==    by 0x1007F083: ff_filter_frame (avfilter.c:698)
==52041==    by 0x10081873: request_frame (buffersrc.c:399)
==52041== 
frame=    5 fps=  0 q=30.0 Lsize=    2240kB time=0.16 bitrate=114688.0kbits/s    
video:2240kB audio:0kB other streams:0kB global headers:0kB muxing overhead: 0.000000%
==52041== 
==52041== HEAP SUMMARY:
==52041==     in use at exit: 0 bytes in 0 blocks
==52041==   total heap usage: 1,790 allocs, 1,790 frees, 22,000,471 bytes allocated
==52041== 
==52041== All heap blocks were freed -- no leaks are possible
==52041== 
==52041== For counts of detected and suppressed errors, rerun with: -v
==52041== ERROR SUMMARY: 465 errors from 6 contexts (suppressed: 0 from 0)
diffstderrvsynth2-dnxhd-720p1v12_dev0-1345-g0181ae9
--- /home/mik/src/fate/src/tests/ref/vsynth/vsynth2-dnxhd-720p	2014-11-30 15:37:05.674204650 +0000
+++ tests/data/fate/vsynth2-dnxhd-720p	2017-08-07 01:16:26.934695253 +0000
@@ -1,4 +0,0 @@
-71c7491a41545882b36f07ee98021b4b *tests/data/fate/vsynth2-dnxhd-720p.dnxhd
-2293760 tests/data/fate/vsynth2-dnxhd-720p.dnxhd
-adef978dc9c9e4f10dc7c30418af62af *tests/data/fate/vsynth2-dnxhd-720p.out.rawvideo
-stddev:    6.69 PSNR: 31.62 MAXDIFF:  171 bytes:  7603200/   760320
==4152== Memcheck, a memory error detector
==4152== Copyright (C) 2002-2015, and GNU GPL'd, by Julian Seward et al.
==4152== Using Valgrind-3.12.0.SVN and LibVEX; rerun with -h for copyright info
==4152== Command: /home/mik/src/fate/ppc64-linux-gcc-valgrind/build/avconv -nostats -cpuflags all -f rawvideo -s 352x288 -pix_fmt yuv420p -threads 1 -idct simple -flags +bitexact -sws_flags +accurate_rnd+bitexact -fflags +bitexact -hwaccel none -threads 1 -thread_type frame+slice -i /home/mik/src/fate/ppc64-linux-gcc-valgrind/build/tests/data/vsynth2.yuv -threads 1 -idct simple -dct fastint -c dnxhd -s hd720 -b 90M -pix_fmt yuv422p -frames 5 -flags +bitexact -sws_flags +accurate_rnd+bitexact -fflags +bitexact -f dnxhd -y /home/mik/src/fate/ppc64-linux-gcc-valgrind/build/tests/data/fate/vsynth2-dnxhd-720p.dnxhd
==4152== 
avconv version v13_dev0-1248-g19388a7, Copyright (c) 2000-2017 the Libav developers
  built on Aug  7 2017 00:53:48 with gcc 5.4.0 (GCC)
[rawvideo @ 0x467ae20] Estimating duration from bitrate, this may be inaccurate
Input #0, rawvideo, from '/home/mik/src/fate/ppc64-linux-gcc-valgrind/build/tests/data/vsynth2.yuv':
  Duration: N/A, start: 0.000000, bitrate: N/A
    Stream #0:0: Video: rawvideo
      yuv420p, 352x288
      25 fps, 25 tbn
Stream mapping:
  Stream #0:0 -> #0:0 (rawvideo (native) -> dnxhd (native))
Press ctrl-c to stop encoding
Output #0, dnxhd, to '/home/mik/src/fate/ppc64-linux-gcc-valgrind/build/tests/data/fate/vsynth2-dnxhd-720p.dnxhd':
    Stream #0:0: Video: dnxhd
      yuv422p, 1280x720, q=2-31, 90000 kb/s
      25 tbn
    Metadata:
      encoder         : dnxhd
==4152== Invalid read of size 16
==4152==    at 0x1047C36C: get_pixels_vsx (pixblockdsp.c:139)
==4152==    by 0x1023A68F: dnxhd_get_blocks (dnxhdenc.c:576)
==4152==    by 0x1023A68F: dnxhd_calc_bits_thread (dnxhdenc.c:619)
==4152==    by 0x1023B5F3: dnxhd_find_qscale (dnxhdenc.c:866)
==4152==    by 0x1023B5F3: dnxhd_encode_fast (dnxhdenc.c:969)
==4152==    by 0x1023B5F3: dnxhd_encode_picture (dnxhdenc.c:1055)
==4152==    by 0x102611C3: avcodec_encode_video2 (encode.c:227)
==4152==    by 0x102613E3: do_encode (encode.c:274)
==4152==    by 0x1026164F: avcodec_send_frame (encode.c:323)
==4152==    by 0x100755D7: do_video_out (avconv.c:587)
==4152==    by 0x100755D7: poll_filter (avconv.c:726)
==4152==    by 0x10075DAF: poll_filters (avconv.c:800)
==4152==    by 0x1005D12B: transcode (avconv.c:2771)
==4152==    by 0x1005D12B: main (avconv.c:2940)
==4152==  Address 0x16e31078 is 921,592 bytes inside a block of size 921,600 alloc'd
==4152==    at 0x4088C90: memalign (vg_replace_malloc.c:857)
==4152==    by 0x4088DFF: posix_memalign (vg_replace_malloc.c:1020)
==4152==    by 0x10888BB7: av_malloc (mem.c:71)
==4152==    by 0x10874DC7: av_buffer_alloc (buffer.c:72)
==4152==    by 0x1087FD33: get_video_buffer (frame.c:119)
==4152==    by 0x1087FD33: av_frame_get_buffer (frame.c:196)
==4152==    by 0x1009A917: ff_default_get_video_buffer (video.c:55)
==4152==    by 0x1009A917: ff_get_video_buffer (video.c:73)
==4152==    by 0x1009A917: ff_null_get_video_buffer (video.c:33)
==4152==    by 0x1009A8A3: ff_get_video_buffer (video.c:70)
==4152==    by 0x1009A8A3: ff_null_get_video_buffer (video.c:33)
==4152==    by 0x1009AAFB: ff_get_video_buffer (video.c:70)
==4152==    by 0x10094D5F: filter_frame (vf_scale.c:276)
==4152==    by 0x1007C803: ff_filter_frame (avfilter.c:698)
==4152==    by 0x1007C803: default_filter_frame (avfilter.c:638)
==4152==    by 0x1007F083: ff_filter_frame (avfilter.c:698)
==4152==    by 0x10081873: request_frame (buffersrc.c:399)
==4152== 
==4152== Invalid read of size 16
==4152==    at 0x1047C36C: get_pixels_vsx (pixblockdsp.c:139)
==4152==    by 0x1023A6BF: dnxhd_get_blocks (dnxhdenc.c:578)
==4152==    by 0x1023A6BF: dnxhd_calc_bits_thread (dnxhdenc.c:619)
==4152==    by 0x1023B5F3: dnxhd_find_qscale (dnxhdenc.c:866)
==4152==    by 0x1023B5F3: dnxhd_encode_fast (dnxhdenc.c:969)
==4152==    by 0x1023B5F3: dnxhd_encode_picture (dnxhdenc.c:1055)
==4152==    by 0x102611C3: avcodec_encode_video2 (encode.c:227)
==4152==    by 0x102613E3: do_encode (encode.c:274)
==4152==    by 0x1026164F: avcodec_send_frame (encode.c:323)
==4152==    by 0x100755D7: do_video_out (avconv.c:587)
==4152==    by 0x100755D7: poll_filter (avconv.c:726)
==4152==    by 0x10075DAF: poll_filters (avconv.c:800)
==4152==    by 0x1005D12B: transcode (avconv.c:2771)
==4152==    by 0x1005D12B: main (avconv.c:2940)
==4152==  Address 0x16ea1918 is 460,792 bytes inside a block of size 460,800 alloc'd
==4152==    at 0x4088C90: memalign (vg_replace_malloc.c:857)
==4152==    by 0x4088DFF: posix_memalign (vg_replace_malloc.c:1020)
==4152==    by 0x10888BB7: av_malloc (mem.c:71)
==4152==    by 0x10874DC7: av_buffer_alloc (buffer.c:72)
==4152==    by 0x1087FD33: get_video_buffer (frame.c:119)
==4152==    by 0x1087FD33: av_frame_get_buffer (frame.c:196)
==4152==    by 0x1009A917: ff_default_get_video_buffer (video.c:55)
==4152==    by 0x1009A917: ff_get_video_buffer (video.c:73)
==4152==    by 0x1009A917: ff_null_get_video_buffer (video.c:33)
==4152==    by 0x1009A8A3: ff_get_video_buffer (video.c:70)
==4152==    by 0x1009A8A3: ff_null_get_video_buffer (video.c:33)
==4152==    by 0x1009AAFB: ff_get_video_buffer (video.c:70)
==4152==    by 0x10094D5F: filter_frame (vf_scale.c:276)
==4152==    by 0x1007C803: ff_filter_frame (avfilter.c:698)
==4152==    by 0x1007C803: default_filter_frame (avfilter.c:638)
==4152==    by 0x1007F083: ff_filter_frame (avfilter.c:698)
==4152==    by 0x10081873: request_frame (buffersrc.c:399)
==4152== 
==4152== Invalid read of size 16
==4152==    at 0x1047C36C: get_pixels_vsx (pixblockdsp.c:139)
==4152==    by 0x1023A6EF: dnxhd_get_blocks (dnxhdenc.c:580)
==4152==    by 0x1023A6EF: dnxhd_calc_bits_thread (dnxhdenc.c:619)
==4152==    by 0x1023B5F3: dnxhd_find_qscale (dnxhdenc.c:866)
==4152==    by 0x1023B5F3: dnxhd_encode_fast (dnxhdenc.c:969)
==4152==    by 0x1023B5F3: dnxhd_encode_picture (dnxhdenc.c:1055)
==4152==    by 0x102611C3: avcodec_encode_video2 (encode.c:227)
==4152==    by 0x102613E3: do_encode (encode.c:274)
==4152==    by 0x1026164F: avcodec_send_frame (encode.c:323)
==4152==    by 0x100755D7: do_video_out (avconv.c:587)
==4152==    by 0x100755D7: poll_filter (avconv.c:726)
==4152==    by 0x10075DAF: poll_filters (avconv.c:800)
==4152==    by 0x1005D12B: transcode (avconv.c:2771)
==4152==    by 0x1005D12B: main (avconv.c:2940)
==4152==  Address 0x16f121b8 is 460,792 bytes inside a block of size 460,800 alloc'd
==4152==    at 0x4088C90: memalign (vg_replace_malloc.c:857)
==4152==    by 0x4088DFF: posix_memalign (vg_replace_malloc.c:1020)
==4152==    by 0x10888BB7: av_malloc (mem.c:71)
==4152==    by 0x10874DC7: av_buffer_alloc (buffer.c:72)
==4152==    by 0x1087FD33: get_video_buffer (frame.c:119)
==4152==    by 0x1087FD33: av_frame_get_buffer (frame.c:196)
==4152==    by 0x1009A917: ff_default_get_video_buffer (video.c:55)
==4152==    by 0x1009A917: ff_get_video_buffer (video.c:73)
==4152==    by 0x1009A917: ff_null_get_video_buffer (video.c:33)
==4152==    by 0x1009A8A3: ff_get_video_buffer (video.c:70)
==4152==    by 0x1009A8A3: ff_null_get_video_buffer (video.c:33)
==4152==    by 0x1009AAFB: ff_get_video_buffer (video.c:70)
==4152==    by 0x10094D5F: filter_frame (vf_scale.c:276)
==4152==    by 0x1007C803: ff_filter_frame (avfilter.c:698)
==4152==    by 0x1007C803: default_filter_frame (avfilter.c:638)
==4152==    by 0x1007F083: ff_filter_frame (avfilter.c:698)
==4152==    by 0x10081873: request_frame (buffersrc.c:399)
==4152== 
==4152== Invalid read of size 16
==4152==    at 0x1047C36C: get_pixels_vsx (pixblockdsp.c:139)
==4152==    by 0x10239D33: dnxhd_get_blocks (dnxhdenc.c:576)
==4152==    by 0x10239D33: dnxhd_encode_thread (dnxhdenc.c:674)
==4152==    by 0x1023BD2F: dnxhd_encode_picture (dnxhdenc.c:1071)
==4152==    by 0x102611C3: avcodec_encode_video2 (encode.c:227)
==4152==    by 0x102613E3: do_encode (encode.c:274)
==4152==    by 0x1026164F: avcodec_send_frame (encode.c:323)
==4152==    by 0x100755D7: do_video_out (avconv.c:587)
==4152==    by 0x100755D7: poll_filter (avconv.c:726)
==4152==    by 0x10075DAF: poll_filters (avconv.c:800)
==4152==    by 0x1005D12B: transcode (avconv.c:2771)
==4152==    by 0x1005D12B: main (avconv.c:2940)
==4152==  Address 0x16e31078 is 921,592 bytes inside a block of size 921,600 alloc'd
==4152==    at 0x4088C90: memalign (vg_replace_malloc.c:857)
==4152==    by 0x4088DFF: posix_memalign (vg_replace_malloc.c:1020)
==4152==    by 0x10888BB7: av_malloc (mem.c:71)
==4152==    by 0x10874DC7: av_buffer_alloc (buffer.c:72)
==4152==    by 0x1087FD33: get_video_buffer (frame.c:119)
==4152==    by 0x1087FD33: av_frame_get_buffer (frame.c:196)
==4152==    by 0x1009A917: ff_default_get_video_buffer (video.c:55)
==4152==    by 0x1009A917: ff_get_video_buffer (video.c:73)
==4152==    by 0x1009A917: ff_null_get_video_buffer (video.c:33)
==4152==    by 0x1009A8A3: ff_get_video_buffer (video.c:70)
==4152==    by 0x1009A8A3: ff_null_get_video_buffer (video.c:33)
==4152==    by 0x1009AAFB: ff_get_video_buffer (video.c:70)
==4152==    by 0x10094D5F: filter_frame (vf_scale.c:276)
==4152==    by 0x1007C803: ff_filter_frame (avfilter.c:698)
==4152==    by 0x1007C803: default_filter_frame (avfilter.c:638)
==4152==    by 0x1007F083: ff_filter_frame (avfilter.c:698)
==4152==    by 0x10081873: request_frame (buffersrc.c:399)
==4152== 
==4152== Invalid read of size 16
==4152==    at 0x1047C36C: get_pixels_vsx (pixblockdsp.c:139)
==4152==    by 0x10239D63: dnxhd_get_blocks (dnxhdenc.c:578)
==4152==    by 0x10239D63: dnxhd_encode_thread (dnxhdenc.c:674)
==4152==    by 0x1023BD2F: dnxhd_encode_picture (dnxhdenc.c:1071)
==4152==    by 0x102611C3: avcodec_encode_video2 (encode.c:227)
==4152==    by 0x102613E3: do_encode (encode.c:274)
==4152==    by 0x1026164F: avcodec_send_frame (encode.c:323)
==4152==    by 0x100755D7: do_video_out (avconv.c:587)
==4152==    by 0x100755D7: poll_filter (avconv.c:726)
==4152==    by 0x10075DAF: poll_filters (avconv.c:800)
==4152==    by 0x1005D12B: transcode (avconv.c:2771)
==4152==    by 0x1005D12B: main (avconv.c:2940)
==4152==  Address 0x16ea1918 is 460,792 bytes inside a block of size 460,800 alloc'd
==4152==    at 0x4088C90: memalign (vg_replace_malloc.c:857)
==4152==    by 0x4088DFF: posix_memalign (vg_replace_malloc.c:1020)
==4152==    by 0x10888BB7: av_malloc (mem.c:71)
==4152==    by 0x10874DC7: av_buffer_alloc (buffer.c:72)
==4152==    by 0x1087FD33: get_video_buffer (frame.c:119)
==4152==    by 0x1087FD33: av_frame_get_buffer (frame.c:196)
==4152==    by 0x1009A917: ff_default_get_video_buffer (video.c:55)
==4152==    by 0x1009A917: ff_get_video_buffer (video.c:73)
==4152==    by 0x1009A917: ff_null_get_video_buffer (video.c:33)
==4152==    by 0x1009A8A3: ff_get_video_buffer (video.c:70)
==4152==    by 0x1009A8A3: ff_null_get_video_buffer (video.c:33)
==4152==    by 0x1009AAFB: ff_get_video_buffer (video.c:70)
==4152==    by 0x10094D5F: filter_frame (vf_scale.c:276)
==4152==    by 0x1007C803: ff_filter_frame (avfilter.c:698)
==4152==    by 0x1007C803: default_filter_frame (avfilter.c:638)
==4152==    by 0x1007F083: ff_filter_frame (avfilter.c:698)
==4152==    by 0x10081873: request_frame (buffersrc.c:399)
==4152== 
==4152== Invalid read of size 16
==4152==    at 0x1047C36C: get_pixels_vsx (pixblockdsp.c:139)
==4152==    by 0x10239D93: dnxhd_get_blocks (dnxhdenc.c:580)
==4152==    by 0x10239D93: dnxhd_encode_thread (dnxhdenc.c:674)
==4152==    by 0x1023BD2F: dnxhd_encode_picture (dnxhdenc.c:1071)
==4152==    by 0x102611C3: avcodec_encode_video2 (encode.c:227)
==4152==    by 0x102613E3: do_encode (encode.c:274)
==4152==    by 0x1026164F: avcodec_send_frame (encode.c:323)
==4152==    by 0x100755D7: do_video_out (avconv.c:587)
==4152==    by 0x100755D7: poll_filter (avconv.c:726)
==4152==    by 0x10075DAF: poll_filters (avconv.c:800)
==4152==    by 0x1005D12B: transcode (avconv.c:2771)
==4152==    by 0x1005D12B: main (avconv.c:2940)
==4152==  Address 0x16f121b8 is 460,792 bytes inside a block of size 460,800 alloc'd
==4152==    at 0x4088C90: memalign (vg_replace_malloc.c:857)
==4152==    by 0x4088DFF: posix_memalign (vg_replace_malloc.c:1020)
==4152==    by 0x10888BB7: av_malloc (mem.c:71)
==4152==    by 0x10874DC7: av_buffer_alloc (buffer.c:72)
==4152==    by 0x1087FD33: get_video_buffer (frame.c:119)
==4152==    by 0x1087FD33: av_frame_get_buffer (frame.c:196)
==4152==    by 0x1009A917: ff_default_get_video_buffer (video.c:55)
==4152==    by 0x1009A917: ff_get_video_buffer (video.c:73)
==4152==    by 0x1009A917: ff_null_get_video_buffer (video.c:33)
==4152==    by 0x1009A8A3: ff_get_video_buffer (video.c:70)
==4152==    by 0x1009A8A3: ff_null_get_video_buffer (video.c:33)
==4152==    by 0x1009AAFB: ff_get_video_buffer (video.c:70)
==4152==    by 0x10094D5F: filter_frame (vf_scale.c:276)
==4152==    by 0x1007C803: ff_filter_frame (avfilter.c:698)
==4152==    by 0x1007C803: default_filter_frame (avfilter.c:638)
==4152==    by 0x1007F083: ff_filter_frame (avfilter.c:698)
==4152==    by 0x10081873: request_frame (buffersrc.c:399)
==4152== 
frame=    5 fps=  1 q=1.0 Lsize=    2240kB time=0.16 bitrate=114688.0kbits/s    
video:2240kB audio:0kB other streams:0kB global headers:0kB muxing overhead: 0.000000%
==4152== 
==4152== HEAP SUMMARY:
==4152==     in use at exit: 0 bytes in 0 blocks
==4152==   total heap usage: 1,765 allocs, 1,765 frees, 21,993,447 bytes allocated
==4152== 
==4152== All heap blocks were freed -- no leaks are possible
==4152== 
==4152== For counts of detected and suppressed errors, rerun with: -v
==4152== ERROR SUMMARY: 30 errors from 6 contexts (suppressed: 0 from 0)
diffstderrvsynth2-dnxhd-720p-rd1v12_dev0-1345-g0181ae9
--- /home/mik/src/fate/src/tests/ref/vsynth/vsynth2-dnxhd-720p-rd	2014-11-30 15:37:05.674204650 +0000
+++ tests/data/fate/vsynth2-dnxhd-720p-rd	2017-08-07 01:16:27.384696108 +0000
@@ -1,4 +0,0 @@
-819a7714098e098981bf08253ef2e490 *tests/data/fate/vsynth2-dnxhd-720p-rd.dnxhd
-2293760 tests/data/fate/vsynth2-dnxhd-720p-rd.dnxhd
-a05c35b99e5e74a9c8b3a9c66da01775 *tests/data/fate/vsynth2-dnxhd-720p-rd.out.rawvideo
-stddev:    1.53 PSNR: 44.39 MAXDIFF:   31 bytes:  7603200/   760320
==4232== Memcheck, a memory error detector
==4232== Copyright (C) 2002-2015, and GNU GPL'd, by Julian Seward et al.
==4232== Using Valgrind-3.12.0.SVN and LibVEX; rerun with -h for copyright info
==4232== Command: /home/mik/src/fate/ppc64-linux-gcc-valgrind/build/avconv -nostats -cpuflags all -f rawvideo -s 352x288 -pix_fmt yuv420p -threads 1 -idct simple -flags +bitexact -sws_flags +accurate_rnd+bitexact -fflags +bitexact -hwaccel none -threads 1 -thread_type frame+slice -i /home/mik/src/fate/ppc64-linux-gcc-valgrind/build/tests/data/vsynth2.yuv -threads 1 -idct simple -dct fastint -c dnxhd -s hd720 -b 90M -threads 4 -mbd rd -pix_fmt yuv422p -frames 5 -flags +bitexact -sws_flags +accurate_rnd+bitexact -fflags +bitexact -f dnxhd -y /home/mik/src/fate/ppc64-linux-gcc-valgrind/build/tests/data/fate/vsynth2-dnxhd-720p-rd.dnxhd
==4232== 
avconv version v13_dev0-1248-g19388a7, Copyright (c) 2000-2017 the Libav developers
  built on Aug  7 2017 00:53:48 with gcc 5.4.0 (GCC)
[rawvideo @ 0x467aec0] Estimating duration from bitrate, this may be inaccurate
Input #0, rawvideo, from '/home/mik/src/fate/ppc64-linux-gcc-valgrind/build/tests/data/vsynth2.yuv':
  Duration: N/A, start: 0.000000, bitrate: N/A
    Stream #0:0: Video: rawvideo
      yuv420p, 352x288
      25 fps, 25 tbn
Stream mapping:
  Stream #0:0 -> #0:0 (rawvideo (native) -> dnxhd (native))
Press ctrl-c to stop encoding
Output #0, dnxhd, to '/home/mik/src/fate/ppc64-linux-gcc-valgrind/build/tests/data/fate/vsynth2-dnxhd-720p-rd.dnxhd':
    Stream #0:0: Video: dnxhd
      yuv422p, 1280x720, q=2-31, 90000 kb/s
      25 tbn
    Metadata:
      encoder         : dnxhd
==4232== Thread 69:
==4232== Invalid read of size 16
==4232==    at 0x1047C36C: get_pixels_vsx (pixblockdsp.c:139)
==4232==    by 0x1023A68F: dnxhd_get_blocks (dnxhdenc.c:576)
==4232==    by 0x1023A68F: dnxhd_calc_bits_thread (dnxhdenc.c:619)
==4232==    by 0x43BC327: start_thread (in /usr/lib64/libpthread-2.18.so)
==4232==    by 0x451DC6F: clone (in /usr/lib64/libc-2.18.so)
==4232==  Address 0x17e31078 is 921,592 bytes inside a block of size 921,600 alloc'd
==4232==    at 0x4088C90: memalign (vg_replace_malloc.c:857)
==4232==    by 0x4088DFF: posix_memalign (vg_replace_malloc.c:1020)
==4232==    by 0x10888BB7: av_malloc (mem.c:71)
==4232==    by 0x10874DC7: av_buffer_alloc (buffer.c:72)
==4232==    by 0x1087FD33: get_video_buffer (frame.c:119)
==4232==    by 0x1087FD33: av_frame_get_buffer (frame.c:196)
==4232==    by 0x1009A917: ff_default_get_video_buffer (video.c:55)
==4232==    by 0x1009A917: ff_get_video_buffer (video.c:73)
==4232==    by 0x1009A917: ff_null_get_video_buffer (video.c:33)
==4232==    by 0x1009A8A3: ff_get_video_buffer (video.c:70)
==4232==    by 0x1009A8A3: ff_null_get_video_buffer (video.c:33)
==4232==    by 0x1009AAFB: ff_get_video_buffer (video.c:70)
==4232==    by 0x10094D5F: filter_frame (vf_scale.c:276)
==4232==    by 0x1007C803: ff_filter_frame (avfilter.c:698)
==4232==    by 0x1007C803: default_filter_frame (avfilter.c:638)
==4232==    by 0x1007F083: ff_filter_frame (avfilter.c:698)
==4232==    by 0x10081873: request_frame (buffersrc.c:399)
==4232== 
==4232== Invalid read of size 16
==4232==    at 0x1047C36C: get_pixels_vsx (pixblockdsp.c:139)
==4232==    by 0x1023A6BF: dnxhd_get_blocks (dnxhdenc.c:578)
==4232==    by 0x1023A6BF: dnxhd_calc_bits_thread (dnxhdenc.c:619)
==4232==    by 0x43BC327: start_thread (in /usr/lib64/libpthread-2.18.so)
==4232==    by 0x451DC6F: clone (in /usr/lib64/libc-2.18.so)
==4232==  Address 0x17ea1918 is 460,792 bytes inside a block of size 460,800 alloc'd
==4232==    at 0x4088C90: memalign (vg_replace_malloc.c:857)
==4232==    by 0x4088DFF: posix_memalign (vg_replace_malloc.c:1020)
==4232==    by 0x10888BB7: av_malloc (mem.c:71)
==4232==    by 0x10874DC7: av_buffer_alloc (buffer.c:72)
==4232==    by 0x1087FD33: get_video_buffer (frame.c:119)
==4232==    by 0x1087FD33: av_frame_get_buffer (frame.c:196)
==4232==    by 0x1009A917: ff_default_get_video_buffer (video.c:55)
==4232==    by 0x1009A917: ff_get_video_buffer (video.c:73)
==4232==    by 0x1009A917: ff_null_get_video_buffer (video.c:33)
==4232==    by 0x1009A8A3: ff_get_video_buffer (video.c:70)
==4232==    by 0x1009A8A3: ff_null_get_video_buffer (video.c:33)
==4232==    by 0x1009AAFB: ff_get_video_buffer (video.c:70)
==4232==    by 0x10094D5F: filter_frame (vf_scale.c:276)
==4232==    by 0x1007C803: ff_filter_frame (avfilter.c:698)
==4232==    by 0x1007C803: default_filter_frame (avfilter.c:638)
==4232==    by 0x1007F083: ff_filter_frame (avfilter.c:698)
==4232==    by 0x10081873: request_frame (buffersrc.c:399)
==4232== 
==4232== Invalid read of size 16
==4232==    at 0x1047C36C: get_pixels_vsx (pixblockdsp.c:139)
==4232==    by 0x1023A6EF: dnxhd_get_blocks (dnxhdenc.c:580)
==4232==    by 0x1023A6EF: dnxhd_calc_bits_thread (dnxhdenc.c:619)
==4232==    by 0x43BC327: start_thread (in /usr/lib64/libpthread-2.18.so)
==4232==    by 0x451DC6F: clone (in /usr/lib64/libc-2.18.so)
==4232==  Address 0x17f121b8 is 460,792 bytes inside a block of size 460,800 alloc'd
==4232==    at 0x4088C90: memalign (vg_replace_malloc.c:857)
==4232==    by 0x4088DFF: posix_memalign (vg_replace_malloc.c:1020)
==4232==    by 0x10888BB7: av_malloc (mem.c:71)
==4232==    by 0x10874DC7: av_buffer_alloc (buffer.c:72)
==4232==    by 0x1087FD33: get_video_buffer (frame.c:119)
==4232==    by 0x1087FD33: av_frame_get_buffer (frame.c:196)
==4232==    by 0x1009A917: ff_default_get_video_buffer (video.c:55)
==4232==    by 0x1009A917: ff_get_video_buffer (video.c:73)
==4232==    by 0x1009A917: ff_null_get_video_buffer (video.c:33)
==4232==    by 0x1009A8A3: ff_get_video_buffer (video.c:70)
==4232==    by 0x1009A8A3: ff_null_get_video_buffer (video.c:33)
==4232==    by 0x1009AAFB: ff_get_video_buffer (video.c:70)
==4232==    by 0x10094D5F: filter_frame (vf_scale.c:276)
==4232==    by 0x1007C803: ff_filter_frame (avfilter.c:698)
==4232==    by 0x1007C803: default_filter_frame (avfilter.c:638)
==4232==    by 0x1007F083: ff_filter_frame (avfilter.c:698)
==4232==    by 0x10081873: request_frame (buffersrc.c:399)
==4232== 
==4232== Invalid read of size 16
==4232==    at 0x1047C36C: get_pixels_vsx (pixblockdsp.c:139)
==4232==    by 0x10239D33: dnxhd_get_blocks (dnxhdenc.c:576)
==4232==    by 0x10239D33: dnxhd_encode_thread (dnxhdenc.c:674)
==4232==    by 0x43BC327: start_thread (in /usr/lib64/libpthread-2.18.so)
==4232==    by 0x451DC6F: clone (in /usr/lib64/libc-2.18.so)
==4232==  Address 0x17e31078 is 921,592 bytes inside a block of size 921,600 alloc'd
==4232==    at 0x4088C90: memalign (vg_replace_malloc.c:857)
==4232==    by 0x4088DFF: posix_memalign (vg_replace_malloc.c:1020)
==4232==    by 0x10888BB7: av_malloc (mem.c:71)
==4232==    by 0x10874DC7: av_buffer_alloc (buffer.c:72)
==4232==    by 0x1087FD33: get_video_buffer (frame.c:119)
==4232==    by 0x1087FD33: av_frame_get_buffer (frame.c:196)
==4232==    by 0x1009A917: ff_default_get_video_buffer (video.c:55)
==4232==    by 0x1009A917: ff_get_video_buffer (video.c:73)
==4232==    by 0x1009A917: ff_null_get_video_buffer (video.c:33)
==4232==    by 0x1009A8A3: ff_get_video_buffer (video.c:70)
==4232==    by 0x1009A8A3: ff_null_get_video_buffer (video.c:33)
==4232==    by 0x1009AAFB: ff_get_video_buffer (video.c:70)
==4232==    by 0x10094D5F: filter_frame (vf_scale.c:276)
==4232==    by 0x1007C803: ff_filter_frame (avfilter.c:698)
==4232==    by 0x1007C803: default_filter_frame (avfilter.c:638)
==4232==    by 0x1007F083: ff_filter_frame (avfilter.c:698)
==4232==    by 0x10081873: request_frame (buffersrc.c:399)
==4232== 
==4232== Invalid read of size 16
==4232==    at 0x1047C36C: get_pixels_vsx (pixblockdsp.c:139)
==4232==    by 0x10239D63: dnxhd_get_blocks (dnxhdenc.c:578)
==4232==    by 0x10239D63: dnxhd_encode_thread (dnxhdenc.c:674)
==4232==    by 0x43BC327: start_thread (in /usr/lib64/libpthread-2.18.so)
==4232==    by 0x451DC6F: clone (in /usr/lib64/libc-2.18.so)
==4232==  Address 0x17ea1918 is 460,792 bytes inside a block of size 460,800 alloc'd
==4232==    at 0x4088C90: memalign (vg_replace_malloc.c:857)
==4232==    by 0x4088DFF: posix_memalign (vg_replace_malloc.c:1020)
==4232==    by 0x10888BB7: av_malloc (mem.c:71)
==4232==    by 0x10874DC7: av_buffer_alloc (buffer.c:72)
==4232==    by 0x1087FD33: get_video_buffer (frame.c:119)
==4232==    by 0x1087FD33: av_frame_get_buffer (frame.c:196)
==4232==    by 0x1009A917: ff_default_get_video_buffer (video.c:55)
==4232==    by 0x1009A917: ff_get_video_buffer (video.c:73)
==4232==    by 0x1009A917: ff_null_get_video_buffer (video.c:33)
==4232==    by 0x1009A8A3: ff_get_video_buffer (video.c:70)
==4232==    by 0x1009A8A3: ff_null_get_video_buffer (video.c:33)
==4232==    by 0x1009AAFB: ff_get_video_buffer (video.c:70)
==4232==    by 0x10094D5F: filter_frame (vf_scale.c:276)
==4232==    by 0x1007C803: ff_filter_frame (avfilter.c:698)
==4232==    by 0x1007C803: default_filter_frame (avfilter.c:638)
==4232==    by 0x1007F083: ff_filter_frame (avfilter.c:698)
==4232==    by 0x10081873: request_frame (buffersrc.c:399)
==4232== 
==4232== Invalid read of size 16
==4232==    at 0x1047C36C: get_pixels_vsx (pixblockdsp.c:139)
==4232==    by 0x10239D93: dnxhd_get_blocks (dnxhdenc.c:580)
==4232==    by 0x10239D93: dnxhd_encode_thread (dnxhdenc.c:674)
==4232==    by 0x43BC327: start_thread (in /usr/lib64/libpthread-2.18.so)
==4232==    by 0x451DC6F: clone (in /usr/lib64/libc-2.18.so)
==4232==  Address 0x17f121b8 is 460,792 bytes inside a block of size 460,800 alloc'd
==4232==    at 0x4088C90: memalign (vg_replace_malloc.c:857)
==4232==    by 0x4088DFF: posix_memalign (vg_replace_malloc.c:1020)
==4232==    by 0x10888BB7: av_malloc (mem.c:71)
==4232==    by 0x10874DC7: av_buffer_alloc (buffer.c:72)
==4232==    by 0x1087FD33: get_video_buffer (frame.c:119)
==4232==    by 0x1087FD33: av_frame_get_buffer (frame.c:196)
==4232==    by 0x1009A917: ff_default_get_video_buffer (video.c:55)
==4232==    by 0x1009A917: ff_get_video_buffer (video.c:73)
==4232==    by 0x1009A917: ff_null_get_video_buffer (video.c:33)
==4232==    by 0x1009A8A3: ff_get_video_buffer (video.c:70)
==4232==    by 0x1009A8A3: ff_null_get_video_buffer (video.c:33)
==4232==    by 0x1009AAFB: ff_get_video_buffer (video.c:70)
==4232==    by 0x10094D5F: filter_frame (vf_scale.c:276)
==4232==    by 0x1007C803: ff_filter_frame (avfilter.c:698)
==4232==    by 0x1007C803: default_filter_frame (avfilter.c:638)
==4232==    by 0x1007F083: ff_filter_frame (avfilter.c:698)
==4232==    by 0x10081873: request_frame (buffersrc.c:399)
==4232== 
frame=    5 fps=  0 q=30.0 Lsize=    2240kB time=0.16 bitrate=114688.0kbits/s    
video:2240kB audio:0kB other streams:0kB global headers:0kB muxing overhead: 0.000000%
==4232== 
==4232== HEAP SUMMARY:
==4232==     in use at exit: 0 bytes in 0 blocks
==4232==   total heap usage: 1,790 allocs, 1,790 frees, 22,000,471 bytes allocated
==4232== 
==4232== All heap blocks were freed -- no leaks are possible
==4232== 
==4232== For counts of detected and suppressed errors, rerun with: -v
==4232== ERROR SUMMARY: 465 errors from 6 contexts (suppressed: 0 from 0)