ppc64-linux-gcc-valgrind v13_dev0-1218-g95ce02b

Architectureppc
Variantppc64
CPUgeneric
OSlinux
Ownerkostylev
Compilergcc 5.4.0 (GCC)
Configuration--prefix=/home/mik/src/fate/ppc64-linux-gcc-valgrind/install --samples=/home/mik/src/fate/fate-suite --enable-gpl --cc=gcc-5 --target-exec='valgrind --leak-check=full --show-reachable=yes --error-exitcode=1 --malloc-fill=0x4a --undef-value-errors=no'
Commentvalgrind --undef-value-errors=no
Revisionv13_dev0-1218-g95ce02b
Date2017-07-17 13:24:57
Status2104 / 2109
Warnings67
Logscompile configure test
5 failed testsStatusLast good rev
diffstderrsvq3-21n / a
--- /home/mik/src/fate/src/tests/ref/fate/svq3-2	2017-02-27 10:07:05.303380676 +0000
+++ tests/data/fate/svq3-2	2017-07-17 13:15:25.937052979 +0000
@@ -1,5 +1,5 @@
 #tb 0: 1/19200
-0,     -20000,     -20000,        0,   185280, 0x061c0d85
+0,     -20000,     -20000,        0,   185280, 0xc0bd953f
 0,     -19200,     -19200,        0,   185280, 0x427ef9a7
 0,     -18400,     -18400,        0,   185280, 0x64c74d6a
 0,     -17600,     -17600,        0,   185280, 0x5bfd0e5b
==28410== Memcheck, a memory error detector
==28410== Copyright (C) 2002-2015, and GNU GPL'd, by Julian Seward et al.
==28410== Using Valgrind-3.12.0.SVN and LibVEX; rerun with -h for copyright info
==28410== Command: /home/mik/src/fate/ppc64-linux-gcc-valgrind/build/avconv -nostats -cpuflags all -flags +bitexact -hwaccel none -threads 1 -thread_type frame+slice -i /home/mik/src/fate/fate-suite/svq3/svq3_decoding_regression.mov -an -f framecrc -
==28410== 
avconv version v13_dev0-1218-g95ce02b, Copyright (c) 2000-2017 the Libav developers
  built on Jul 17 2017 12:55:25 with gcc 5.4.0 (GCC)
Input #0, mov,mp4,m4a,3gp,3g2,mj2, from '/home/mik/src/fate/fate-suite/svq3/svq3_decoding_regression.mov':
  Metadata:
    major_brand     : qt  
    minor_version   : 512
    compatible_brands: qt  
    artist          : Mark Strube - SupaDupaStrube@msn.com
    artist-eng      : Mark Strube - SupaDupaStrube@msn.com
    title           : Movie-List Presents: The Abyss
    title-eng       : Movie-List Presents: The Abyss
    encoder         : Lavf57.66.101
    copyright       : © 1989 Twentieth Century Fox
    copyright-eng   : © 1989 Twentieth Century Fox
  Duration: 00:00:00.83, bitrate: 2376 kb/s
    Stream #0:0(eng): Video: svq3 [SVQ3 / 0x33515653]
      yuvj420p, pc, 480x257, 2366 kb/s
      24 fps, 19200 tbn (default)
    Metadata:
      handler_name    : DataHandler
      encoder         : Sorenson Video 3
Stream mapping:
  Stream #0:0 -> #0:0 (svq3 (native) -> rawvideo (native))
Press ctrl-c to stop encoding
[svq3 @ 0x46d7660] Missing reference frame.
Output #0, framecrc, to 'pipe:':
  Metadata:
    major_brand     : qt  
    minor_version   : 512
    compatible_brands: qt  
    artist          : Mark Strube - SupaDupaStrube@msn.com
    artist-eng      : Mark Strube - SupaDupaStrube@msn.com
    title           : Movie-List Presents: The Abyss
    title-eng       : Movie-List Presents: The Abyss
    copyright-eng   : © 1989 Twentieth Century Fox
    copyright       : © 1989 Twentieth Century Fox
    encoder         : Lavf58.0.0
    Stream #0:0(eng): Video: rawvideo [I420 / 0x30323449]
      yuvj420p, 480x257, q=2-31, 200 kb/s
      19200 tbn (default)
    Metadata:
      handler_name    : DataHandler
      encoder         : Sorenson Video 3
*** dropping frame 19 from stream 0 at ts -6400
frame=   19 fps= 19 q=-0.0 Lsize=       1kB time=10000000000.00 bitrate=   0.0kbits/s drop=1    
video:3438kB audio:0kB other streams:0kB global headers:0kB muxing overhead: unknown
==28410== 
==28410== HEAP SUMMARY:
==28410==     in use at exit: 0 bytes in 0 blocks
==28410==   total heap usage: 1,585 allocs, 1,585 frees, 8,656,618 bytes allocated
==28410== 
==28410== All heap blocks were freed -- no leaks are possible
==28410== 
==28410== For counts of detected and suppressed errors, rerun with: -v
==28410== ERROR SUMMARY: 0 errors from 0 contexts (suppressed: 0 from 0)
diffstderrvsynth1-dnxhd-720p1v12_dev0-1345-g0181ae9
--- /home/mik/src/fate/src/tests/ref/vsynth/vsynth1-dnxhd-720p	2014-01-10 11:16:55.734697630 +0000
+++ tests/data/fate/vsynth1-dnxhd-720p	2017-07-17 13:19:08.507458790 +0000
@@ -1,4 +0,0 @@
-81f5be451dc18cf8a1d333c7885de60b *tests/data/fate/vsynth1-dnxhd-720p.dnxhd
-2293760 tests/data/fate/vsynth1-dnxhd-720p.dnxhd
-94b21e5e68ccf9471eff74afd0ebe319 *tests/data/fate/vsynth1-dnxhd-720p.out.rawvideo
-stddev:    6.32 PSNR: 32.11 MAXDIFF:  183 bytes:  7603200/   760320
==1573== Memcheck, a memory error detector
==1573== Copyright (C) 2002-2015, and GNU GPL'd, by Julian Seward et al.
==1573== Using Valgrind-3.12.0.SVN and LibVEX; rerun with -h for copyright info
==1573== Command: /home/mik/src/fate/ppc64-linux-gcc-valgrind/build/avconv -nostats -cpuflags all -f rawvideo -s 352x288 -pix_fmt yuv420p -threads 1 -idct simple -flags +bitexact -sws_flags +accurate_rnd+bitexact -fflags +bitexact -hwaccel none -threads 1 -thread_type frame+slice -i /home/mik/src/fate/ppc64-linux-gcc-valgrind/build/tests/data/vsynth1.yuv -threads 1 -idct simple -dct fastint -c dnxhd -s hd720 -b 90M -pix_fmt yuv422p -frames 5 -flags +bitexact -sws_flags +accurate_rnd+bitexact -fflags +bitexact -f dnxhd -y /home/mik/src/fate/ppc64-linux-gcc-valgrind/build/tests/data/fate/vsynth1-dnxhd-720p.dnxhd
==1573== 
avconv version v13_dev0-1218-g95ce02b, Copyright (c) 2000-2017 the Libav developers
  built on Jul 17 2017 12:55:25 with gcc 5.4.0 (GCC)
[rawvideo @ 0x467ae20] Estimating duration from bitrate, this may be inaccurate
Input #0, rawvideo, from '/home/mik/src/fate/ppc64-linux-gcc-valgrind/build/tests/data/vsynth1.yuv':
  Duration: N/A, start: 0.000000, bitrate: N/A
    Stream #0:0: Video: rawvideo
      yuv420p, 352x288
      25 fps, 25 tbn
Stream mapping:
  Stream #0:0 -> #0:0 (rawvideo (native) -> dnxhd (native))
Press ctrl-c to stop encoding
Output #0, dnxhd, to '/home/mik/src/fate/ppc64-linux-gcc-valgrind/build/tests/data/fate/vsynth1-dnxhd-720p.dnxhd':
    Stream #0:0: Video: dnxhd
      yuv422p, 1280x720, q=2-31, 90000 kb/s
      25 tbn
    Metadata:
      encoder         : dnxhd
==1573== Invalid read of size 16
==1573==    at 0x1047C70C: get_pixels_vsx (pixblockdsp.c:139)
==1573==    by 0x1023AAAF: dnxhd_get_blocks (dnxhdenc.c:576)
==1573==    by 0x1023AAAF: dnxhd_calc_bits_thread (dnxhdenc.c:619)
==1573==    by 0x1023BA13: dnxhd_find_qscale (dnxhdenc.c:866)
==1573==    by 0x1023BA13: dnxhd_encode_fast (dnxhdenc.c:969)
==1573==    by 0x1023BA13: dnxhd_encode_picture (dnxhdenc.c:1055)
==1573==    by 0x102615E3: avcodec_encode_video2 (encode.c:227)
==1573==    by 0x10261803: do_encode (encode.c:274)
==1573==    by 0x10261A6F: avcodec_send_frame (encode.c:323)
==1573==    by 0x10075577: do_video_out (avconv.c:587)
==1573==    by 0x10075577: poll_filter (avconv.c:726)
==1573==    by 0x10075D4F: poll_filters (avconv.c:800)
==1573==    by 0x1005D0EB: transcode (avconv.c:2769)
==1573==    by 0x1005D0EB: main (avconv.c:2938)
==1573==  Address 0x16e31078 is 921,592 bytes inside a block of size 921,600 alloc'd
==1573==    at 0x4088C90: memalign (vg_replace_malloc.c:857)
==1573==    by 0x4088DFF: posix_memalign (vg_replace_malloc.c:1020)
==1573==    by 0x10886457: av_malloc (mem.c:71)
==1573==    by 0x10873487: av_buffer_alloc (buffer.c:72)
==1573==    by 0x1087E3F3: get_video_buffer (frame.c:119)
==1573==    by 0x1087E3F3: av_frame_get_buffer (frame.c:196)
==1573==    by 0x1009A8B7: ff_default_get_video_buffer (video.c:55)
==1573==    by 0x1009A8B7: ff_get_video_buffer (video.c:73)
==1573==    by 0x1009A8B7: ff_null_get_video_buffer (video.c:33)
==1573==    by 0x1009A843: ff_get_video_buffer (video.c:70)
==1573==    by 0x1009A843: ff_null_get_video_buffer (video.c:33)
==1573==    by 0x1009AA9B: ff_get_video_buffer (video.c:70)
==1573==    by 0x10094CFF: filter_frame (vf_scale.c:276)
==1573==    by 0x1007C7A3: ff_filter_frame (avfilter.c:698)
==1573==    by 0x1007C7A3: default_filter_frame (avfilter.c:638)
==1573==    by 0x1007F023: ff_filter_frame (avfilter.c:698)
==1573==    by 0x10081813: request_frame (buffersrc.c:399)
==1573== 
==1573== Invalid read of size 16
==1573==    at 0x1047C70C: get_pixels_vsx (pixblockdsp.c:139)
==1573==    by 0x1023AADF: dnxhd_get_blocks (dnxhdenc.c:578)
==1573==    by 0x1023AADF: dnxhd_calc_bits_thread (dnxhdenc.c:619)
==1573==    by 0x1023BA13: dnxhd_find_qscale (dnxhdenc.c:866)
==1573==    by 0x1023BA13: dnxhd_encode_fast (dnxhdenc.c:969)
==1573==    by 0x1023BA13: dnxhd_encode_picture (dnxhdenc.c:1055)
==1573==    by 0x102615E3: avcodec_encode_video2 (encode.c:227)
==1573==    by 0x10261803: do_encode (encode.c:274)
==1573==    by 0x10261A6F: avcodec_send_frame (encode.c:323)
==1573==    by 0x10075577: do_video_out (avconv.c:587)
==1573==    by 0x10075577: poll_filter (avconv.c:726)
==1573==    by 0x10075D4F: poll_filters (avconv.c:800)
==1573==    by 0x1005D0EB: transcode (avconv.c:2769)
==1573==    by 0x1005D0EB: main (avconv.c:2938)
==1573==  Address 0x16ea1918 is 460,792 bytes inside a block of size 460,800 alloc'd
==1573==    at 0x4088C90: memalign (vg_replace_malloc.c:857)
==1573==    by 0x4088DFF: posix_memalign (vg_replace_malloc.c:1020)
==1573==    by 0x10886457: av_malloc (mem.c:71)
==1573==    by 0x10873487: av_buffer_alloc (buffer.c:72)
==1573==    by 0x1087E3F3: get_video_buffer (frame.c:119)
==1573==    by 0x1087E3F3: av_frame_get_buffer (frame.c:196)
==1573==    by 0x1009A8B7: ff_default_get_video_buffer (video.c:55)
==1573==    by 0x1009A8B7: ff_get_video_buffer (video.c:73)
==1573==    by 0x1009A8B7: ff_null_get_video_buffer (video.c:33)
==1573==    by 0x1009A843: ff_get_video_buffer (video.c:70)
==1573==    by 0x1009A843: ff_null_get_video_buffer (video.c:33)
==1573==    by 0x1009AA9B: ff_get_video_buffer (video.c:70)
==1573==    by 0x10094CFF: filter_frame (vf_scale.c:276)
==1573==    by 0x1007C7A3: ff_filter_frame (avfilter.c:698)
==1573==    by 0x1007C7A3: default_filter_frame (avfilter.c:638)
==1573==    by 0x1007F023: ff_filter_frame (avfilter.c:698)
==1573==    by 0x10081813: request_frame (buffersrc.c:399)
==1573== 
==1573== Invalid read of size 16
==1573==    at 0x1047C70C: get_pixels_vsx (pixblockdsp.c:139)
==1573==    by 0x1023AB0F: dnxhd_get_blocks (dnxhdenc.c:580)
==1573==    by 0x1023AB0F: dnxhd_calc_bits_thread (dnxhdenc.c:619)
==1573==    by 0x1023BA13: dnxhd_find_qscale (dnxhdenc.c:866)
==1573==    by 0x1023BA13: dnxhd_encode_fast (dnxhdenc.c:969)
==1573==    by 0x1023BA13: dnxhd_encode_picture (dnxhdenc.c:1055)
==1573==    by 0x102615E3: avcodec_encode_video2 (encode.c:227)
==1573==    by 0x10261803: do_encode (encode.c:274)
==1573==    by 0x10261A6F: avcodec_send_frame (encode.c:323)
==1573==    by 0x10075577: do_video_out (avconv.c:587)
==1573==    by 0x10075577: poll_filter (avconv.c:726)
==1573==    by 0x10075D4F: poll_filters (avconv.c:800)
==1573==    by 0x1005D0EB: transcode (avconv.c:2769)
==1573==    by 0x1005D0EB: main (avconv.c:2938)
==1573==  Address 0x16f121b8 is 460,792 bytes inside a block of size 460,800 alloc'd
==1573==    at 0x4088C90: memalign (vg_replace_malloc.c:857)
==1573==    by 0x4088DFF: posix_memalign (vg_replace_malloc.c:1020)
==1573==    by 0x10886457: av_malloc (mem.c:71)
==1573==    by 0x10873487: av_buffer_alloc (buffer.c:72)
==1573==    by 0x1087E3F3: get_video_buffer (frame.c:119)
==1573==    by 0x1087E3F3: av_frame_get_buffer (frame.c:196)
==1573==    by 0x1009A8B7: ff_default_get_video_buffer (video.c:55)
==1573==    by 0x1009A8B7: ff_get_video_buffer (video.c:73)
==1573==    by 0x1009A8B7: ff_null_get_video_buffer (video.c:33)
==1573==    by 0x1009A843: ff_get_video_buffer (video.c:70)
==1573==    by 0x1009A843: ff_null_get_video_buffer (video.c:33)
==1573==    by 0x1009AA9B: ff_get_video_buffer (video.c:70)
==1573==    by 0x10094CFF: filter_frame (vf_scale.c:276)
==1573==    by 0x1007C7A3: ff_filter_frame (avfilter.c:698)
==1573==    by 0x1007C7A3: default_filter_frame (avfilter.c:638)
==1573==    by 0x1007F023: ff_filter_frame (avfilter.c:698)
==1573==    by 0x10081813: request_frame (buffersrc.c:399)
==1573== 
==1573== Invalid read of size 16
==1573==    at 0x1047C70C: get_pixels_vsx (pixblockdsp.c:139)
==1573==    by 0x1023A153: dnxhd_get_blocks (dnxhdenc.c:576)
==1573==    by 0x1023A153: dnxhd_encode_thread (dnxhdenc.c:674)
==1573==    by 0x1023C14F: dnxhd_encode_picture (dnxhdenc.c:1071)
==1573==    by 0x102615E3: avcodec_encode_video2 (encode.c:227)
==1573==    by 0x10261803: do_encode (encode.c:274)
==1573==    by 0x10261A6F: avcodec_send_frame (encode.c:323)
==1573==    by 0x10075577: do_video_out (avconv.c:587)
==1573==    by 0x10075577: poll_filter (avconv.c:726)
==1573==    by 0x10075D4F: poll_filters (avconv.c:800)
==1573==    by 0x1005D0EB: transcode (avconv.c:2769)
==1573==    by 0x1005D0EB: main (avconv.c:2938)
==1573==  Address 0x16e31078 is 921,592 bytes inside a block of size 921,600 alloc'd
==1573==    at 0x4088C90: memalign (vg_replace_malloc.c:857)
==1573==    by 0x4088DFF: posix_memalign (vg_replace_malloc.c:1020)
==1573==    by 0x10886457: av_malloc (mem.c:71)
==1573==    by 0x10873487: av_buffer_alloc (buffer.c:72)
==1573==    by 0x1087E3F3: get_video_buffer (frame.c:119)
==1573==    by 0x1087E3F3: av_frame_get_buffer (frame.c:196)
==1573==    by 0x1009A8B7: ff_default_get_video_buffer (video.c:55)
==1573==    by 0x1009A8B7: ff_get_video_buffer (video.c:73)
==1573==    by 0x1009A8B7: ff_null_get_video_buffer (video.c:33)
==1573==    by 0x1009A843: ff_get_video_buffer (video.c:70)
==1573==    by 0x1009A843: ff_null_get_video_buffer (video.c:33)
==1573==    by 0x1009AA9B: ff_get_video_buffer (video.c:70)
==1573==    by 0x10094CFF: filter_frame (vf_scale.c:276)
==1573==    by 0x1007C7A3: ff_filter_frame (avfilter.c:698)
==1573==    by 0x1007C7A3: default_filter_frame (avfilter.c:638)
==1573==    by 0x1007F023: ff_filter_frame (avfilter.c:698)
==1573==    by 0x10081813: request_frame (buffersrc.c:399)
==1573== 
==1573== Invalid read of size 16
==1573==    at 0x1047C70C: get_pixels_vsx (pixblockdsp.c:139)
==1573==    by 0x1023A183: dnxhd_get_blocks (dnxhdenc.c:578)
==1573==    by 0x1023A183: dnxhd_encode_thread (dnxhdenc.c:674)
==1573==    by 0x1023C14F: dnxhd_encode_picture (dnxhdenc.c:1071)
==1573==    by 0x102615E3: avcodec_encode_video2 (encode.c:227)
==1573==    by 0x10261803: do_encode (encode.c:274)
==1573==    by 0x10261A6F: avcodec_send_frame (encode.c:323)
==1573==    by 0x10075577: do_video_out (avconv.c:587)
==1573==    by 0x10075577: poll_filter (avconv.c:726)
==1573==    by 0x10075D4F: poll_filters (avconv.c:800)
==1573==    by 0x1005D0EB: transcode (avconv.c:2769)
==1573==    by 0x1005D0EB: main (avconv.c:2938)
==1573==  Address 0x16ea1918 is 460,792 bytes inside a block of size 460,800 alloc'd
==1573==    at 0x4088C90: memalign (vg_replace_malloc.c:857)
==1573==    by 0x4088DFF: posix_memalign (vg_replace_malloc.c:1020)
==1573==    by 0x10886457: av_malloc (mem.c:71)
==1573==    by 0x10873487: av_buffer_alloc (buffer.c:72)
==1573==    by 0x1087E3F3: get_video_buffer (frame.c:119)
==1573==    by 0x1087E3F3: av_frame_get_buffer (frame.c:196)
==1573==    by 0x1009A8B7: ff_default_get_video_buffer (video.c:55)
==1573==    by 0x1009A8B7: ff_get_video_buffer (video.c:73)
==1573==    by 0x1009A8B7: ff_null_get_video_buffer (video.c:33)
==1573==    by 0x1009A843: ff_get_video_buffer (video.c:70)
==1573==    by 0x1009A843: ff_null_get_video_buffer (video.c:33)
==1573==    by 0x1009AA9B: ff_get_video_buffer (video.c:70)
==1573==    by 0x10094CFF: filter_frame (vf_scale.c:276)
==1573==    by 0x1007C7A3: ff_filter_frame (avfilter.c:698)
==1573==    by 0x1007C7A3: default_filter_frame (avfilter.c:638)
==1573==    by 0x1007F023: ff_filter_frame (avfilter.c:698)
==1573==    by 0x10081813: request_frame (buffersrc.c:399)
==1573== 
==1573== Invalid read of size 16
==1573==    at 0x1047C70C: get_pixels_vsx (pixblockdsp.c:139)
==1573==    by 0x1023A1B3: dnxhd_get_blocks (dnxhdenc.c:580)
==1573==    by 0x1023A1B3: dnxhd_encode_thread (dnxhdenc.c:674)
==1573==    by 0x1023C14F: dnxhd_encode_picture (dnxhdenc.c:1071)
==1573==    by 0x102615E3: avcodec_encode_video2 (encode.c:227)
==1573==    by 0x10261803: do_encode (encode.c:274)
==1573==    by 0x10261A6F: avcodec_send_frame (encode.c:323)
==1573==    by 0x10075577: do_video_out (avconv.c:587)
==1573==    by 0x10075577: poll_filter (avconv.c:726)
==1573==    by 0x10075D4F: poll_filters (avconv.c:800)
==1573==    by 0x1005D0EB: transcode (avconv.c:2769)
==1573==    by 0x1005D0EB: main (avconv.c:2938)
==1573==  Address 0x16f121b8 is 460,792 bytes inside a block of size 460,800 alloc'd
==1573==    at 0x4088C90: memalign (vg_replace_malloc.c:857)
==1573==    by 0x4088DFF: posix_memalign (vg_replace_malloc.c:1020)
==1573==    by 0x10886457: av_malloc (mem.c:71)
==1573==    by 0x10873487: av_buffer_alloc (buffer.c:72)
==1573==    by 0x1087E3F3: get_video_buffer (frame.c:119)
==1573==    by 0x1087E3F3: av_frame_get_buffer (frame.c:196)
==1573==    by 0x1009A8B7: ff_default_get_video_buffer (video.c:55)
==1573==    by 0x1009A8B7: ff_get_video_buffer (video.c:73)
==1573==    by 0x1009A8B7: ff_null_get_video_buffer (video.c:33)
==1573==    by 0x1009A843: ff_get_video_buffer (video.c:70)
==1573==    by 0x1009A843: ff_null_get_video_buffer (video.c:33)
==1573==    by 0x1009AA9B: ff_get_video_buffer (video.c:70)
==1573==    by 0x10094CFF: filter_frame (vf_scale.c:276)
==1573==    by 0x1007C7A3: ff_filter_frame (avfilter.c:698)
==1573==    by 0x1007C7A3: default_filter_frame (avfilter.c:638)
==1573==    by 0x1007F023: ff_filter_frame (avfilter.c:698)
==1573==    by 0x10081813: request_frame (buffersrc.c:399)
==1573== 
frame=    5 fps=  0 q=1.0 Lsize=    2240kB time=0.16 bitrate=114688.0kbits/s    
video:2240kB audio:0kB other streams:0kB global headers:0kB muxing overhead: 0.000000%
==1573== 
==1573== HEAP SUMMARY:
==1573==     in use at exit: 0 bytes in 0 blocks
==1573==   total heap usage: 1,770 allocs, 1,770 frees, 22,137,447 bytes allocated
==1573== 
==1573== All heap blocks were freed -- no leaks are possible
==1573== 
==1573== For counts of detected and suppressed errors, rerun with: -v
==1573== ERROR SUMMARY: 45 errors from 6 contexts (suppressed: 0 from 0)
diffstderrvsynth1-dnxhd-720p-rd1v12_dev0-1345-g0181ae9
--- /home/mik/src/fate/src/tests/ref/vsynth/vsynth1-dnxhd-720p-rd	2014-01-10 11:16:55.734697630 +0000
+++ tests/data/fate/vsynth1-dnxhd-720p-rd	2017-07-17 13:19:09.007459740 +0000
@@ -1,4 +0,0 @@
-1dc6e95925c4f3a230848ec17c02abed *tests/data/fate/vsynth1-dnxhd-720p-rd.dnxhd
-2293760 tests/data/fate/vsynth1-dnxhd-720p-rd.dnxhd
-02972d2aec120ec1577ec9053d68ae0f *tests/data/fate/vsynth1-dnxhd-720p-rd.out.rawvideo
-stddev:    6.26 PSNR: 32.19 MAXDIFF:   65 bytes:  7603200/   760320
==1788== Memcheck, a memory error detector
==1788== Copyright (C) 2002-2015, and GNU GPL'd, by Julian Seward et al.
==1788== Using Valgrind-3.12.0.SVN and LibVEX; rerun with -h for copyright info
==1788== Command: /home/mik/src/fate/ppc64-linux-gcc-valgrind/build/avconv -nostats -cpuflags all -f rawvideo -s 352x288 -pix_fmt yuv420p -threads 1 -idct simple -flags +bitexact -sws_flags +accurate_rnd+bitexact -fflags +bitexact -hwaccel none -threads 1 -thread_type frame+slice -i /home/mik/src/fate/ppc64-linux-gcc-valgrind/build/tests/data/vsynth1.yuv -threads 1 -idct simple -dct fastint -c dnxhd -s hd720 -b 90M -threads 4 -mbd rd -pix_fmt yuv422p -frames 5 -flags +bitexact -sws_flags +accurate_rnd+bitexact -fflags +bitexact -f dnxhd -y /home/mik/src/fate/ppc64-linux-gcc-valgrind/build/tests/data/fate/vsynth1-dnxhd-720p-rd.dnxhd
==1788== 
avconv version v13_dev0-1218-g95ce02b, Copyright (c) 2000-2017 the Libav developers
  built on Jul 17 2017 12:55:25 with gcc 5.4.0 (GCC)
[rawvideo @ 0x467aec0] Estimating duration from bitrate, this may be inaccurate
Input #0, rawvideo, from '/home/mik/src/fate/ppc64-linux-gcc-valgrind/build/tests/data/vsynth1.yuv':
  Duration: N/A, start: 0.000000, bitrate: N/A
    Stream #0:0: Video: rawvideo
      yuv420p, 352x288
      25 fps, 25 tbn
Stream mapping:
  Stream #0:0 -> #0:0 (rawvideo (native) -> dnxhd (native))
Press ctrl-c to stop encoding
Output #0, dnxhd, to '/home/mik/src/fate/ppc64-linux-gcc-valgrind/build/tests/data/fate/vsynth1-dnxhd-720p-rd.dnxhd':
    Stream #0:0: Video: dnxhd
      yuv422p, 1280x720, q=2-31, 90000 kb/s
      25 tbn
    Metadata:
      encoder         : dnxhd
==1788== Thread 68:
==1788== Invalid read of size 16
==1788==    at 0x1047C70C: get_pixels_vsx (pixblockdsp.c:139)
==1788==    by 0x1023AAAF: dnxhd_get_blocks (dnxhdenc.c:576)
==1788==    by 0x1023AAAF: dnxhd_calc_bits_thread (dnxhdenc.c:619)
==1788==    by 0x43BC327: start_thread (in /usr/lib64/libpthread-2.18.so)
==1788==    by 0x451DC6F: clone (in /usr/lib64/libc-2.18.so)
==1788==  Address 0x17e31078 is 921,592 bytes inside a block of size 921,600 alloc'd
==1788==    at 0x4088C90: memalign (vg_replace_malloc.c:857)
==1788==    by 0x4088DFF: posix_memalign (vg_replace_malloc.c:1020)
==1788==    by 0x10886457: av_malloc (mem.c:71)
==1788==    by 0x10873487: av_buffer_alloc (buffer.c:72)
==1788==    by 0x1087E3F3: get_video_buffer (frame.c:119)
==1788==    by 0x1087E3F3: av_frame_get_buffer (frame.c:196)
==1788==    by 0x1009A8B7: ff_default_get_video_buffer (video.c:55)
==1788==    by 0x1009A8B7: ff_get_video_buffer (video.c:73)
==1788==    by 0x1009A8B7: ff_null_get_video_buffer (video.c:33)
==1788==    by 0x1009A843: ff_get_video_buffer (video.c:70)
==1788==    by 0x1009A843: ff_null_get_video_buffer (video.c:33)
==1788==    by 0x1009AA9B: ff_get_video_buffer (video.c:70)
==1788==    by 0x10094CFF: filter_frame (vf_scale.c:276)
==1788==    by 0x1007C7A3: ff_filter_frame (avfilter.c:698)
==1788==    by 0x1007C7A3: default_filter_frame (avfilter.c:638)
==1788==    by 0x1007F023: ff_filter_frame (avfilter.c:698)
==1788==    by 0x10081813: request_frame (buffersrc.c:399)
==1788== 
==1788== Invalid read of size 16
==1788==    at 0x1047C70C: get_pixels_vsx (pixblockdsp.c:139)
==1788==    by 0x1023AADF: dnxhd_get_blocks (dnxhdenc.c:578)
==1788==    by 0x1023AADF: dnxhd_calc_bits_thread (dnxhdenc.c:619)
==1788==    by 0x43BC327: start_thread (in /usr/lib64/libpthread-2.18.so)
==1788==    by 0x451DC6F: clone (in /usr/lib64/libc-2.18.so)
==1788==  Address 0x17ea1918 is 460,792 bytes inside a block of size 460,800 alloc'd
==1788==    at 0x4088C90: memalign (vg_replace_malloc.c:857)
==1788==    by 0x4088DFF: posix_memalign (vg_replace_malloc.c:1020)
==1788==    by 0x10886457: av_malloc (mem.c:71)
==1788==    by 0x10873487: av_buffer_alloc (buffer.c:72)
==1788==    by 0x1087E3F3: get_video_buffer (frame.c:119)
==1788==    by 0x1087E3F3: av_frame_get_buffer (frame.c:196)
==1788==    by 0x1009A8B7: ff_default_get_video_buffer (video.c:55)
==1788==    by 0x1009A8B7: ff_get_video_buffer (video.c:73)
==1788==    by 0x1009A8B7: ff_null_get_video_buffer (video.c:33)
==1788==    by 0x1009A843: ff_get_video_buffer (video.c:70)
==1788==    by 0x1009A843: ff_null_get_video_buffer (video.c:33)
==1788==    by 0x1009AA9B: ff_get_video_buffer (video.c:70)
==1788==    by 0x10094CFF: filter_frame (vf_scale.c:276)
==1788==    by 0x1007C7A3: ff_filter_frame (avfilter.c:698)
==1788==    by 0x1007C7A3: default_filter_frame (avfilter.c:638)
==1788==    by 0x1007F023: ff_filter_frame (avfilter.c:698)
==1788==    by 0x10081813: request_frame (buffersrc.c:399)
==1788== 
==1788== Invalid read of size 16
==1788==    at 0x1047C70C: get_pixels_vsx (pixblockdsp.c:139)
==1788==    by 0x1023AB0F: dnxhd_get_blocks (dnxhdenc.c:580)
==1788==    by 0x1023AB0F: dnxhd_calc_bits_thread (dnxhdenc.c:619)
==1788==    by 0x43BC327: start_thread (in /usr/lib64/libpthread-2.18.so)
==1788==    by 0x451DC6F: clone (in /usr/lib64/libc-2.18.so)
==1788==  Address 0x17f121b8 is 460,792 bytes inside a block of size 460,800 alloc'd
==1788==    at 0x4088C90: memalign (vg_replace_malloc.c:857)
==1788==    by 0x4088DFF: posix_memalign (vg_replace_malloc.c:1020)
==1788==    by 0x10886457: av_malloc (mem.c:71)
==1788==    by 0x10873487: av_buffer_alloc (buffer.c:72)
==1788==    by 0x1087E3F3: get_video_buffer (frame.c:119)
==1788==    by 0x1087E3F3: av_frame_get_buffer (frame.c:196)
==1788==    by 0x1009A8B7: ff_default_get_video_buffer (video.c:55)
==1788==    by 0x1009A8B7: ff_get_video_buffer (video.c:73)
==1788==    by 0x1009A8B7: ff_null_get_video_buffer (video.c:33)
==1788==    by 0x1009A843: ff_get_video_buffer (video.c:70)
==1788==    by 0x1009A843: ff_null_get_video_buffer (video.c:33)
==1788==    by 0x1009AA9B: ff_get_video_buffer (video.c:70)
==1788==    by 0x10094CFF: filter_frame (vf_scale.c:276)
==1788==    by 0x1007C7A3: ff_filter_frame (avfilter.c:698)
==1788==    by 0x1007C7A3: default_filter_frame (avfilter.c:638)
==1788==    by 0x1007F023: ff_filter_frame (avfilter.c:698)
==1788==    by 0x10081813: request_frame (buffersrc.c:399)
==1788== 
==1788== Thread 70:
==1788== Invalid read of size 16
==1788==    at 0x1047C70C: get_pixels_vsx (pixblockdsp.c:139)
==1788==    by 0x1023A153: dnxhd_get_blocks (dnxhdenc.c:576)
==1788==    by 0x1023A153: dnxhd_encode_thread (dnxhdenc.c:674)
==1788==    by 0x43BC327: start_thread (in /usr/lib64/libpthread-2.18.so)
==1788==    by 0x451DC6F: clone (in /usr/lib64/libc-2.18.so)
==1788==  Address 0x17e31078 is 921,592 bytes inside a block of size 921,600 alloc'd
==1788==    at 0x4088C90: memalign (vg_replace_malloc.c:857)
==1788==    by 0x4088DFF: posix_memalign (vg_replace_malloc.c:1020)
==1788==    by 0x10886457: av_malloc (mem.c:71)
==1788==    by 0x10873487: av_buffer_alloc (buffer.c:72)
==1788==    by 0x1087E3F3: get_video_buffer (frame.c:119)
==1788==    by 0x1087E3F3: av_frame_get_buffer (frame.c:196)
==1788==    by 0x1009A8B7: ff_default_get_video_buffer (video.c:55)
==1788==    by 0x1009A8B7: ff_get_video_buffer (video.c:73)
==1788==    by 0x1009A8B7: ff_null_get_video_buffer (video.c:33)
==1788==    by 0x1009A843: ff_get_video_buffer (video.c:70)
==1788==    by 0x1009A843: ff_null_get_video_buffer (video.c:33)
==1788==    by 0x1009AA9B: ff_get_video_buffer (video.c:70)
==1788==    by 0x10094CFF: filter_frame (vf_scale.c:276)
==1788==    by 0x1007C7A3: ff_filter_frame (avfilter.c:698)
==1788==    by 0x1007C7A3: default_filter_frame (avfilter.c:638)
==1788==    by 0x1007F023: ff_filter_frame (avfilter.c:698)
==1788==    by 0x10081813: request_frame (buffersrc.c:399)
==1788== 
==1788== Invalid read of size 16
==1788==    at 0x1047C70C: get_pixels_vsx (pixblockdsp.c:139)
==1788==    by 0x1023A183: dnxhd_get_blocks (dnxhdenc.c:578)
==1788==    by 0x1023A183: dnxhd_encode_thread (dnxhdenc.c:674)
==1788==    by 0x43BC327: start_thread (in /usr/lib64/libpthread-2.18.so)
==1788==    by 0x451DC6F: clone (in /usr/lib64/libc-2.18.so)
==1788==  Address 0x17ea1918 is 460,792 bytes inside a block of size 460,800 alloc'd
==1788==    at 0x4088C90: memalign (vg_replace_malloc.c:857)
==1788==    by 0x4088DFF: posix_memalign (vg_replace_malloc.c:1020)
==1788==    by 0x10886457: av_malloc (mem.c:71)
==1788==    by 0x10873487: av_buffer_alloc (buffer.c:72)
==1788==    by 0x1087E3F3: get_video_buffer (frame.c:119)
==1788==    by 0x1087E3F3: av_frame_get_buffer (frame.c:196)
==1788==    by 0x1009A8B7: ff_default_get_video_buffer (video.c:55)
==1788==    by 0x1009A8B7: ff_get_video_buffer (video.c:73)
==1788==    by 0x1009A8B7: ff_null_get_video_buffer (video.c:33)
==1788==    by 0x1009A843: ff_get_video_buffer (video.c:70)
==1788==    by 0x1009A843: ff_null_get_video_buffer (video.c:33)
==1788==    by 0x1009AA9B: ff_get_video_buffer (video.c:70)
==1788==    by 0x10094CFF: filter_frame (vf_scale.c:276)
==1788==    by 0x1007C7A3: ff_filter_frame (avfilter.c:698)
==1788==    by 0x1007C7A3: default_filter_frame (avfilter.c:638)
==1788==    by 0x1007F023: ff_filter_frame (avfilter.c:698)
==1788==    by 0x10081813: request_frame (buffersrc.c:399)
==1788== 
==1788== Invalid read of size 16
==1788==    at 0x1047C70C: get_pixels_vsx (pixblockdsp.c:139)
==1788==    by 0x1023A1B3: dnxhd_get_blocks (dnxhdenc.c:580)
==1788==    by 0x1023A1B3: dnxhd_encode_thread (dnxhdenc.c:674)
==1788==    by 0x43BC327: start_thread (in /usr/lib64/libpthread-2.18.so)
==1788==    by 0x451DC6F: clone (in /usr/lib64/libc-2.18.so)
==1788==  Address 0x17f121b8 is 460,792 bytes inside a block of size 460,800 alloc'd
==1788==    at 0x4088C90: memalign (vg_replace_malloc.c:857)
==1788==    by 0x4088DFF: posix_memalign (vg_replace_malloc.c:1020)
==1788==    by 0x10886457: av_malloc (mem.c:71)
==1788==    by 0x10873487: av_buffer_alloc (buffer.c:72)
==1788==    by 0x1087E3F3: get_video_buffer (frame.c:119)
==1788==    by 0x1087E3F3: av_frame_get_buffer (frame.c:196)
==1788==    by 0x1009A8B7: ff_default_get_video_buffer (video.c:55)
==1788==    by 0x1009A8B7: ff_get_video_buffer (video.c:73)
==1788==    by 0x1009A8B7: ff_null_get_video_buffer (video.c:33)
==1788==    by 0x1009A843: ff_get_video_buffer (video.c:70)
==1788==    by 0x1009A843: ff_null_get_video_buffer (video.c:33)
==1788==    by 0x1009AA9B: ff_get_video_buffer (video.c:70)
==1788==    by 0x10094CFF: filter_frame (vf_scale.c:276)
==1788==    by 0x1007C7A3: ff_filter_frame (avfilter.c:698)
==1788==    by 0x1007C7A3: default_filter_frame (avfilter.c:638)
==1788==    by 0x1007F023: ff_filter_frame (avfilter.c:698)
==1788==    by 0x10081813: request_frame (buffersrc.c:399)
==1788== 
frame=    5 fps=  0 q=30.0 Lsize=    2240kB time=0.16 bitrate=114688.0kbits/s    
video:2240kB audio:0kB other streams:0kB global headers:0kB muxing overhead: 0.000000%
==1788== 
==1788== HEAP SUMMARY:
==1788==     in use at exit: 0 bytes in 0 blocks
==1788==   total heap usage: 1,790 allocs, 1,790 frees, 22,000,471 bytes allocated
==1788== 
==1788== All heap blocks were freed -- no leaks are possible
==1788== 
==1788== For counts of detected and suppressed errors, rerun with: -v
==1788== ERROR SUMMARY: 465 errors from 6 contexts (suppressed: 0 from 0)
diffstderrvsynth2-dnxhd-720p1v12_dev0-1345-g0181ae9
--- /home/mik/src/fate/src/tests/ref/vsynth/vsynth2-dnxhd-720p	2014-11-30 15:37:05.674204650 +0000
+++ tests/data/fate/vsynth2-dnxhd-720p	2017-07-17 13:21:32.427732238 +0000
@@ -1,4 +0,0 @@
-71c7491a41545882b36f07ee98021b4b *tests/data/fate/vsynth2-dnxhd-720p.dnxhd
-2293760 tests/data/fate/vsynth2-dnxhd-720p.dnxhd
-adef978dc9c9e4f10dc7c30418af62af *tests/data/fate/vsynth2-dnxhd-720p.out.rawvideo
-stddev:    6.69 PSNR: 31.62 MAXDIFF:  171 bytes:  7603200/   760320
==34332== Memcheck, a memory error detector
==34332== Copyright (C) 2002-2015, and GNU GPL'd, by Julian Seward et al.
==34332== Using Valgrind-3.12.0.SVN and LibVEX; rerun with -h for copyright info
==34332== Command: /home/mik/src/fate/ppc64-linux-gcc-valgrind/build/avconv -nostats -cpuflags all -f rawvideo -s 352x288 -pix_fmt yuv420p -threads 1 -idct simple -flags +bitexact -sws_flags +accurate_rnd+bitexact -fflags +bitexact -hwaccel none -threads 1 -thread_type frame+slice -i /home/mik/src/fate/ppc64-linux-gcc-valgrind/build/tests/data/vsynth2.yuv -threads 1 -idct simple -dct fastint -c dnxhd -s hd720 -b 90M -pix_fmt yuv422p -frames 5 -flags +bitexact -sws_flags +accurate_rnd+bitexact -fflags +bitexact -f dnxhd -y /home/mik/src/fate/ppc64-linux-gcc-valgrind/build/tests/data/fate/vsynth2-dnxhd-720p.dnxhd
==34332== 
avconv version v13_dev0-1218-g95ce02b, Copyright (c) 2000-2017 the Libav developers
  built on Jul 17 2017 12:55:25 with gcc 5.4.0 (GCC)
[rawvideo @ 0x467ae20] Estimating duration from bitrate, this may be inaccurate
Input #0, rawvideo, from '/home/mik/src/fate/ppc64-linux-gcc-valgrind/build/tests/data/vsynth2.yuv':
  Duration: N/A, start: 0.000000, bitrate: N/A
    Stream #0:0: Video: rawvideo
      yuv420p, 352x288
      25 fps, 25 tbn
Stream mapping:
  Stream #0:0 -> #0:0 (rawvideo (native) -> dnxhd (native))
Press ctrl-c to stop encoding
Output #0, dnxhd, to '/home/mik/src/fate/ppc64-linux-gcc-valgrind/build/tests/data/fate/vsynth2-dnxhd-720p.dnxhd':
    Stream #0:0: Video: dnxhd
      yuv422p, 1280x720, q=2-31, 90000 kb/s
      25 tbn
    Metadata:
      encoder         : dnxhd
==34332== Invalid read of size 16
==34332==    at 0x1047C70C: get_pixels_vsx (pixblockdsp.c:139)
==34332==    by 0x1023AAAF: dnxhd_get_blocks (dnxhdenc.c:576)
==34332==    by 0x1023AAAF: dnxhd_calc_bits_thread (dnxhdenc.c:619)
==34332==    by 0x1023BA13: dnxhd_find_qscale (dnxhdenc.c:866)
==34332==    by 0x1023BA13: dnxhd_encode_fast (dnxhdenc.c:969)
==34332==    by 0x1023BA13: dnxhd_encode_picture (dnxhdenc.c:1055)
==34332==    by 0x102615E3: avcodec_encode_video2 (encode.c:227)
==34332==    by 0x10261803: do_encode (encode.c:274)
==34332==    by 0x10261A6F: avcodec_send_frame (encode.c:323)
==34332==    by 0x10075577: do_video_out (avconv.c:587)
==34332==    by 0x10075577: poll_filter (avconv.c:726)
==34332==    by 0x10075D4F: poll_filters (avconv.c:800)
==34332==    by 0x1005D0EB: transcode (avconv.c:2769)
==34332==    by 0x1005D0EB: main (avconv.c:2938)
==34332==  Address 0x16e31078 is 921,592 bytes inside a block of size 921,600 alloc'd
==34332==    at 0x4088C90: memalign (vg_replace_malloc.c:857)
==34332==    by 0x4088DFF: posix_memalign (vg_replace_malloc.c:1020)
==34332==    by 0x10886457: av_malloc (mem.c:71)
==34332==    by 0x10873487: av_buffer_alloc (buffer.c:72)
==34332==    by 0x1087E3F3: get_video_buffer (frame.c:119)
==34332==    by 0x1087E3F3: av_frame_get_buffer (frame.c:196)
==34332==    by 0x1009A8B7: ff_default_get_video_buffer (video.c:55)
==34332==    by 0x1009A8B7: ff_get_video_buffer (video.c:73)
==34332==    by 0x1009A8B7: ff_null_get_video_buffer (video.c:33)
==34332==    by 0x1009A843: ff_get_video_buffer (video.c:70)
==34332==    by 0x1009A843: ff_null_get_video_buffer (video.c:33)
==34332==    by 0x1009AA9B: ff_get_video_buffer (video.c:70)
==34332==    by 0x10094CFF: filter_frame (vf_scale.c:276)
==34332==    by 0x1007C7A3: ff_filter_frame (avfilter.c:698)
==34332==    by 0x1007C7A3: default_filter_frame (avfilter.c:638)
==34332==    by 0x1007F023: ff_filter_frame (avfilter.c:698)
==34332==    by 0x10081813: request_frame (buffersrc.c:399)
==34332== 
==34332== Invalid read of size 16
==34332==    at 0x1047C70C: get_pixels_vsx (pixblockdsp.c:139)
==34332==    by 0x1023AADF: dnxhd_get_blocks (dnxhdenc.c:578)
==34332==    by 0x1023AADF: dnxhd_calc_bits_thread (dnxhdenc.c:619)
==34332==    by 0x1023BA13: dnxhd_find_qscale (dnxhdenc.c:866)
==34332==    by 0x1023BA13: dnxhd_encode_fast (dnxhdenc.c:969)
==34332==    by 0x1023BA13: dnxhd_encode_picture (dnxhdenc.c:1055)
==34332==    by 0x102615E3: avcodec_encode_video2 (encode.c:227)
==34332==    by 0x10261803: do_encode (encode.c:274)
==34332==    by 0x10261A6F: avcodec_send_frame (encode.c:323)
==34332==    by 0x10075577: do_video_out (avconv.c:587)
==34332==    by 0x10075577: poll_filter (avconv.c:726)
==34332==    by 0x10075D4F: poll_filters (avconv.c:800)
==34332==    by 0x1005D0EB: transcode (avconv.c:2769)
==34332==    by 0x1005D0EB: main (avconv.c:2938)
==34332==  Address 0x16ea1918 is 460,792 bytes inside a block of size 460,800 alloc'd
==34332==    at 0x4088C90: memalign (vg_replace_malloc.c:857)
==34332==    by 0x4088DFF: posix_memalign (vg_replace_malloc.c:1020)
==34332==    by 0x10886457: av_malloc (mem.c:71)
==34332==    by 0x10873487: av_buffer_alloc (buffer.c:72)
==34332==    by 0x1087E3F3: get_video_buffer (frame.c:119)
==34332==    by 0x1087E3F3: av_frame_get_buffer (frame.c:196)
==34332==    by 0x1009A8B7: ff_default_get_video_buffer (video.c:55)
==34332==    by 0x1009A8B7: ff_get_video_buffer (video.c:73)
==34332==    by 0x1009A8B7: ff_null_get_video_buffer (video.c:33)
==34332==    by 0x1009A843: ff_get_video_buffer (video.c:70)
==34332==    by 0x1009A843: ff_null_get_video_buffer (video.c:33)
==34332==    by 0x1009AA9B: ff_get_video_buffer (video.c:70)
==34332==    by 0x10094CFF: filter_frame (vf_scale.c:276)
==34332==    by 0x1007C7A3: ff_filter_frame (avfilter.c:698)
==34332==    by 0x1007C7A3: default_filter_frame (avfilter.c:638)
==34332==    by 0x1007F023: ff_filter_frame (avfilter.c:698)
==34332==    by 0x10081813: request_frame (buffersrc.c:399)
==34332== 
==34332== Invalid read of size 16
==34332==    at 0x1047C70C: get_pixels_vsx (pixblockdsp.c:139)
==34332==    by 0x1023AB0F: dnxhd_get_blocks (dnxhdenc.c:580)
==34332==    by 0x1023AB0F: dnxhd_calc_bits_thread (dnxhdenc.c:619)
==34332==    by 0x1023BA13: dnxhd_find_qscale (dnxhdenc.c:866)
==34332==    by 0x1023BA13: dnxhd_encode_fast (dnxhdenc.c:969)
==34332==    by 0x1023BA13: dnxhd_encode_picture (dnxhdenc.c:1055)
==34332==    by 0x102615E3: avcodec_encode_video2 (encode.c:227)
==34332==    by 0x10261803: do_encode (encode.c:274)
==34332==    by 0x10261A6F: avcodec_send_frame (encode.c:323)
==34332==    by 0x10075577: do_video_out (avconv.c:587)
==34332==    by 0x10075577: poll_filter (avconv.c:726)
==34332==    by 0x10075D4F: poll_filters (avconv.c:800)
==34332==    by 0x1005D0EB: transcode (avconv.c:2769)
==34332==    by 0x1005D0EB: main (avconv.c:2938)
==34332==  Address 0x16f121b8 is 460,792 bytes inside a block of size 460,800 alloc'd
==34332==    at 0x4088C90: memalign (vg_replace_malloc.c:857)
==34332==    by 0x4088DFF: posix_memalign (vg_replace_malloc.c:1020)
==34332==    by 0x10886457: av_malloc (mem.c:71)
==34332==    by 0x10873487: av_buffer_alloc (buffer.c:72)
==34332==    by 0x1087E3F3: get_video_buffer (frame.c:119)
==34332==    by 0x1087E3F3: av_frame_get_buffer (frame.c:196)
==34332==    by 0x1009A8B7: ff_default_get_video_buffer (video.c:55)
==34332==    by 0x1009A8B7: ff_get_video_buffer (video.c:73)
==34332==    by 0x1009A8B7: ff_null_get_video_buffer (video.c:33)
==34332==    by 0x1009A843: ff_get_video_buffer (video.c:70)
==34332==    by 0x1009A843: ff_null_get_video_buffer (video.c:33)
==34332==    by 0x1009AA9B: ff_get_video_buffer (video.c:70)
==34332==    by 0x10094CFF: filter_frame (vf_scale.c:276)
==34332==    by 0x1007C7A3: ff_filter_frame (avfilter.c:698)
==34332==    by 0x1007C7A3: default_filter_frame (avfilter.c:638)
==34332==    by 0x1007F023: ff_filter_frame (avfilter.c:698)
==34332==    by 0x10081813: request_frame (buffersrc.c:399)
==34332== 
==34332== Invalid read of size 16
==34332==    at 0x1047C70C: get_pixels_vsx (pixblockdsp.c:139)
==34332==    by 0x1023A153: dnxhd_get_blocks (dnxhdenc.c:576)
==34332==    by 0x1023A153: dnxhd_encode_thread (dnxhdenc.c:674)
==34332==    by 0x1023C14F: dnxhd_encode_picture (dnxhdenc.c:1071)
==34332==    by 0x102615E3: avcodec_encode_video2 (encode.c:227)
==34332==    by 0x10261803: do_encode (encode.c:274)
==34332==    by 0x10261A6F: avcodec_send_frame (encode.c:323)
==34332==    by 0x10075577: do_video_out (avconv.c:587)
==34332==    by 0x10075577: poll_filter (avconv.c:726)
==34332==    by 0x10075D4F: poll_filters (avconv.c:800)
==34332==    by 0x1005D0EB: transcode (avconv.c:2769)
==34332==    by 0x1005D0EB: main (avconv.c:2938)
==34332==  Address 0x16e31078 is 921,592 bytes inside a block of size 921,600 alloc'd
==34332==    at 0x4088C90: memalign (vg_replace_malloc.c:857)
==34332==    by 0x4088DFF: posix_memalign (vg_replace_malloc.c:1020)
==34332==    by 0x10886457: av_malloc (mem.c:71)
==34332==    by 0x10873487: av_buffer_alloc (buffer.c:72)
==34332==    by 0x1087E3F3: get_video_buffer (frame.c:119)
==34332==    by 0x1087E3F3: av_frame_get_buffer (frame.c:196)
==34332==    by 0x1009A8B7: ff_default_get_video_buffer (video.c:55)
==34332==    by 0x1009A8B7: ff_get_video_buffer (video.c:73)
==34332==    by 0x1009A8B7: ff_null_get_video_buffer (video.c:33)
==34332==    by 0x1009A843: ff_get_video_buffer (video.c:70)
==34332==    by 0x1009A843: ff_null_get_video_buffer (video.c:33)
==34332==    by 0x1009AA9B: ff_get_video_buffer (video.c:70)
==34332==    by 0x10094CFF: filter_frame (vf_scale.c:276)
==34332==    by 0x1007C7A3: ff_filter_frame (avfilter.c:698)
==34332==    by 0x1007C7A3: default_filter_frame (avfilter.c:638)
==34332==    by 0x1007F023: ff_filter_frame (avfilter.c:698)
==34332==    by 0x10081813: request_frame (buffersrc.c:399)
==34332== 
==34332== Invalid read of size 16
==34332==    at 0x1047C70C: get_pixels_vsx (pixblockdsp.c:139)
==34332==    by 0x1023A183: dnxhd_get_blocks (dnxhdenc.c:578)
==34332==    by 0x1023A183: dnxhd_encode_thread (dnxhdenc.c:674)
==34332==    by 0x1023C14F: dnxhd_encode_picture (dnxhdenc.c:1071)
==34332==    by 0x102615E3: avcodec_encode_video2 (encode.c:227)
==34332==    by 0x10261803: do_encode (encode.c:274)
==34332==    by 0x10261A6F: avcodec_send_frame (encode.c:323)
==34332==    by 0x10075577: do_video_out (avconv.c:587)
==34332==    by 0x10075577: poll_filter (avconv.c:726)
==34332==    by 0x10075D4F: poll_filters (avconv.c:800)
==34332==    by 0x1005D0EB: transcode (avconv.c:2769)
==34332==    by 0x1005D0EB: main (avconv.c:2938)
==34332==  Address 0x16ea1918 is 460,792 bytes inside a block of size 460,800 alloc'd
==34332==    at 0x4088C90: memalign (vg_replace_malloc.c:857)
==34332==    by 0x4088DFF: posix_memalign (vg_replace_malloc.c:1020)
==34332==    by 0x10886457: av_malloc (mem.c:71)
==34332==    by 0x10873487: av_buffer_alloc (buffer.c:72)
==34332==    by 0x1087E3F3: get_video_buffer (frame.c:119)
==34332==    by 0x1087E3F3: av_frame_get_buffer (frame.c:196)
==34332==    by 0x1009A8B7: ff_default_get_video_buffer (video.c:55)
==34332==    by 0x1009A8B7: ff_get_video_buffer (video.c:73)
==34332==    by 0x1009A8B7: ff_null_get_video_buffer (video.c:33)
==34332==    by 0x1009A843: ff_get_video_buffer (video.c:70)
==34332==    by 0x1009A843: ff_null_get_video_buffer (video.c:33)
==34332==    by 0x1009AA9B: ff_get_video_buffer (video.c:70)
==34332==    by 0x10094CFF: filter_frame (vf_scale.c:276)
==34332==    by 0x1007C7A3: ff_filter_frame (avfilter.c:698)
==34332==    by 0x1007C7A3: default_filter_frame (avfilter.c:638)
==34332==    by 0x1007F023: ff_filter_frame (avfilter.c:698)
==34332==    by 0x10081813: request_frame (buffersrc.c:399)
==34332== 
==34332== Invalid read of size 16
==34332==    at 0x1047C70C: get_pixels_vsx (pixblockdsp.c:139)
==34332==    by 0x1023A1B3: dnxhd_get_blocks (dnxhdenc.c:580)
==34332==    by 0x1023A1B3: dnxhd_encode_thread (dnxhdenc.c:674)
==34332==    by 0x1023C14F: dnxhd_encode_picture (dnxhdenc.c:1071)
==34332==    by 0x102615E3: avcodec_encode_video2 (encode.c:227)
==34332==    by 0x10261803: do_encode (encode.c:274)
==34332==    by 0x10261A6F: avcodec_send_frame (encode.c:323)
==34332==    by 0x10075577: do_video_out (avconv.c:587)
==34332==    by 0x10075577: poll_filter (avconv.c:726)
==34332==    by 0x10075D4F: poll_filters (avconv.c:800)
==34332==    by 0x1005D0EB: transcode (avconv.c:2769)
==34332==    by 0x1005D0EB: main (avconv.c:2938)
==34332==  Address 0x16f121b8 is 460,792 bytes inside a block of size 460,800 alloc'd
==34332==    at 0x4088C90: memalign (vg_replace_malloc.c:857)
==34332==    by 0x4088DFF: posix_memalign (vg_replace_malloc.c:1020)
==34332==    by 0x10886457: av_malloc (mem.c:71)
==34332==    by 0x10873487: av_buffer_alloc (buffer.c:72)
==34332==    by 0x1087E3F3: get_video_buffer (frame.c:119)
==34332==    by 0x1087E3F3: av_frame_get_buffer (frame.c:196)
==34332==    by 0x1009A8B7: ff_default_get_video_buffer (video.c:55)
==34332==    by 0x1009A8B7: ff_get_video_buffer (video.c:73)
==34332==    by 0x1009A8B7: ff_null_get_video_buffer (video.c:33)
==34332==    by 0x1009A843: ff_get_video_buffer (video.c:70)
==34332==    by 0x1009A843: ff_null_get_video_buffer (video.c:33)
==34332==    by 0x1009AA9B: ff_get_video_buffer (video.c:70)
==34332==    by 0x10094CFF: filter_frame (vf_scale.c:276)
==34332==    by 0x1007C7A3: ff_filter_frame (avfilter.c:698)
==34332==    by 0x1007C7A3: default_filter_frame (avfilter.c:638)
==34332==    by 0x1007F023: ff_filter_frame (avfilter.c:698)
==34332==    by 0x10081813: request_frame (buffersrc.c:399)
==34332== 
frame=    5 fps=  1 q=1.0 Lsize=    2240kB time=0.16 bitrate=114688.0kbits/s    
video:2240kB audio:0kB other streams:0kB global headers:0kB muxing overhead: 0.000000%
==34332== 
==34332== HEAP SUMMARY:
==34332==     in use at exit: 0 bytes in 0 blocks
==34332==   total heap usage: 1,765 allocs, 1,765 frees, 21,993,447 bytes allocated
==34332== 
==34332== All heap blocks were freed -- no leaks are possible
==34332== 
==34332== For counts of detected and suppressed errors, rerun with: -v
==34332== ERROR SUMMARY: 30 errors from 6 contexts (suppressed: 0 from 0)
diffstderrvsynth2-dnxhd-720p-rd1v12_dev0-1345-g0181ae9
--- /home/mik/src/fate/src/tests/ref/vsynth/vsynth2-dnxhd-720p-rd	2014-11-30 15:37:05.674204650 +0000
+++ tests/data/fate/vsynth2-dnxhd-720p-rd	2017-07-17 13:21:35.437737957 +0000
@@ -1,4 +0,0 @@
-819a7714098e098981bf08253ef2e490 *tests/data/fate/vsynth2-dnxhd-720p-rd.dnxhd
-2293760 tests/data/fate/vsynth2-dnxhd-720p-rd.dnxhd
-a05c35b99e5e74a9c8b3a9c66da01775 *tests/data/fate/vsynth2-dnxhd-720p-rd.out.rawvideo
-stddev:    1.53 PSNR: 44.39 MAXDIFF:   31 bytes:  7603200/   760320
==34767== Memcheck, a memory error detector
==34767== Copyright (C) 2002-2015, and GNU GPL'd, by Julian Seward et al.
==34767== Using Valgrind-3.12.0.SVN and LibVEX; rerun with -h for copyright info
==34767== Command: /home/mik/src/fate/ppc64-linux-gcc-valgrind/build/avconv -nostats -cpuflags all -f rawvideo -s 352x288 -pix_fmt yuv420p -threads 1 -idct simple -flags +bitexact -sws_flags +accurate_rnd+bitexact -fflags +bitexact -hwaccel none -threads 1 -thread_type frame+slice -i /home/mik/src/fate/ppc64-linux-gcc-valgrind/build/tests/data/vsynth2.yuv -threads 1 -idct simple -dct fastint -c dnxhd -s hd720 -b 90M -threads 4 -mbd rd -pix_fmt yuv422p -frames 5 -flags +bitexact -sws_flags +accurate_rnd+bitexact -fflags +bitexact -f dnxhd -y /home/mik/src/fate/ppc64-linux-gcc-valgrind/build/tests/data/fate/vsynth2-dnxhd-720p-rd.dnxhd
==34767== 
avconv version v13_dev0-1218-g95ce02b, Copyright (c) 2000-2017 the Libav developers
  built on Jul 17 2017 12:55:25 with gcc 5.4.0 (GCC)
[rawvideo @ 0x467aec0] Estimating duration from bitrate, this may be inaccurate
Input #0, rawvideo, from '/home/mik/src/fate/ppc64-linux-gcc-valgrind/build/tests/data/vsynth2.yuv':
  Duration: N/A, start: 0.000000, bitrate: N/A
    Stream #0:0: Video: rawvideo
      yuv420p, 352x288
      25 fps, 25 tbn
Stream mapping:
  Stream #0:0 -> #0:0 (rawvideo (native) -> dnxhd (native))
Press ctrl-c to stop encoding
Output #0, dnxhd, to '/home/mik/src/fate/ppc64-linux-gcc-valgrind/build/tests/data/fate/vsynth2-dnxhd-720p-rd.dnxhd':
    Stream #0:0: Video: dnxhd
      yuv422p, 1280x720, q=2-31, 90000 kb/s
      25 tbn
    Metadata:
      encoder         : dnxhd
==34767== Thread 69:
==34767== Invalid read of size 16
==34767==    at 0x1047C70C: get_pixels_vsx (pixblockdsp.c:139)
==34767==    by 0x1023AAAF: dnxhd_get_blocks (dnxhdenc.c:576)
==34767==    by 0x1023AAAF: dnxhd_calc_bits_thread (dnxhdenc.c:619)
==34767==    by 0x43BC327: start_thread (in /usr/lib64/libpthread-2.18.so)
==34767==    by 0x451DC6F: clone (in /usr/lib64/libc-2.18.so)
==34767==  Address 0x17e31078 is 921,592 bytes inside a block of size 921,600 alloc'd
==34767==    at 0x4088C90: memalign (vg_replace_malloc.c:857)
==34767==    by 0x4088DFF: posix_memalign (vg_replace_malloc.c:1020)
==34767==    by 0x10886457: av_malloc (mem.c:71)
==34767==    by 0x10873487: av_buffer_alloc (buffer.c:72)
==34767==    by 0x1087E3F3: get_video_buffer (frame.c:119)
==34767==    by 0x1087E3F3: av_frame_get_buffer (frame.c:196)
==34767==    by 0x1009A8B7: ff_default_get_video_buffer (video.c:55)
==34767==    by 0x1009A8B7: ff_get_video_buffer (video.c:73)
==34767==    by 0x1009A8B7: ff_null_get_video_buffer (video.c:33)
==34767==    by 0x1009A843: ff_get_video_buffer (video.c:70)
==34767==    by 0x1009A843: ff_null_get_video_buffer (video.c:33)
==34767==    by 0x1009AA9B: ff_get_video_buffer (video.c:70)
==34767==    by 0x10094CFF: filter_frame (vf_scale.c:276)
==34767==    by 0x1007C7A3: ff_filter_frame (avfilter.c:698)
==34767==    by 0x1007C7A3: default_filter_frame (avfilter.c:638)
==34767==    by 0x1007F023: ff_filter_frame (avfilter.c:698)
==34767==    by 0x10081813: request_frame (buffersrc.c:399)
==34767== 
==34767== Invalid read of size 16
==34767==    at 0x1047C70C: get_pixels_vsx (pixblockdsp.c:139)
==34767==    by 0x1023AADF: dnxhd_get_blocks (dnxhdenc.c:578)
==34767==    by 0x1023AADF: dnxhd_calc_bits_thread (dnxhdenc.c:619)
==34767==    by 0x43BC327: start_thread (in /usr/lib64/libpthread-2.18.so)
==34767==    by 0x451DC6F: clone (in /usr/lib64/libc-2.18.so)
==34767==  Address 0x17ea1918 is 460,792 bytes inside a block of size 460,800 alloc'd
==34767==    at 0x4088C90: memalign (vg_replace_malloc.c:857)
==34767==    by 0x4088DFF: posix_memalign (vg_replace_malloc.c:1020)
==34767==    by 0x10886457: av_malloc (mem.c:71)
==34767==    by 0x10873487: av_buffer_alloc (buffer.c:72)
==34767==    by 0x1087E3F3: get_video_buffer (frame.c:119)
==34767==    by 0x1087E3F3: av_frame_get_buffer (frame.c:196)
==34767==    by 0x1009A8B7: ff_default_get_video_buffer (video.c:55)
==34767==    by 0x1009A8B7: ff_get_video_buffer (video.c:73)
==34767==    by 0x1009A8B7: ff_null_get_video_buffer (video.c:33)
==34767==    by 0x1009A843: ff_get_video_buffer (video.c:70)
==34767==    by 0x1009A843: ff_null_get_video_buffer (video.c:33)
==34767==    by 0x1009AA9B: ff_get_video_buffer (video.c:70)
==34767==    by 0x10094CFF: filter_frame (vf_scale.c:276)
==34767==    by 0x1007C7A3: ff_filter_frame (avfilter.c:698)
==34767==    by 0x1007C7A3: default_filter_frame (avfilter.c:638)
==34767==    by 0x1007F023: ff_filter_frame (avfilter.c:698)
==34767==    by 0x10081813: request_frame (buffersrc.c:399)
==34767== 
==34767== Invalid read of size 16
==34767==    at 0x1047C70C: get_pixels_vsx (pixblockdsp.c:139)
==34767==    by 0x1023AB0F: dnxhd_get_blocks (dnxhdenc.c:580)
==34767==    by 0x1023AB0F: dnxhd_calc_bits_thread (dnxhdenc.c:619)
==34767==    by 0x43BC327: start_thread (in /usr/lib64/libpthread-2.18.so)
==34767==    by 0x451DC6F: clone (in /usr/lib64/libc-2.18.so)
==34767==  Address 0x17f121b8 is 460,792 bytes inside a block of size 460,800 alloc'd
==34767==    at 0x4088C90: memalign (vg_replace_malloc.c:857)
==34767==    by 0x4088DFF: posix_memalign (vg_replace_malloc.c:1020)
==34767==    by 0x10886457: av_malloc (mem.c:71)
==34767==    by 0x10873487: av_buffer_alloc (buffer.c:72)
==34767==    by 0x1087E3F3: get_video_buffer (frame.c:119)
==34767==    by 0x1087E3F3: av_frame_get_buffer (frame.c:196)
==34767==    by 0x1009A8B7: ff_default_get_video_buffer (video.c:55)
==34767==    by 0x1009A8B7: ff_get_video_buffer (video.c:73)
==34767==    by 0x1009A8B7: ff_null_get_video_buffer (video.c:33)
==34767==    by 0x1009A843: ff_get_video_buffer (video.c:70)
==34767==    by 0x1009A843: ff_null_get_video_buffer (video.c:33)
==34767==    by 0x1009AA9B: ff_get_video_buffer (video.c:70)
==34767==    by 0x10094CFF: filter_frame (vf_scale.c:276)
==34767==    by 0x1007C7A3: ff_filter_frame (avfilter.c:698)
==34767==    by 0x1007C7A3: default_filter_frame (avfilter.c:638)
==34767==    by 0x1007F023: ff_filter_frame (avfilter.c:698)
==34767==    by 0x10081813: request_frame (buffersrc.c:399)
==34767== 
==34767== Invalid read of size 16
==34767==    at 0x1047C70C: get_pixels_vsx (pixblockdsp.c:139)
==34767==    by 0x1023A153: dnxhd_get_blocks (dnxhdenc.c:576)
==34767==    by 0x1023A153: dnxhd_encode_thread (dnxhdenc.c:674)
==34767==    by 0x43BC327: start_thread (in /usr/lib64/libpthread-2.18.so)
==34767==    by 0x451DC6F: clone (in /usr/lib64/libc-2.18.so)
==34767==  Address 0x17e31078 is 921,592 bytes inside a block of size 921,600 alloc'd
==34767==    at 0x4088C90: memalign (vg_replace_malloc.c:857)
==34767==    by 0x4088DFF: posix_memalign (vg_replace_malloc.c:1020)
==34767==    by 0x10886457: av_malloc (mem.c:71)
==34767==    by 0x10873487: av_buffer_alloc (buffer.c:72)
==34767==    by 0x1087E3F3: get_video_buffer (frame.c:119)
==34767==    by 0x1087E3F3: av_frame_get_buffer (frame.c:196)
==34767==    by 0x1009A8B7: ff_default_get_video_buffer (video.c:55)
==34767==    by 0x1009A8B7: ff_get_video_buffer (video.c:73)
==34767==    by 0x1009A8B7: ff_null_get_video_buffer (video.c:33)
==34767==    by 0x1009A843: ff_get_video_buffer (video.c:70)
==34767==    by 0x1009A843: ff_null_get_video_buffer (video.c:33)
==34767==    by 0x1009AA9B: ff_get_video_buffer (video.c:70)
==34767==    by 0x10094CFF: filter_frame (vf_scale.c:276)
==34767==    by 0x1007C7A3: ff_filter_frame (avfilter.c:698)
==34767==    by 0x1007C7A3: default_filter_frame (avfilter.c:638)
==34767==    by 0x1007F023: ff_filter_frame (avfilter.c:698)
==34767==    by 0x10081813: request_frame (buffersrc.c:399)
==34767== 
==34767== Invalid read of size 16
==34767==    at 0x1047C70C: get_pixels_vsx (pixblockdsp.c:139)
==34767==    by 0x1023A183: dnxhd_get_blocks (dnxhdenc.c:578)
==34767==    by 0x1023A183: dnxhd_encode_thread (dnxhdenc.c:674)
==34767==    by 0x43BC327: start_thread (in /usr/lib64/libpthread-2.18.so)
==34767==    by 0x451DC6F: clone (in /usr/lib64/libc-2.18.so)
==34767==  Address 0x17ea1918 is 460,792 bytes inside a block of size 460,800 alloc'd
==34767==    at 0x4088C90: memalign (vg_replace_malloc.c:857)
==34767==    by 0x4088DFF: posix_memalign (vg_replace_malloc.c:1020)
==34767==    by 0x10886457: av_malloc (mem.c:71)
==34767==    by 0x10873487: av_buffer_alloc (buffer.c:72)
==34767==    by 0x1087E3F3: get_video_buffer (frame.c:119)
==34767==    by 0x1087E3F3: av_frame_get_buffer (frame.c:196)
==34767==    by 0x1009A8B7: ff_default_get_video_buffer (video.c:55)
==34767==    by 0x1009A8B7: ff_get_video_buffer (video.c:73)
==34767==    by 0x1009A8B7: ff_null_get_video_buffer (video.c:33)
==34767==    by 0x1009A843: ff_get_video_buffer (video.c:70)
==34767==    by 0x1009A843: ff_null_get_video_buffer (video.c:33)
==34767==    by 0x1009AA9B: ff_get_video_buffer (video.c:70)
==34767==    by 0x10094CFF: filter_frame (vf_scale.c:276)
==34767==    by 0x1007C7A3: ff_filter_frame (avfilter.c:698)
==34767==    by 0x1007C7A3: default_filter_frame (avfilter.c:638)
==34767==    by 0x1007F023: ff_filter_frame (avfilter.c:698)
==34767==    by 0x10081813: request_frame (buffersrc.c:399)
==34767== 
==34767== Invalid read of size 16
==34767==    at 0x1047C70C: get_pixels_vsx (pixblockdsp.c:139)
==34767==    by 0x1023A1B3: dnxhd_get_blocks (dnxhdenc.c:580)
==34767==    by 0x1023A1B3: dnxhd_encode_thread (dnxhdenc.c:674)
==34767==    by 0x43BC327: start_thread (in /usr/lib64/libpthread-2.18.so)
==34767==    by 0x451DC6F: clone (in /usr/lib64/libc-2.18.so)
==34767==  Address 0x17f121b8 is 460,792 bytes inside a block of size 460,800 alloc'd
==34767==    at 0x4088C90: memalign (vg_replace_malloc.c:857)
==34767==    by 0x4088DFF: posix_memalign (vg_replace_malloc.c:1020)
==34767==    by 0x10886457: av_malloc (mem.c:71)
==34767==    by 0x10873487: av_buffer_alloc (buffer.c:72)
==34767==    by 0x1087E3F3: get_video_buffer (frame.c:119)
==34767==    by 0x1087E3F3: av_frame_get_buffer (frame.c:196)
==34767==    by 0x1009A8B7: ff_default_get_video_buffer (video.c:55)
==34767==    by 0x1009A8B7: ff_get_video_buffer (video.c:73)
==34767==    by 0x1009A8B7: ff_null_get_video_buffer (video.c:33)
==34767==    by 0x1009A843: ff_get_video_buffer (video.c:70)
==34767==    by 0x1009A843: ff_null_get_video_buffer (video.c:33)
==34767==    by 0x1009AA9B: ff_get_video_buffer (video.c:70)
==34767==    by 0x10094CFF: filter_frame (vf_scale.c:276)
==34767==    by 0x1007C7A3: ff_filter_frame (avfilter.c:698)
==34767==    by 0x1007C7A3: default_filter_frame (avfilter.c:638)
==34767==    by 0x1007F023: ff_filter_frame (avfilter.c:698)
==34767==    by 0x10081813: request_frame (buffersrc.c:399)
==34767== 
frame=    5 fps=  0 q=30.0 Lsize=    2240kB time=0.16 bitrate=114688.0kbits/s    
video:2240kB audio:0kB other streams:0kB global headers:0kB muxing overhead: 0.000000%
==34767== 
==34767== HEAP SUMMARY:
==34767==     in use at exit: 0 bytes in 0 blocks
==34767==   total heap usage: 1,790 allocs, 1,790 frees, 22,000,471 bytes allocated
==34767== 
==34767== All heap blocks were freed -- no leaks are possible
==34767== 
==34767== For counts of detected and suppressed errors, rerun with: -v
==34767== ERROR SUMMARY: 465 errors from 6 contexts (suppressed: 0 from 0)