ppc64-linux-gcc-valgrind v13_dev0-1062-g1731c35

Architectureppc
Variantppc64
CPUgeneric
OSlinux
Ownerkostylev
Compilergcc 5.4.0 (GCC)
Configuration--prefix=/home/mik/src/fate/ppc64-linux-gcc-valgrind/install --samples=/home/mik/src/fate/fate-suite --enable-gpl --cc=gcc-5 --target-exec='valgrind --leak-check=full --show-reachable=yes --error-exitcode=1 --malloc-fill=0x4a --undef-value-errors=no'
Commentvalgrind --undef-value-errors=no
Revisionv13_dev0-1062-g1731c35
Date2017-04-21 01:35:31
Status2102 / 2107
Warnings67
Logscompile configure test
5 failed testsStatusLast good rev
diffstderrsvq3-21n / a
--- /home/mik/src/fate/src/tests/ref/fate/svq3-2	2017-02-27 10:07:05.303380676 +0000
+++ tests/data/fate/svq3-2	2017-04-21 01:20:18.673252747 +0000
@@ -1,5 +1,5 @@
 #tb 0: 1/19200
-0,     -20000,     -20000,        0,   185280, 0x061c0d85
+0,     -20000,     -20000,        0,   185280, 0xc0bd953f
 0,     -19200,     -19200,        0,   185280, 0x427ef9a7
 0,     -18400,     -18400,        0,   185280, 0x64c74d6a
 0,     -17600,     -17600,        0,   185280, 0x5bfd0e5b
==62741== Memcheck, a memory error detector
==62741== Copyright (C) 2002-2015, and GNU GPL'd, by Julian Seward et al.
==62741== Using Valgrind-3.12.0.SVN and LibVEX; rerun with -h for copyright info
==62741== Command: /home/mik/src/fate/ppc64-linux-gcc-valgrind/build/avconv -nostats -cpuflags all -flags +bitexact -hwaccel none -threads 1 -thread_type frame+slice -i /home/mik/src/fate/fate-suite/svq3/svq3_decoding_regression.mov -an -f framecrc -
==62741== 
avconv version v13_dev0-1062-g1731c35, Copyright (c) 2000-2017 the Libav developers
  built on Apr 21 2017 01:05:12 with gcc 5.4.0 (GCC)
Input #0, mov,mp4,m4a,3gp,3g2,mj2, from '/home/mik/src/fate/fate-suite/svq3/svq3_decoding_regression.mov':
  Metadata:
    major_brand     : qt  
    minor_version   : 512
    compatible_brands: qt  
    artist          : Mark Strube - SupaDupaStrube@msn.com
    artist-eng      : Mark Strube - SupaDupaStrube@msn.com
    title           : Movie-List Presents: The Abyss
    title-eng       : Movie-List Presents: The Abyss
    encoder         : Lavf57.66.101
    copyright       : © 1989 Twentieth Century Fox
    copyright-eng   : © 1989 Twentieth Century Fox
  Duration: 00:00:00.83, bitrate: 2376 kb/s
    Stream #0:0(eng): Video: svq3 [SVQ3 / 0x33515653]
      yuvj420p, pc, 480x257, 2366 kb/s
      24 fps, 19200 tbn (default)
    Metadata:
      handler_name    : DataHandler
      encoder         : Sorenson Video 3
Stream mapping:
  Stream #0:0 -> #0:0 (svq3 (native) -> rawvideo (native))
Press ctrl-c to stop encoding
[svq3 @ 0x46d7660] Missing reference frame.
Output #0, framecrc, to 'pipe:':
  Metadata:
    major_brand     : qt  
    minor_version   : 512
    compatible_brands: qt  
    artist          : Mark Strube - SupaDupaStrube@msn.com
    artist-eng      : Mark Strube - SupaDupaStrube@msn.com
    title           : Movie-List Presents: The Abyss
    title-eng       : Movie-List Presents: The Abyss
    copyright-eng   : © 1989 Twentieth Century Fox
    copyright       : © 1989 Twentieth Century Fox
    encoder         : Lavf58.0.0
    Stream #0:0(eng): Video: rawvideo [I420 / 0x30323449]
      yuvj420p, 480x257, q=2-31, 200 kb/s
      19200 tbn (default)
    Metadata:
      handler_name    : DataHandler
      encoder         : Sorenson Video 3
*** dropping frame 19 from stream 0 at ts -6400
frame=   19 fps= 17 q=-0.0 Lsize=       1kB time=10000000000.00 bitrate=   0.0kbits/s drop=1    
video:3438kB audio:0kB other streams:0kB global headers:0kB muxing overhead: unknown
==62741== 
==62741== HEAP SUMMARY:
==62741==     in use at exit: 0 bytes in 0 blocks
==62741==   total heap usage: 1,582 allocs, 1,582 frees, 8,654,946 bytes allocated
==62741== 
==62741== All heap blocks were freed -- no leaks are possible
==62741== 
==62741== For counts of detected and suppressed errors, rerun with: -v
==62741== ERROR SUMMARY: 0 errors from 0 contexts (suppressed: 0 from 0)
diffstderrvsynth1-dnxhd-720p1v12_dev0-1345-g0181ae9
--- /home/mik/src/fate/src/tests/ref/vsynth/vsynth1-dnxhd-720p	2014-01-10 11:16:55.734697630 +0000
+++ tests/data/fate/vsynth1-dnxhd-720p	2017-04-21 01:28:24.964301623 +0000
@@ -1,4 +0,0 @@
-81f5be451dc18cf8a1d333c7885de60b *tests/data/fate/vsynth1-dnxhd-720p.dnxhd
-2293760 tests/data/fate/vsynth1-dnxhd-720p.dnxhd
-94b21e5e68ccf9471eff74afd0ebe319 *tests/data/fate/vsynth1-dnxhd-720p.out.rawvideo
-stddev:    6.32 PSNR: 32.11 MAXDIFF:  183 bytes:  7603200/   760320
==19802== Memcheck, a memory error detector
==19802== Copyright (C) 2002-2015, and GNU GPL'd, by Julian Seward et al.
==19802== Using Valgrind-3.12.0.SVN and LibVEX; rerun with -h for copyright info
==19802== Command: /home/mik/src/fate/ppc64-linux-gcc-valgrind/build/avconv -nostats -cpuflags all -f rawvideo -s 352x288 -pix_fmt yuv420p -threads 1 -idct simple -flags +bitexact -sws_flags +accurate_rnd+bitexact -fflags +bitexact -hwaccel none -threads 1 -thread_type frame+slice -i /home/mik/src/fate/ppc64-linux-gcc-valgrind/build/tests/data/vsynth1.yuv -threads 1 -idct simple -dct fastint -c dnxhd -s hd720 -b 90M -pix_fmt yuv422p -frames 5 -flags +bitexact -sws_flags +accurate_rnd+bitexact -fflags +bitexact -f dnxhd -y /home/mik/src/fate/ppc64-linux-gcc-valgrind/build/tests/data/fate/vsynth1-dnxhd-720p.dnxhd
==19802== 
avconv version v13_dev0-1062-g1731c35, Copyright (c) 2000-2017 the Libav developers
  built on Apr 21 2017 01:05:12 with gcc 5.4.0 (GCC)
[rawvideo @ 0x467ae20] Estimating duration from bitrate, this may be inaccurate
Input #0, rawvideo, from '/home/mik/src/fate/ppc64-linux-gcc-valgrind/build/tests/data/vsynth1.yuv':
  Duration: N/A, start: 0.000000, bitrate: N/A
    Stream #0:0: Video: rawvideo
      yuv420p, 352x288
      25 fps, 25 tbn
Stream mapping:
  Stream #0:0 -> #0:0 (rawvideo (native) -> dnxhd (native))
Press ctrl-c to stop encoding
Output #0, dnxhd, to '/home/mik/src/fate/ppc64-linux-gcc-valgrind/build/tests/data/fate/vsynth1-dnxhd-720p.dnxhd':
    Stream #0:0: Video: dnxhd
      yuv422p, 1280x720, q=2-31, 90000 kb/s
      25 tbn
    Metadata:
      encoder         : dnxhd
==19802== Invalid read of size 16
==19802==    at 0x1047378C: get_pixels_vsx (pixblockdsp.c:139)
==19802==    by 0x10232F6F: dnxhd_get_blocks (dnxhdenc.c:576)
==19802==    by 0x10232F6F: dnxhd_calc_bits_thread (dnxhdenc.c:619)
==19802==    by 0x10233ED3: dnxhd_find_qscale (dnxhdenc.c:866)
==19802==    by 0x10233ED3: dnxhd_encode_fast (dnxhdenc.c:969)
==19802==    by 0x10233ED3: dnxhd_encode_picture (dnxhdenc.c:1055)
==19802==    by 0x10257EA3: avcodec_encode_video2 (encode.c:227)
==19802==    by 0x102580C3: do_encode (encode.c:274)
==19802==    by 0x1025832F: avcodec_send_frame (encode.c:323)
==19802==    by 0x10074E57: do_video_out (avconv.c:587)
==19802==    by 0x10074E57: poll_filter (avconv.c:726)
==19802==    by 0x1007562F: poll_filters (avconv.c:800)
==19802==    by 0x1005C8BF: transcode (avconv.c:2763)
==19802==    by 0x1005C8BF: main (avconv.c:2932)
==19802==  Address 0x16e21078 is 921,592 bytes inside a block of size 921,600 alloc'd
==19802==    at 0x4088C90: memalign (vg_replace_malloc.c:857)
==19802==    by 0x4088DFF: posix_memalign (vg_replace_malloc.c:1020)
==19802==    by 0x1087E657: av_malloc (mem.c:71)
==19802==    by 0x1086B2A7: av_buffer_alloc (buffer.c:72)
==19802==    by 0x10876213: get_video_buffer (frame.c:119)
==19802==    by 0x10876213: av_frame_get_buffer (frame.c:196)
==19802==    by 0x10099937: ff_default_get_video_buffer (video.c:55)
==19802==    by 0x10099937: ff_get_video_buffer (video.c:73)
==19802==    by 0x10099937: ff_null_get_video_buffer (video.c:33)
==19802==    by 0x100998C3: ff_get_video_buffer (video.c:70)
==19802==    by 0x100998C3: ff_null_get_video_buffer (video.c:33)
==19802==    by 0x10099B1B: ff_get_video_buffer (video.c:70)
==19802==    by 0x10093D7F: filter_frame (vf_scale.c:276)
==19802==    by 0x1007BA03: ff_filter_frame (avfilter.c:698)
==19802==    by 0x1007BA03: default_filter_frame (avfilter.c:638)
==19802==    by 0x1007E283: ff_filter_frame (avfilter.c:698)
==19802==    by 0x10080A73: request_frame (buffersrc.c:399)
==19802== 
==19802== Invalid read of size 16
==19802==    at 0x1047378C: get_pixels_vsx (pixblockdsp.c:139)
==19802==    by 0x10232F9F: dnxhd_get_blocks (dnxhdenc.c:578)
==19802==    by 0x10232F9F: dnxhd_calc_bits_thread (dnxhdenc.c:619)
==19802==    by 0x10233ED3: dnxhd_find_qscale (dnxhdenc.c:866)
==19802==    by 0x10233ED3: dnxhd_encode_fast (dnxhdenc.c:969)
==19802==    by 0x10233ED3: dnxhd_encode_picture (dnxhdenc.c:1055)
==19802==    by 0x10257EA3: avcodec_encode_video2 (encode.c:227)
==19802==    by 0x102580C3: do_encode (encode.c:274)
==19802==    by 0x1025832F: avcodec_send_frame (encode.c:323)
==19802==    by 0x10074E57: do_video_out (avconv.c:587)
==19802==    by 0x10074E57: poll_filter (avconv.c:726)
==19802==    by 0x1007562F: poll_filters (avconv.c:800)
==19802==    by 0x1005C8BF: transcode (avconv.c:2763)
==19802==    by 0x1005C8BF: main (avconv.c:2932)
==19802==  Address 0x16e91918 is 460,792 bytes inside a block of size 460,800 alloc'd
==19802==    at 0x4088C90: memalign (vg_replace_malloc.c:857)
==19802==    by 0x4088DFF: posix_memalign (vg_replace_malloc.c:1020)
==19802==    by 0x1087E657: av_malloc (mem.c:71)
==19802==    by 0x1086B2A7: av_buffer_alloc (buffer.c:72)
==19802==    by 0x10876213: get_video_buffer (frame.c:119)
==19802==    by 0x10876213: av_frame_get_buffer (frame.c:196)
==19802==    by 0x10099937: ff_default_get_video_buffer (video.c:55)
==19802==    by 0x10099937: ff_get_video_buffer (video.c:73)
==19802==    by 0x10099937: ff_null_get_video_buffer (video.c:33)
==19802==    by 0x100998C3: ff_get_video_buffer (video.c:70)
==19802==    by 0x100998C3: ff_null_get_video_buffer (video.c:33)
==19802==    by 0x10099B1B: ff_get_video_buffer (video.c:70)
==19802==    by 0x10093D7F: filter_frame (vf_scale.c:276)
==19802==    by 0x1007BA03: ff_filter_frame (avfilter.c:698)
==19802==    by 0x1007BA03: default_filter_frame (avfilter.c:638)
==19802==    by 0x1007E283: ff_filter_frame (avfilter.c:698)
==19802==    by 0x10080A73: request_frame (buffersrc.c:399)
==19802== 
==19802== Invalid read of size 16
==19802==    at 0x1047378C: get_pixels_vsx (pixblockdsp.c:139)
==19802==    by 0x10232FCF: dnxhd_get_blocks (dnxhdenc.c:580)
==19802==    by 0x10232FCF: dnxhd_calc_bits_thread (dnxhdenc.c:619)
==19802==    by 0x10233ED3: dnxhd_find_qscale (dnxhdenc.c:866)
==19802==    by 0x10233ED3: dnxhd_encode_fast (dnxhdenc.c:969)
==19802==    by 0x10233ED3: dnxhd_encode_picture (dnxhdenc.c:1055)
==19802==    by 0x10257EA3: avcodec_encode_video2 (encode.c:227)
==19802==    by 0x102580C3: do_encode (encode.c:274)
==19802==    by 0x1025832F: avcodec_send_frame (encode.c:323)
==19802==    by 0x10074E57: do_video_out (avconv.c:587)
==19802==    by 0x10074E57: poll_filter (avconv.c:726)
==19802==    by 0x1007562F: poll_filters (avconv.c:800)
==19802==    by 0x1005C8BF: transcode (avconv.c:2763)
==19802==    by 0x1005C8BF: main (avconv.c:2932)
==19802==  Address 0x16f021b8 is 460,792 bytes inside a block of size 460,800 alloc'd
==19802==    at 0x4088C90: memalign (vg_replace_malloc.c:857)
==19802==    by 0x4088DFF: posix_memalign (vg_replace_malloc.c:1020)
==19802==    by 0x1087E657: av_malloc (mem.c:71)
==19802==    by 0x1086B2A7: av_buffer_alloc (buffer.c:72)
==19802==    by 0x10876213: get_video_buffer (frame.c:119)
==19802==    by 0x10876213: av_frame_get_buffer (frame.c:196)
==19802==    by 0x10099937: ff_default_get_video_buffer (video.c:55)
==19802==    by 0x10099937: ff_get_video_buffer (video.c:73)
==19802==    by 0x10099937: ff_null_get_video_buffer (video.c:33)
==19802==    by 0x100998C3: ff_get_video_buffer (video.c:70)
==19802==    by 0x100998C3: ff_null_get_video_buffer (video.c:33)
==19802==    by 0x10099B1B: ff_get_video_buffer (video.c:70)
==19802==    by 0x10093D7F: filter_frame (vf_scale.c:276)
==19802==    by 0x1007BA03: ff_filter_frame (avfilter.c:698)
==19802==    by 0x1007BA03: default_filter_frame (avfilter.c:638)
==19802==    by 0x1007E283: ff_filter_frame (avfilter.c:698)
==19802==    by 0x10080A73: request_frame (buffersrc.c:399)
==19802== 
==19802== Invalid read of size 16
==19802==    at 0x1047378C: get_pixels_vsx (pixblockdsp.c:139)
==19802==    by 0x10232613: dnxhd_get_blocks (dnxhdenc.c:576)
==19802==    by 0x10232613: dnxhd_encode_thread (dnxhdenc.c:674)
==19802==    by 0x1023460F: dnxhd_encode_picture (dnxhdenc.c:1071)
==19802==    by 0x10257EA3: avcodec_encode_video2 (encode.c:227)
==19802==    by 0x102580C3: do_encode (encode.c:274)
==19802==    by 0x1025832F: avcodec_send_frame (encode.c:323)
==19802==    by 0x10074E57: do_video_out (avconv.c:587)
==19802==    by 0x10074E57: poll_filter (avconv.c:726)
==19802==    by 0x1007562F: poll_filters (avconv.c:800)
==19802==    by 0x1005C8BF: transcode (avconv.c:2763)
==19802==    by 0x1005C8BF: main (avconv.c:2932)
==19802==  Address 0x16e21078 is 921,592 bytes inside a block of size 921,600 alloc'd
==19802==    at 0x4088C90: memalign (vg_replace_malloc.c:857)
==19802==    by 0x4088DFF: posix_memalign (vg_replace_malloc.c:1020)
==19802==    by 0x1087E657: av_malloc (mem.c:71)
==19802==    by 0x1086B2A7: av_buffer_alloc (buffer.c:72)
==19802==    by 0x10876213: get_video_buffer (frame.c:119)
==19802==    by 0x10876213: av_frame_get_buffer (frame.c:196)
==19802==    by 0x10099937: ff_default_get_video_buffer (video.c:55)
==19802==    by 0x10099937: ff_get_video_buffer (video.c:73)
==19802==    by 0x10099937: ff_null_get_video_buffer (video.c:33)
==19802==    by 0x100998C3: ff_get_video_buffer (video.c:70)
==19802==    by 0x100998C3: ff_null_get_video_buffer (video.c:33)
==19802==    by 0x10099B1B: ff_get_video_buffer (video.c:70)
==19802==    by 0x10093D7F: filter_frame (vf_scale.c:276)
==19802==    by 0x1007BA03: ff_filter_frame (avfilter.c:698)
==19802==    by 0x1007BA03: default_filter_frame (avfilter.c:638)
==19802==    by 0x1007E283: ff_filter_frame (avfilter.c:698)
==19802==    by 0x10080A73: request_frame (buffersrc.c:399)
==19802== 
==19802== Invalid read of size 16
==19802==    at 0x1047378C: get_pixels_vsx (pixblockdsp.c:139)
==19802==    by 0x10232643: dnxhd_get_blocks (dnxhdenc.c:578)
==19802==    by 0x10232643: dnxhd_encode_thread (dnxhdenc.c:674)
==19802==    by 0x1023460F: dnxhd_encode_picture (dnxhdenc.c:1071)
==19802==    by 0x10257EA3: avcodec_encode_video2 (encode.c:227)
==19802==    by 0x102580C3: do_encode (encode.c:274)
==19802==    by 0x1025832F: avcodec_send_frame (encode.c:323)
==19802==    by 0x10074E57: do_video_out (avconv.c:587)
==19802==    by 0x10074E57: poll_filter (avconv.c:726)
==19802==    by 0x1007562F: poll_filters (avconv.c:800)
==19802==    by 0x1005C8BF: transcode (avconv.c:2763)
==19802==    by 0x1005C8BF: main (avconv.c:2932)
==19802==  Address 0x16e91918 is 460,792 bytes inside a block of size 460,800 alloc'd
==19802==    at 0x4088C90: memalign (vg_replace_malloc.c:857)
==19802==    by 0x4088DFF: posix_memalign (vg_replace_malloc.c:1020)
==19802==    by 0x1087E657: av_malloc (mem.c:71)
==19802==    by 0x1086B2A7: av_buffer_alloc (buffer.c:72)
==19802==    by 0x10876213: get_video_buffer (frame.c:119)
==19802==    by 0x10876213: av_frame_get_buffer (frame.c:196)
==19802==    by 0x10099937: ff_default_get_video_buffer (video.c:55)
==19802==    by 0x10099937: ff_get_video_buffer (video.c:73)
==19802==    by 0x10099937: ff_null_get_video_buffer (video.c:33)
==19802==    by 0x100998C3: ff_get_video_buffer (video.c:70)
==19802==    by 0x100998C3: ff_null_get_video_buffer (video.c:33)
==19802==    by 0x10099B1B: ff_get_video_buffer (video.c:70)
==19802==    by 0x10093D7F: filter_frame (vf_scale.c:276)
==19802==    by 0x1007BA03: ff_filter_frame (avfilter.c:698)
==19802==    by 0x1007BA03: default_filter_frame (avfilter.c:638)
==19802==    by 0x1007E283: ff_filter_frame (avfilter.c:698)
==19802==    by 0x10080A73: request_frame (buffersrc.c:399)
==19802== 
==19802== Invalid read of size 16
==19802==    at 0x1047378C: get_pixels_vsx (pixblockdsp.c:139)
==19802==    by 0x10232673: dnxhd_get_blocks (dnxhdenc.c:580)
==19802==    by 0x10232673: dnxhd_encode_thread (dnxhdenc.c:674)
==19802==    by 0x1023460F: dnxhd_encode_picture (dnxhdenc.c:1071)
==19802==    by 0x10257EA3: avcodec_encode_video2 (encode.c:227)
==19802==    by 0x102580C3: do_encode (encode.c:274)
==19802==    by 0x1025832F: avcodec_send_frame (encode.c:323)
==19802==    by 0x10074E57: do_video_out (avconv.c:587)
==19802==    by 0x10074E57: poll_filter (avconv.c:726)
==19802==    by 0x1007562F: poll_filters (avconv.c:800)
==19802==    by 0x1005C8BF: transcode (avconv.c:2763)
==19802==    by 0x1005C8BF: main (avconv.c:2932)
==19802==  Address 0x16f021b8 is 460,792 bytes inside a block of size 460,800 alloc'd
==19802==    at 0x4088C90: memalign (vg_replace_malloc.c:857)
==19802==    by 0x4088DFF: posix_memalign (vg_replace_malloc.c:1020)
==19802==    by 0x1087E657: av_malloc (mem.c:71)
==19802==    by 0x1086B2A7: av_buffer_alloc (buffer.c:72)
==19802==    by 0x10876213: get_video_buffer (frame.c:119)
==19802==    by 0x10876213: av_frame_get_buffer (frame.c:196)
==19802==    by 0x10099937: ff_default_get_video_buffer (video.c:55)
==19802==    by 0x10099937: ff_get_video_buffer (video.c:73)
==19802==    by 0x10099937: ff_null_get_video_buffer (video.c:33)
==19802==    by 0x100998C3: ff_get_video_buffer (video.c:70)
==19802==    by 0x100998C3: ff_null_get_video_buffer (video.c:33)
==19802==    by 0x10099B1B: ff_get_video_buffer (video.c:70)
==19802==    by 0x10093D7F: filter_frame (vf_scale.c:276)
==19802==    by 0x1007BA03: ff_filter_frame (avfilter.c:698)
==19802==    by 0x1007BA03: default_filter_frame (avfilter.c:638)
==19802==    by 0x1007E283: ff_filter_frame (avfilter.c:698)
==19802==    by 0x10080A73: request_frame (buffersrc.c:399)
==19802== 
frame=    5 fps=  0 q=1.0 Lsize=    2240kB time=0.16 bitrate=114688.0kbits/s    
video:2240kB audio:0kB other streams:0kB global headers:0kB muxing overhead: 0.000000%
==19802== 
==19802== HEAP SUMMARY:
==19802==     in use at exit: 0 bytes in 0 blocks
==19802==   total heap usage: 1,767 allocs, 1,767 frees, 22,135,775 bytes allocated
==19802== 
==19802== All heap blocks were freed -- no leaks are possible
==19802== 
==19802== For counts of detected and suppressed errors, rerun with: -v
==19802== ERROR SUMMARY: 45 errors from 6 contexts (suppressed: 0 from 0)
diffstderrvsynth1-dnxhd-720p-rd1v12_dev0-1345-g0181ae9
--- /home/mik/src/fate/src/tests/ref/vsynth/vsynth1-dnxhd-720p-rd	2014-01-10 11:16:55.734697630 +0000
+++ tests/data/fate/vsynth1-dnxhd-720p-rd	2017-04-21 01:28:27.334305415 +0000
@@ -1,4 +0,0 @@
-1dc6e95925c4f3a230848ec17c02abed *tests/data/fate/vsynth1-dnxhd-720p-rd.dnxhd
-2293760 tests/data/fate/vsynth1-dnxhd-720p-rd.dnxhd
-02972d2aec120ec1577ec9053d68ae0f *tests/data/fate/vsynth1-dnxhd-720p-rd.out.rawvideo
-stddev:    6.26 PSNR: 32.19 MAXDIFF:   65 bytes:  7603200/   760320
==20352== Memcheck, a memory error detector
==20352== Copyright (C) 2002-2015, and GNU GPL'd, by Julian Seward et al.
==20352== Using Valgrind-3.12.0.SVN and LibVEX; rerun with -h for copyright info
==20352== Command: /home/mik/src/fate/ppc64-linux-gcc-valgrind/build/avconv -nostats -cpuflags all -f rawvideo -s 352x288 -pix_fmt yuv420p -threads 1 -idct simple -flags +bitexact -sws_flags +accurate_rnd+bitexact -fflags +bitexact -hwaccel none -threads 1 -thread_type frame+slice -i /home/mik/src/fate/ppc64-linux-gcc-valgrind/build/tests/data/vsynth1.yuv -threads 1 -idct simple -dct fastint -c dnxhd -s hd720 -b 90M -threads 4 -mbd rd -pix_fmt yuv422p -frames 5 -flags +bitexact -sws_flags +accurate_rnd+bitexact -fflags +bitexact -f dnxhd -y /home/mik/src/fate/ppc64-linux-gcc-valgrind/build/tests/data/fate/vsynth1-dnxhd-720p-rd.dnxhd
==20352== 
avconv version v13_dev0-1062-g1731c35, Copyright (c) 2000-2017 the Libav developers
  built on Apr 21 2017 01:05:12 with gcc 5.4.0 (GCC)
[rawvideo @ 0x467aec0] Estimating duration from bitrate, this may be inaccurate
Input #0, rawvideo, from '/home/mik/src/fate/ppc64-linux-gcc-valgrind/build/tests/data/vsynth1.yuv':
  Duration: N/A, start: 0.000000, bitrate: N/A
    Stream #0:0: Video: rawvideo
      yuv420p, 352x288
      25 fps, 25 tbn
Stream mapping:
  Stream #0:0 -> #0:0 (rawvideo (native) -> dnxhd (native))
Press ctrl-c to stop encoding
Output #0, dnxhd, to '/home/mik/src/fate/ppc64-linux-gcc-valgrind/build/tests/data/fate/vsynth1-dnxhd-720p-rd.dnxhd':
    Stream #0:0: Video: dnxhd
      yuv422p, 1280x720, q=2-31, 90000 kb/s
      25 tbn
    Metadata:
      encoder         : dnxhd
==20352== Thread 67:
==20352== Invalid read of size 16
==20352==    at 0x1047378C: get_pixels_vsx (pixblockdsp.c:139)
==20352==    by 0x10232F6F: dnxhd_get_blocks (dnxhdenc.c:576)
==20352==    by 0x10232F6F: dnxhd_calc_bits_thread (dnxhdenc.c:619)
==20352==    by 0x43BC327: start_thread (in /usr/lib64/libpthread-2.18.so)
==20352==    by 0x451DC6F: clone (in /usr/lib64/libc-2.18.so)
==20352==  Address 0x17e21078 is 921,592 bytes inside a block of size 921,600 alloc'd
==20352==    at 0x4088C90: memalign (vg_replace_malloc.c:857)
==20352==    by 0x4088DFF: posix_memalign (vg_replace_malloc.c:1020)
==20352==    by 0x1087E657: av_malloc (mem.c:71)
==20352==    by 0x1086B2A7: av_buffer_alloc (buffer.c:72)
==20352==    by 0x10876213: get_video_buffer (frame.c:119)
==20352==    by 0x10876213: av_frame_get_buffer (frame.c:196)
==20352==    by 0x10099937: ff_default_get_video_buffer (video.c:55)
==20352==    by 0x10099937: ff_get_video_buffer (video.c:73)
==20352==    by 0x10099937: ff_null_get_video_buffer (video.c:33)
==20352==    by 0x100998C3: ff_get_video_buffer (video.c:70)
==20352==    by 0x100998C3: ff_null_get_video_buffer (video.c:33)
==20352==    by 0x10099B1B: ff_get_video_buffer (video.c:70)
==20352==    by 0x10093D7F: filter_frame (vf_scale.c:276)
==20352==    by 0x1007BA03: ff_filter_frame (avfilter.c:698)
==20352==    by 0x1007BA03: default_filter_frame (avfilter.c:638)
==20352==    by 0x1007E283: ff_filter_frame (avfilter.c:698)
==20352==    by 0x10080A73: request_frame (buffersrc.c:399)
==20352== 
==20352== Invalid read of size 16
==20352==    at 0x1047378C: get_pixels_vsx (pixblockdsp.c:139)
==20352==    by 0x10232F9F: dnxhd_get_blocks (dnxhdenc.c:578)
==20352==    by 0x10232F9F: dnxhd_calc_bits_thread (dnxhdenc.c:619)
==20352==    by 0x43BC327: start_thread (in /usr/lib64/libpthread-2.18.so)
==20352==    by 0x451DC6F: clone (in /usr/lib64/libc-2.18.so)
==20352==  Address 0x17e91918 is 460,792 bytes inside a block of size 460,800 alloc'd
==20352==    at 0x4088C90: memalign (vg_replace_malloc.c:857)
==20352==    by 0x4088DFF: posix_memalign (vg_replace_malloc.c:1020)
==20352==    by 0x1087E657: av_malloc (mem.c:71)
==20352==    by 0x1086B2A7: av_buffer_alloc (buffer.c:72)
==20352==    by 0x10876213: get_video_buffer (frame.c:119)
==20352==    by 0x10876213: av_frame_get_buffer (frame.c:196)
==20352==    by 0x10099937: ff_default_get_video_buffer (video.c:55)
==20352==    by 0x10099937: ff_get_video_buffer (video.c:73)
==20352==    by 0x10099937: ff_null_get_video_buffer (video.c:33)
==20352==    by 0x100998C3: ff_get_video_buffer (video.c:70)
==20352==    by 0x100998C3: ff_null_get_video_buffer (video.c:33)
==20352==    by 0x10099B1B: ff_get_video_buffer (video.c:70)
==20352==    by 0x10093D7F: filter_frame (vf_scale.c:276)
==20352==    by 0x1007BA03: ff_filter_frame (avfilter.c:698)
==20352==    by 0x1007BA03: default_filter_frame (avfilter.c:638)
==20352==    by 0x1007E283: ff_filter_frame (avfilter.c:698)
==20352==    by 0x10080A73: request_frame (buffersrc.c:399)
==20352== 
==20352== Invalid read of size 16
==20352==    at 0x1047378C: get_pixels_vsx (pixblockdsp.c:139)
==20352==    by 0x10232FCF: dnxhd_get_blocks (dnxhdenc.c:580)
==20352==    by 0x10232FCF: dnxhd_calc_bits_thread (dnxhdenc.c:619)
==20352==    by 0x43BC327: start_thread (in /usr/lib64/libpthread-2.18.so)
==20352==    by 0x451DC6F: clone (in /usr/lib64/libc-2.18.so)
==20352==  Address 0x17f021b8 is 460,792 bytes inside a block of size 460,800 alloc'd
==20352==    at 0x4088C90: memalign (vg_replace_malloc.c:857)
==20352==    by 0x4088DFF: posix_memalign (vg_replace_malloc.c:1020)
==20352==    by 0x1087E657: av_malloc (mem.c:71)
==20352==    by 0x1086B2A7: av_buffer_alloc (buffer.c:72)
==20352==    by 0x10876213: get_video_buffer (frame.c:119)
==20352==    by 0x10876213: av_frame_get_buffer (frame.c:196)
==20352==    by 0x10099937: ff_default_get_video_buffer (video.c:55)
==20352==    by 0x10099937: ff_get_video_buffer (video.c:73)
==20352==    by 0x10099937: ff_null_get_video_buffer (video.c:33)
==20352==    by 0x100998C3: ff_get_video_buffer (video.c:70)
==20352==    by 0x100998C3: ff_null_get_video_buffer (video.c:33)
==20352==    by 0x10099B1B: ff_get_video_buffer (video.c:70)
==20352==    by 0x10093D7F: filter_frame (vf_scale.c:276)
==20352==    by 0x1007BA03: ff_filter_frame (avfilter.c:698)
==20352==    by 0x1007BA03: default_filter_frame (avfilter.c:638)
==20352==    by 0x1007E283: ff_filter_frame (avfilter.c:698)
==20352==    by 0x10080A73: request_frame (buffersrc.c:399)
==20352== 
==20352== Thread 70:
==20352== Invalid read of size 16
==20352==    at 0x1047378C: get_pixels_vsx (pixblockdsp.c:139)
==20352==    by 0x10232613: dnxhd_get_blocks (dnxhdenc.c:576)
==20352==    by 0x10232613: dnxhd_encode_thread (dnxhdenc.c:674)
==20352==    by 0x43BC327: start_thread (in /usr/lib64/libpthread-2.18.so)
==20352==    by 0x451DC6F: clone (in /usr/lib64/libc-2.18.so)
==20352==  Address 0x17e21078 is 921,592 bytes inside a block of size 921,600 alloc'd
==20352==    at 0x4088C90: memalign (vg_replace_malloc.c:857)
==20352==    by 0x4088DFF: posix_memalign (vg_replace_malloc.c:1020)
==20352==    by 0x1087E657: av_malloc (mem.c:71)
==20352==    by 0x1086B2A7: av_buffer_alloc (buffer.c:72)
==20352==    by 0x10876213: get_video_buffer (frame.c:119)
==20352==    by 0x10876213: av_frame_get_buffer (frame.c:196)
==20352==    by 0x10099937: ff_default_get_video_buffer (video.c:55)
==20352==    by 0x10099937: ff_get_video_buffer (video.c:73)
==20352==    by 0x10099937: ff_null_get_video_buffer (video.c:33)
==20352==    by 0x100998C3: ff_get_video_buffer (video.c:70)
==20352==    by 0x100998C3: ff_null_get_video_buffer (video.c:33)
==20352==    by 0x10099B1B: ff_get_video_buffer (video.c:70)
==20352==    by 0x10093D7F: filter_frame (vf_scale.c:276)
==20352==    by 0x1007BA03: ff_filter_frame (avfilter.c:698)
==20352==    by 0x1007BA03: default_filter_frame (avfilter.c:638)
==20352==    by 0x1007E283: ff_filter_frame (avfilter.c:698)
==20352==    by 0x10080A73: request_frame (buffersrc.c:399)
==20352== 
==20352== Invalid read of size 16
==20352==    at 0x1047378C: get_pixels_vsx (pixblockdsp.c:139)
==20352==    by 0x10232643: dnxhd_get_blocks (dnxhdenc.c:578)
==20352==    by 0x10232643: dnxhd_encode_thread (dnxhdenc.c:674)
==20352==    by 0x43BC327: start_thread (in /usr/lib64/libpthread-2.18.so)
==20352==    by 0x451DC6F: clone (in /usr/lib64/libc-2.18.so)
==20352==  Address 0x17e91918 is 460,792 bytes inside a block of size 460,800 alloc'd
==20352==    at 0x4088C90: memalign (vg_replace_malloc.c:857)
==20352==    by 0x4088DFF: posix_memalign (vg_replace_malloc.c:1020)
==20352==    by 0x1087E657: av_malloc (mem.c:71)
==20352==    by 0x1086B2A7: av_buffer_alloc (buffer.c:72)
==20352==    by 0x10876213: get_video_buffer (frame.c:119)
==20352==    by 0x10876213: av_frame_get_buffer (frame.c:196)
==20352==    by 0x10099937: ff_default_get_video_buffer (video.c:55)
==20352==    by 0x10099937: ff_get_video_buffer (video.c:73)
==20352==    by 0x10099937: ff_null_get_video_buffer (video.c:33)
==20352==    by 0x100998C3: ff_get_video_buffer (video.c:70)
==20352==    by 0x100998C3: ff_null_get_video_buffer (video.c:33)
==20352==    by 0x10099B1B: ff_get_video_buffer (video.c:70)
==20352==    by 0x10093D7F: filter_frame (vf_scale.c:276)
==20352==    by 0x1007BA03: ff_filter_frame (avfilter.c:698)
==20352==    by 0x1007BA03: default_filter_frame (avfilter.c:638)
==20352==    by 0x1007E283: ff_filter_frame (avfilter.c:698)
==20352==    by 0x10080A73: request_frame (buffersrc.c:399)
==20352== 
==20352== Invalid read of size 16
==20352==    at 0x1047378C: get_pixels_vsx (pixblockdsp.c:139)
==20352==    by 0x10232673: dnxhd_get_blocks (dnxhdenc.c:580)
==20352==    by 0x10232673: dnxhd_encode_thread (dnxhdenc.c:674)
==20352==    by 0x43BC327: start_thread (in /usr/lib64/libpthread-2.18.so)
==20352==    by 0x451DC6F: clone (in /usr/lib64/libc-2.18.so)
==20352==  Address 0x17f021b8 is 460,792 bytes inside a block of size 460,800 alloc'd
==20352==    at 0x4088C90: memalign (vg_replace_malloc.c:857)
==20352==    by 0x4088DFF: posix_memalign (vg_replace_malloc.c:1020)
==20352==    by 0x1087E657: av_malloc (mem.c:71)
==20352==    by 0x1086B2A7: av_buffer_alloc (buffer.c:72)
==20352==    by 0x10876213: get_video_buffer (frame.c:119)
==20352==    by 0x10876213: av_frame_get_buffer (frame.c:196)
==20352==    by 0x10099937: ff_default_get_video_buffer (video.c:55)
==20352==    by 0x10099937: ff_get_video_buffer (video.c:73)
==20352==    by 0x10099937: ff_null_get_video_buffer (video.c:33)
==20352==    by 0x100998C3: ff_get_video_buffer (video.c:70)
==20352==    by 0x100998C3: ff_null_get_video_buffer (video.c:33)
==20352==    by 0x10099B1B: ff_get_video_buffer (video.c:70)
==20352==    by 0x10093D7F: filter_frame (vf_scale.c:276)
==20352==    by 0x1007BA03: ff_filter_frame (avfilter.c:698)
==20352==    by 0x1007BA03: default_filter_frame (avfilter.c:638)
==20352==    by 0x1007E283: ff_filter_frame (avfilter.c:698)
==20352==    by 0x10080A73: request_frame (buffersrc.c:399)
==20352== 
frame=    5 fps=  0 q=30.0 Lsize=    2240kB time=0.16 bitrate=114688.0kbits/s    
video:2240kB audio:0kB other streams:0kB global headers:0kB muxing overhead: 0.000000%
==20352== 
==20352== HEAP SUMMARY:
==20352==     in use at exit: 0 bytes in 0 blocks
==20352==   total heap usage: 1,787 allocs, 1,787 frees, 21,998,799 bytes allocated
==20352== 
==20352== All heap blocks were freed -- no leaks are possible
==20352== 
==20352== For counts of detected and suppressed errors, rerun with: -v
==20352== ERROR SUMMARY: 465 errors from 6 contexts (suppressed: 0 from 0)
diffstderrvsynth2-dnxhd-720p1v12_dev0-1345-g0181ae9
--- /home/mik/src/fate/src/tests/ref/vsynth/vsynth2-dnxhd-720p	2014-11-30 15:37:05.674204650 +0000
+++ tests/data/fate/vsynth2-dnxhd-720p	2017-04-21 01:31:15.894616319 +0000
@@ -1,4 +0,0 @@
-71c7491a41545882b36f07ee98021b4b *tests/data/fate/vsynth2-dnxhd-720p.dnxhd
-2293760 tests/data/fate/vsynth2-dnxhd-720p.dnxhd
-adef978dc9c9e4f10dc7c30418af62af *tests/data/fate/vsynth2-dnxhd-720p.out.rawvideo
-stddev:    6.69 PSNR: 31.62 MAXDIFF:  171 bytes:  7603200/   760320
==37012== Memcheck, a memory error detector
==37012== Copyright (C) 2002-2015, and GNU GPL'd, by Julian Seward et al.
==37012== Using Valgrind-3.12.0.SVN and LibVEX; rerun with -h for copyright info
==37012== Command: /home/mik/src/fate/ppc64-linux-gcc-valgrind/build/avconv -nostats -cpuflags all -f rawvideo -s 352x288 -pix_fmt yuv420p -threads 1 -idct simple -flags +bitexact -sws_flags +accurate_rnd+bitexact -fflags +bitexact -hwaccel none -threads 1 -thread_type frame+slice -i /home/mik/src/fate/ppc64-linux-gcc-valgrind/build/tests/data/vsynth2.yuv -threads 1 -idct simple -dct fastint -c dnxhd -s hd720 -b 90M -pix_fmt yuv422p -frames 5 -flags +bitexact -sws_flags +accurate_rnd+bitexact -fflags +bitexact -f dnxhd -y /home/mik/src/fate/ppc64-linux-gcc-valgrind/build/tests/data/fate/vsynth2-dnxhd-720p.dnxhd
==37012== 
avconv version v13_dev0-1062-g1731c35, Copyright (c) 2000-2017 the Libav developers
  built on Apr 21 2017 01:05:12 with gcc 5.4.0 (GCC)
[rawvideo @ 0x467ae20] Estimating duration from bitrate, this may be inaccurate
Input #0, rawvideo, from '/home/mik/src/fate/ppc64-linux-gcc-valgrind/build/tests/data/vsynth2.yuv':
  Duration: N/A, start: 0.000000, bitrate: N/A
    Stream #0:0: Video: rawvideo
      yuv420p, 352x288
      25 fps, 25 tbn
Stream mapping:
  Stream #0:0 -> #0:0 (rawvideo (native) -> dnxhd (native))
Press ctrl-c to stop encoding
Output #0, dnxhd, to '/home/mik/src/fate/ppc64-linux-gcc-valgrind/build/tests/data/fate/vsynth2-dnxhd-720p.dnxhd':
    Stream #0:0: Video: dnxhd
      yuv422p, 1280x720, q=2-31, 90000 kb/s
      25 tbn
    Metadata:
      encoder         : dnxhd
==37012== Invalid read of size 16
==37012==    at 0x1047378C: get_pixels_vsx (pixblockdsp.c:139)
==37012==    by 0x10232F6F: dnxhd_get_blocks (dnxhdenc.c:576)
==37012==    by 0x10232F6F: dnxhd_calc_bits_thread (dnxhdenc.c:619)
==37012==    by 0x10233ED3: dnxhd_find_qscale (dnxhdenc.c:866)
==37012==    by 0x10233ED3: dnxhd_encode_fast (dnxhdenc.c:969)
==37012==    by 0x10233ED3: dnxhd_encode_picture (dnxhdenc.c:1055)
==37012==    by 0x10257EA3: avcodec_encode_video2 (encode.c:227)
==37012==    by 0x102580C3: do_encode (encode.c:274)
==37012==    by 0x1025832F: avcodec_send_frame (encode.c:323)
==37012==    by 0x10074E57: do_video_out (avconv.c:587)
==37012==    by 0x10074E57: poll_filter (avconv.c:726)
==37012==    by 0x1007562F: poll_filters (avconv.c:800)
==37012==    by 0x1005C8BF: transcode (avconv.c:2763)
==37012==    by 0x1005C8BF: main (avconv.c:2932)
==37012==  Address 0x16e21078 is 921,592 bytes inside a block of size 921,600 alloc'd
==37012==    at 0x4088C90: memalign (vg_replace_malloc.c:857)
==37012==    by 0x4088DFF: posix_memalign (vg_replace_malloc.c:1020)
==37012==    by 0x1087E657: av_malloc (mem.c:71)
==37012==    by 0x1086B2A7: av_buffer_alloc (buffer.c:72)
==37012==    by 0x10876213: get_video_buffer (frame.c:119)
==37012==    by 0x10876213: av_frame_get_buffer (frame.c:196)
==37012==    by 0x10099937: ff_default_get_video_buffer (video.c:55)
==37012==    by 0x10099937: ff_get_video_buffer (video.c:73)
==37012==    by 0x10099937: ff_null_get_video_buffer (video.c:33)
==37012==    by 0x100998C3: ff_get_video_buffer (video.c:70)
==37012==    by 0x100998C3: ff_null_get_video_buffer (video.c:33)
==37012==    by 0x10099B1B: ff_get_video_buffer (video.c:70)
==37012==    by 0x10093D7F: filter_frame (vf_scale.c:276)
==37012==    by 0x1007BA03: ff_filter_frame (avfilter.c:698)
==37012==    by 0x1007BA03: default_filter_frame (avfilter.c:638)
==37012==    by 0x1007E283: ff_filter_frame (avfilter.c:698)
==37012==    by 0x10080A73: request_frame (buffersrc.c:399)
==37012== 
==37012== Invalid read of size 16
==37012==    at 0x1047378C: get_pixels_vsx (pixblockdsp.c:139)
==37012==    by 0x10232F9F: dnxhd_get_blocks (dnxhdenc.c:578)
==37012==    by 0x10232F9F: dnxhd_calc_bits_thread (dnxhdenc.c:619)
==37012==    by 0x10233ED3: dnxhd_find_qscale (dnxhdenc.c:866)
==37012==    by 0x10233ED3: dnxhd_encode_fast (dnxhdenc.c:969)
==37012==    by 0x10233ED3: dnxhd_encode_picture (dnxhdenc.c:1055)
==37012==    by 0x10257EA3: avcodec_encode_video2 (encode.c:227)
==37012==    by 0x102580C3: do_encode (encode.c:274)
==37012==    by 0x1025832F: avcodec_send_frame (encode.c:323)
==37012==    by 0x10074E57: do_video_out (avconv.c:587)
==37012==    by 0x10074E57: poll_filter (avconv.c:726)
==37012==    by 0x1007562F: poll_filters (avconv.c:800)
==37012==    by 0x1005C8BF: transcode (avconv.c:2763)
==37012==    by 0x1005C8BF: main (avconv.c:2932)
==37012==  Address 0x16e91918 is 460,792 bytes inside a block of size 460,800 alloc'd
==37012==    at 0x4088C90: memalign (vg_replace_malloc.c:857)
==37012==    by 0x4088DFF: posix_memalign (vg_replace_malloc.c:1020)
==37012==    by 0x1087E657: av_malloc (mem.c:71)
==37012==    by 0x1086B2A7: av_buffer_alloc (buffer.c:72)
==37012==    by 0x10876213: get_video_buffer (frame.c:119)
==37012==    by 0x10876213: av_frame_get_buffer (frame.c:196)
==37012==    by 0x10099937: ff_default_get_video_buffer (video.c:55)
==37012==    by 0x10099937: ff_get_video_buffer (video.c:73)
==37012==    by 0x10099937: ff_null_get_video_buffer (video.c:33)
==37012==    by 0x100998C3: ff_get_video_buffer (video.c:70)
==37012==    by 0x100998C3: ff_null_get_video_buffer (video.c:33)
==37012==    by 0x10099B1B: ff_get_video_buffer (video.c:70)
==37012==    by 0x10093D7F: filter_frame (vf_scale.c:276)
==37012==    by 0x1007BA03: ff_filter_frame (avfilter.c:698)
==37012==    by 0x1007BA03: default_filter_frame (avfilter.c:638)
==37012==    by 0x1007E283: ff_filter_frame (avfilter.c:698)
==37012==    by 0x10080A73: request_frame (buffersrc.c:399)
==37012== 
==37012== Invalid read of size 16
==37012==    at 0x1047378C: get_pixels_vsx (pixblockdsp.c:139)
==37012==    by 0x10232FCF: dnxhd_get_blocks (dnxhdenc.c:580)
==37012==    by 0x10232FCF: dnxhd_calc_bits_thread (dnxhdenc.c:619)
==37012==    by 0x10233ED3: dnxhd_find_qscale (dnxhdenc.c:866)
==37012==    by 0x10233ED3: dnxhd_encode_fast (dnxhdenc.c:969)
==37012==    by 0x10233ED3: dnxhd_encode_picture (dnxhdenc.c:1055)
==37012==    by 0x10257EA3: avcodec_encode_video2 (encode.c:227)
==37012==    by 0x102580C3: do_encode (encode.c:274)
==37012==    by 0x1025832F: avcodec_send_frame (encode.c:323)
==37012==    by 0x10074E57: do_video_out (avconv.c:587)
==37012==    by 0x10074E57: poll_filter (avconv.c:726)
==37012==    by 0x1007562F: poll_filters (avconv.c:800)
==37012==    by 0x1005C8BF: transcode (avconv.c:2763)
==37012==    by 0x1005C8BF: main (avconv.c:2932)
==37012==  Address 0x16f021b8 is 460,792 bytes inside a block of size 460,800 alloc'd
==37012==    at 0x4088C90: memalign (vg_replace_malloc.c:857)
==37012==    by 0x4088DFF: posix_memalign (vg_replace_malloc.c:1020)
==37012==    by 0x1087E657: av_malloc (mem.c:71)
==37012==    by 0x1086B2A7: av_buffer_alloc (buffer.c:72)
==37012==    by 0x10876213: get_video_buffer (frame.c:119)
==37012==    by 0x10876213: av_frame_get_buffer (frame.c:196)
==37012==    by 0x10099937: ff_default_get_video_buffer (video.c:55)
==37012==    by 0x10099937: ff_get_video_buffer (video.c:73)
==37012==    by 0x10099937: ff_null_get_video_buffer (video.c:33)
==37012==    by 0x100998C3: ff_get_video_buffer (video.c:70)
==37012==    by 0x100998C3: ff_null_get_video_buffer (video.c:33)
==37012==    by 0x10099B1B: ff_get_video_buffer (video.c:70)
==37012==    by 0x10093D7F: filter_frame (vf_scale.c:276)
==37012==    by 0x1007BA03: ff_filter_frame (avfilter.c:698)
==37012==    by 0x1007BA03: default_filter_frame (avfilter.c:638)
==37012==    by 0x1007E283: ff_filter_frame (avfilter.c:698)
==37012==    by 0x10080A73: request_frame (buffersrc.c:399)
==37012== 
==37012== Invalid read of size 16
==37012==    at 0x1047378C: get_pixels_vsx (pixblockdsp.c:139)
==37012==    by 0x10232613: dnxhd_get_blocks (dnxhdenc.c:576)
==37012==    by 0x10232613: dnxhd_encode_thread (dnxhdenc.c:674)
==37012==    by 0x1023460F: dnxhd_encode_picture (dnxhdenc.c:1071)
==37012==    by 0x10257EA3: avcodec_encode_video2 (encode.c:227)
==37012==    by 0x102580C3: do_encode (encode.c:274)
==37012==    by 0x1025832F: avcodec_send_frame (encode.c:323)
==37012==    by 0x10074E57: do_video_out (avconv.c:587)
==37012==    by 0x10074E57: poll_filter (avconv.c:726)
==37012==    by 0x1007562F: poll_filters (avconv.c:800)
==37012==    by 0x1005C8BF: transcode (avconv.c:2763)
==37012==    by 0x1005C8BF: main (avconv.c:2932)
==37012==  Address 0x16e21078 is 921,592 bytes inside a block of size 921,600 alloc'd
==37012==    at 0x4088C90: memalign (vg_replace_malloc.c:857)
==37012==    by 0x4088DFF: posix_memalign (vg_replace_malloc.c:1020)
==37012==    by 0x1087E657: av_malloc (mem.c:71)
==37012==    by 0x1086B2A7: av_buffer_alloc (buffer.c:72)
==37012==    by 0x10876213: get_video_buffer (frame.c:119)
==37012==    by 0x10876213: av_frame_get_buffer (frame.c:196)
==37012==    by 0x10099937: ff_default_get_video_buffer (video.c:55)
==37012==    by 0x10099937: ff_get_video_buffer (video.c:73)
==37012==    by 0x10099937: ff_null_get_video_buffer (video.c:33)
==37012==    by 0x100998C3: ff_get_video_buffer (video.c:70)
==37012==    by 0x100998C3: ff_null_get_video_buffer (video.c:33)
==37012==    by 0x10099B1B: ff_get_video_buffer (video.c:70)
==37012==    by 0x10093D7F: filter_frame (vf_scale.c:276)
==37012==    by 0x1007BA03: ff_filter_frame (avfilter.c:698)
==37012==    by 0x1007BA03: default_filter_frame (avfilter.c:638)
==37012==    by 0x1007E283: ff_filter_frame (avfilter.c:698)
==37012==    by 0x10080A73: request_frame (buffersrc.c:399)
==37012== 
==37012== Invalid read of size 16
==37012==    at 0x1047378C: get_pixels_vsx (pixblockdsp.c:139)
==37012==    by 0x10232643: dnxhd_get_blocks (dnxhdenc.c:578)
==37012==    by 0x10232643: dnxhd_encode_thread (dnxhdenc.c:674)
==37012==    by 0x1023460F: dnxhd_encode_picture (dnxhdenc.c:1071)
==37012==    by 0x10257EA3: avcodec_encode_video2 (encode.c:227)
==37012==    by 0x102580C3: do_encode (encode.c:274)
==37012==    by 0x1025832F: avcodec_send_frame (encode.c:323)
==37012==    by 0x10074E57: do_video_out (avconv.c:587)
==37012==    by 0x10074E57: poll_filter (avconv.c:726)
==37012==    by 0x1007562F: poll_filters (avconv.c:800)
==37012==    by 0x1005C8BF: transcode (avconv.c:2763)
==37012==    by 0x1005C8BF: main (avconv.c:2932)
==37012==  Address 0x16e91918 is 460,792 bytes inside a block of size 460,800 alloc'd
==37012==    at 0x4088C90: memalign (vg_replace_malloc.c:857)
==37012==    by 0x4088DFF: posix_memalign (vg_replace_malloc.c:1020)
==37012==    by 0x1087E657: av_malloc (mem.c:71)
==37012==    by 0x1086B2A7: av_buffer_alloc (buffer.c:72)
==37012==    by 0x10876213: get_video_buffer (frame.c:119)
==37012==    by 0x10876213: av_frame_get_buffer (frame.c:196)
==37012==    by 0x10099937: ff_default_get_video_buffer (video.c:55)
==37012==    by 0x10099937: ff_get_video_buffer (video.c:73)
==37012==    by 0x10099937: ff_null_get_video_buffer (video.c:33)
==37012==    by 0x100998C3: ff_get_video_buffer (video.c:70)
==37012==    by 0x100998C3: ff_null_get_video_buffer (video.c:33)
==37012==    by 0x10099B1B: ff_get_video_buffer (video.c:70)
==37012==    by 0x10093D7F: filter_frame (vf_scale.c:276)
==37012==    by 0x1007BA03: ff_filter_frame (avfilter.c:698)
==37012==    by 0x1007BA03: default_filter_frame (avfilter.c:638)
==37012==    by 0x1007E283: ff_filter_frame (avfilter.c:698)
==37012==    by 0x10080A73: request_frame (buffersrc.c:399)
==37012== 
==37012== Invalid read of size 16
==37012==    at 0x1047378C: get_pixels_vsx (pixblockdsp.c:139)
==37012==    by 0x10232673: dnxhd_get_blocks (dnxhdenc.c:580)
==37012==    by 0x10232673: dnxhd_encode_thread (dnxhdenc.c:674)
==37012==    by 0x1023460F: dnxhd_encode_picture (dnxhdenc.c:1071)
==37012==    by 0x10257EA3: avcodec_encode_video2 (encode.c:227)
==37012==    by 0x102580C3: do_encode (encode.c:274)
==37012==    by 0x1025832F: avcodec_send_frame (encode.c:323)
==37012==    by 0x10074E57: do_video_out (avconv.c:587)
==37012==    by 0x10074E57: poll_filter (avconv.c:726)
==37012==    by 0x1007562F: poll_filters (avconv.c:800)
==37012==    by 0x1005C8BF: transcode (avconv.c:2763)
==37012==    by 0x1005C8BF: main (avconv.c:2932)
==37012==  Address 0x16f021b8 is 460,792 bytes inside a block of size 460,800 alloc'd
==37012==    at 0x4088C90: memalign (vg_replace_malloc.c:857)
==37012==    by 0x4088DFF: posix_memalign (vg_replace_malloc.c:1020)
==37012==    by 0x1087E657: av_malloc (mem.c:71)
==37012==    by 0x1086B2A7: av_buffer_alloc (buffer.c:72)
==37012==    by 0x10876213: get_video_buffer (frame.c:119)
==37012==    by 0x10876213: av_frame_get_buffer (frame.c:196)
==37012==    by 0x10099937: ff_default_get_video_buffer (video.c:55)
==37012==    by 0x10099937: ff_get_video_buffer (video.c:73)
==37012==    by 0x10099937: ff_null_get_video_buffer (video.c:33)
==37012==    by 0x100998C3: ff_get_video_buffer (video.c:70)
==37012==    by 0x100998C3: ff_null_get_video_buffer (video.c:33)
==37012==    by 0x10099B1B: ff_get_video_buffer (video.c:70)
==37012==    by 0x10093D7F: filter_frame (vf_scale.c:276)
==37012==    by 0x1007BA03: ff_filter_frame (avfilter.c:698)
==37012==    by 0x1007BA03: default_filter_frame (avfilter.c:638)
==37012==    by 0x1007E283: ff_filter_frame (avfilter.c:698)
==37012==    by 0x10080A73: request_frame (buffersrc.c:399)
==37012== 
frame=    5 fps=  1 q=1.0 Lsize=    2240kB time=0.16 bitrate=114688.0kbits/s    
video:2240kB audio:0kB other streams:0kB global headers:0kB muxing overhead: 0.000000%
==37012== 
==37012== HEAP SUMMARY:
==37012==     in use at exit: 0 bytes in 0 blocks
==37012==   total heap usage: 1,762 allocs, 1,762 frees, 21,991,775 bytes allocated
==37012== 
==37012== All heap blocks were freed -- no leaks are possible
==37012== 
==37012== For counts of detected and suppressed errors, rerun with: -v
==37012== ERROR SUMMARY: 30 errors from 6 contexts (suppressed: 0 from 0)
diffstderrvsynth2-dnxhd-720p-rd1v12_dev0-1345-g0181ae9
--- /home/mik/src/fate/src/tests/ref/vsynth/vsynth2-dnxhd-720p-rd	2014-11-30 15:37:05.674204650 +0000
+++ tests/data/fate/vsynth2-dnxhd-720p-rd	2017-04-21 01:31:17.874620873 +0000
@@ -1,4 +0,0 @@
-819a7714098e098981bf08253ef2e490 *tests/data/fate/vsynth2-dnxhd-720p-rd.dnxhd
-2293760 tests/data/fate/vsynth2-dnxhd-720p-rd.dnxhd
-a05c35b99e5e74a9c8b3a9c66da01775 *tests/data/fate/vsynth2-dnxhd-720p-rd.out.rawvideo
-stddev:    1.53 PSNR: 44.39 MAXDIFF:   31 bytes:  7603200/   760320
==37425== Memcheck, a memory error detector
==37425== Copyright (C) 2002-2015, and GNU GPL'd, by Julian Seward et al.
==37425== Using Valgrind-3.12.0.SVN and LibVEX; rerun with -h for copyright info
==37425== Command: /home/mik/src/fate/ppc64-linux-gcc-valgrind/build/avconv -nostats -cpuflags all -f rawvideo -s 352x288 -pix_fmt yuv420p -threads 1 -idct simple -flags +bitexact -sws_flags +accurate_rnd+bitexact -fflags +bitexact -hwaccel none -threads 1 -thread_type frame+slice -i /home/mik/src/fate/ppc64-linux-gcc-valgrind/build/tests/data/vsynth2.yuv -threads 1 -idct simple -dct fastint -c dnxhd -s hd720 -b 90M -threads 4 -mbd rd -pix_fmt yuv422p -frames 5 -flags +bitexact -sws_flags +accurate_rnd+bitexact -fflags +bitexact -f dnxhd -y /home/mik/src/fate/ppc64-linux-gcc-valgrind/build/tests/data/fate/vsynth2-dnxhd-720p-rd.dnxhd
==37425== 
avconv version v13_dev0-1062-g1731c35, Copyright (c) 2000-2017 the Libav developers
  built on Apr 21 2017 01:05:12 with gcc 5.4.0 (GCC)
[rawvideo @ 0x467aec0] Estimating duration from bitrate, this may be inaccurate
Input #0, rawvideo, from '/home/mik/src/fate/ppc64-linux-gcc-valgrind/build/tests/data/vsynth2.yuv':
  Duration: N/A, start: 0.000000, bitrate: N/A
    Stream #0:0: Video: rawvideo
      yuv420p, 352x288
      25 fps, 25 tbn
Stream mapping:
  Stream #0:0 -> #0:0 (rawvideo (native) -> dnxhd (native))
Press ctrl-c to stop encoding
Output #0, dnxhd, to '/home/mik/src/fate/ppc64-linux-gcc-valgrind/build/tests/data/fate/vsynth2-dnxhd-720p-rd.dnxhd':
    Stream #0:0: Video: dnxhd
      yuv422p, 1280x720, q=2-31, 90000 kb/s
      25 tbn
    Metadata:
      encoder         : dnxhd
==37425== Thread 70:
==37425== Invalid read of size 16
==37425==    at 0x1047378C: get_pixels_vsx (pixblockdsp.c:139)
==37425==    by 0x10232F6F: dnxhd_get_blocks (dnxhdenc.c:576)
==37425==    by 0x10232F6F: dnxhd_calc_bits_thread (dnxhdenc.c:619)
==37425==    by 0x43BC327: start_thread (in /usr/lib64/libpthread-2.18.so)
==37425==    by 0x451DC6F: clone (in /usr/lib64/libc-2.18.so)
==37425==  Address 0x17e21078 is 921,592 bytes inside a block of size 921,600 alloc'd
==37425==    at 0x4088C90: memalign (vg_replace_malloc.c:857)
==37425==    by 0x4088DFF: posix_memalign (vg_replace_malloc.c:1020)
==37425==    by 0x1087E657: av_malloc (mem.c:71)
==37425==    by 0x1086B2A7: av_buffer_alloc (buffer.c:72)
==37425==    by 0x10876213: get_video_buffer (frame.c:119)
==37425==    by 0x10876213: av_frame_get_buffer (frame.c:196)
==37425==    by 0x10099937: ff_default_get_video_buffer (video.c:55)
==37425==    by 0x10099937: ff_get_video_buffer (video.c:73)
==37425==    by 0x10099937: ff_null_get_video_buffer (video.c:33)
==37425==    by 0x100998C3: ff_get_video_buffer (video.c:70)
==37425==    by 0x100998C3: ff_null_get_video_buffer (video.c:33)
==37425==    by 0x10099B1B: ff_get_video_buffer (video.c:70)
==37425==    by 0x10093D7F: filter_frame (vf_scale.c:276)
==37425==    by 0x1007BA03: ff_filter_frame (avfilter.c:698)
==37425==    by 0x1007BA03: default_filter_frame (avfilter.c:638)
==37425==    by 0x1007E283: ff_filter_frame (avfilter.c:698)
==37425==    by 0x10080A73: request_frame (buffersrc.c:399)
==37425== 
==37425== Invalid read of size 16
==37425==    at 0x1047378C: get_pixels_vsx (pixblockdsp.c:139)
==37425==    by 0x10232F9F: dnxhd_get_blocks (dnxhdenc.c:578)
==37425==    by 0x10232F9F: dnxhd_calc_bits_thread (dnxhdenc.c:619)
==37425==    by 0x43BC327: start_thread (in /usr/lib64/libpthread-2.18.so)
==37425==    by 0x451DC6F: clone (in /usr/lib64/libc-2.18.so)
==37425==  Address 0x17e91918 is 460,792 bytes inside a block of size 460,800 alloc'd
==37425==    at 0x4088C90: memalign (vg_replace_malloc.c:857)
==37425==    by 0x4088DFF: posix_memalign (vg_replace_malloc.c:1020)
==37425==    by 0x1087E657: av_malloc (mem.c:71)
==37425==    by 0x1086B2A7: av_buffer_alloc (buffer.c:72)
==37425==    by 0x10876213: get_video_buffer (frame.c:119)
==37425==    by 0x10876213: av_frame_get_buffer (frame.c:196)
==37425==    by 0x10099937: ff_default_get_video_buffer (video.c:55)
==37425==    by 0x10099937: ff_get_video_buffer (video.c:73)
==37425==    by 0x10099937: ff_null_get_video_buffer (video.c:33)
==37425==    by 0x100998C3: ff_get_video_buffer (video.c:70)
==37425==    by 0x100998C3: ff_null_get_video_buffer (video.c:33)
==37425==    by 0x10099B1B: ff_get_video_buffer (video.c:70)
==37425==    by 0x10093D7F: filter_frame (vf_scale.c:276)
==37425==    by 0x1007BA03: ff_filter_frame (avfilter.c:698)
==37425==    by 0x1007BA03: default_filter_frame (avfilter.c:638)
==37425==    by 0x1007E283: ff_filter_frame (avfilter.c:698)
==37425==    by 0x10080A73: request_frame (buffersrc.c:399)
==37425== 
==37425== Invalid read of size 16
==37425==    at 0x1047378C: get_pixels_vsx (pixblockdsp.c:139)
==37425==    by 0x10232FCF: dnxhd_get_blocks (dnxhdenc.c:580)
==37425==    by 0x10232FCF: dnxhd_calc_bits_thread (dnxhdenc.c:619)
==37425==    by 0x43BC327: start_thread (in /usr/lib64/libpthread-2.18.so)
==37425==    by 0x451DC6F: clone (in /usr/lib64/libc-2.18.so)
==37425==  Address 0x17f021b8 is 460,792 bytes inside a block of size 460,800 alloc'd
==37425==    at 0x4088C90: memalign (vg_replace_malloc.c:857)
==37425==    by 0x4088DFF: posix_memalign (vg_replace_malloc.c:1020)
==37425==    by 0x1087E657: av_malloc (mem.c:71)
==37425==    by 0x1086B2A7: av_buffer_alloc (buffer.c:72)
==37425==    by 0x10876213: get_video_buffer (frame.c:119)
==37425==    by 0x10876213: av_frame_get_buffer (frame.c:196)
==37425==    by 0x10099937: ff_default_get_video_buffer (video.c:55)
==37425==    by 0x10099937: ff_get_video_buffer (video.c:73)
==37425==    by 0x10099937: ff_null_get_video_buffer (video.c:33)
==37425==    by 0x100998C3: ff_get_video_buffer (video.c:70)
==37425==    by 0x100998C3: ff_null_get_video_buffer (video.c:33)
==37425==    by 0x10099B1B: ff_get_video_buffer (video.c:70)
==37425==    by 0x10093D7F: filter_frame (vf_scale.c:276)
==37425==    by 0x1007BA03: ff_filter_frame (avfilter.c:698)
==37425==    by 0x1007BA03: default_filter_frame (avfilter.c:638)
==37425==    by 0x1007E283: ff_filter_frame (avfilter.c:698)
==37425==    by 0x10080A73: request_frame (buffersrc.c:399)
==37425== 
==37425== Thread 69:
==37425== Invalid read of size 16
==37425==    at 0x1047378C: get_pixels_vsx (pixblockdsp.c:139)
==37425==    by 0x10232613: dnxhd_get_blocks (dnxhdenc.c:576)
==37425==    by 0x10232613: dnxhd_encode_thread (dnxhdenc.c:674)
==37425==    by 0x43BC327: start_thread (in /usr/lib64/libpthread-2.18.so)
==37425==    by 0x451DC6F: clone (in /usr/lib64/libc-2.18.so)
==37425==  Address 0x17e21078 is 921,592 bytes inside a block of size 921,600 alloc'd
==37425==    at 0x4088C90: memalign (vg_replace_malloc.c:857)
==37425==    by 0x4088DFF: posix_memalign (vg_replace_malloc.c:1020)
==37425==    by 0x1087E657: av_malloc (mem.c:71)
==37425==    by 0x1086B2A7: av_buffer_alloc (buffer.c:72)
==37425==    by 0x10876213: get_video_buffer (frame.c:119)
==37425==    by 0x10876213: av_frame_get_buffer (frame.c:196)
==37425==    by 0x10099937: ff_default_get_video_buffer (video.c:55)
==37425==    by 0x10099937: ff_get_video_buffer (video.c:73)
==37425==    by 0x10099937: ff_null_get_video_buffer (video.c:33)
==37425==    by 0x100998C3: ff_get_video_buffer (video.c:70)
==37425==    by 0x100998C3: ff_null_get_video_buffer (video.c:33)
==37425==    by 0x10099B1B: ff_get_video_buffer (video.c:70)
==37425==    by 0x10093D7F: filter_frame (vf_scale.c:276)
==37425==    by 0x1007BA03: ff_filter_frame (avfilter.c:698)
==37425==    by 0x1007BA03: default_filter_frame (avfilter.c:638)
==37425==    by 0x1007E283: ff_filter_frame (avfilter.c:698)
==37425==    by 0x10080A73: request_frame (buffersrc.c:399)
==37425== 
==37425== Invalid read of size 16
==37425==    at 0x1047378C: get_pixels_vsx (pixblockdsp.c:139)
==37425==    by 0x10232643: dnxhd_get_blocks (dnxhdenc.c:578)
==37425==    by 0x10232643: dnxhd_encode_thread (dnxhdenc.c:674)
==37425==    by 0x43BC327: start_thread (in /usr/lib64/libpthread-2.18.so)
==37425==    by 0x451DC6F: clone (in /usr/lib64/libc-2.18.so)
==37425==  Address 0x17e91918 is 460,792 bytes inside a block of size 460,800 alloc'd
==37425==    at 0x4088C90: memalign (vg_replace_malloc.c:857)
==37425==    by 0x4088DFF: posix_memalign (vg_replace_malloc.c:1020)
==37425==    by 0x1087E657: av_malloc (mem.c:71)
==37425==    by 0x1086B2A7: av_buffer_alloc (buffer.c:72)
==37425==    by 0x10876213: get_video_buffer (frame.c:119)
==37425==    by 0x10876213: av_frame_get_buffer (frame.c:196)
==37425==    by 0x10099937: ff_default_get_video_buffer (video.c:55)
==37425==    by 0x10099937: ff_get_video_buffer (video.c:73)
==37425==    by 0x10099937: ff_null_get_video_buffer (video.c:33)
==37425==    by 0x100998C3: ff_get_video_buffer (video.c:70)
==37425==    by 0x100998C3: ff_null_get_video_buffer (video.c:33)
==37425==    by 0x10099B1B: ff_get_video_buffer (video.c:70)
==37425==    by 0x10093D7F: filter_frame (vf_scale.c:276)
==37425==    by 0x1007BA03: ff_filter_frame (avfilter.c:698)
==37425==    by 0x1007BA03: default_filter_frame (avfilter.c:638)
==37425==    by 0x1007E283: ff_filter_frame (avfilter.c:698)
==37425==    by 0x10080A73: request_frame (buffersrc.c:399)
==37425== 
==37425== Invalid read of size 16
==37425==    at 0x1047378C: get_pixels_vsx (pixblockdsp.c:139)
==37425==    by 0x10232673: dnxhd_get_blocks (dnxhdenc.c:580)
==37425==    by 0x10232673: dnxhd_encode_thread (dnxhdenc.c:674)
==37425==    by 0x43BC327: start_thread (in /usr/lib64/libpthread-2.18.so)
==37425==    by 0x451DC6F: clone (in /usr/lib64/libc-2.18.so)
==37425==  Address 0x17f021b8 is 460,792 bytes inside a block of size 460,800 alloc'd
==37425==    at 0x4088C90: memalign (vg_replace_malloc.c:857)
==37425==    by 0x4088DFF: posix_memalign (vg_replace_malloc.c:1020)
==37425==    by 0x1087E657: av_malloc (mem.c:71)
==37425==    by 0x1086B2A7: av_buffer_alloc (buffer.c:72)
==37425==    by 0x10876213: get_video_buffer (frame.c:119)
==37425==    by 0x10876213: av_frame_get_buffer (frame.c:196)
==37425==    by 0x10099937: ff_default_get_video_buffer (video.c:55)
==37425==    by 0x10099937: ff_get_video_buffer (video.c:73)
==37425==    by 0x10099937: ff_null_get_video_buffer (video.c:33)
==37425==    by 0x100998C3: ff_get_video_buffer (video.c:70)
==37425==    by 0x100998C3: ff_null_get_video_buffer (video.c:33)
==37425==    by 0x10099B1B: ff_get_video_buffer (video.c:70)
==37425==    by 0x10093D7F: filter_frame (vf_scale.c:276)
==37425==    by 0x1007BA03: ff_filter_frame (avfilter.c:698)
==37425==    by 0x1007BA03: default_filter_frame (avfilter.c:638)
==37425==    by 0x1007E283: ff_filter_frame (avfilter.c:698)
==37425==    by 0x10080A73: request_frame (buffersrc.c:399)
==37425== 
frame=    5 fps=  0 q=30.0 Lsize=    2240kB time=0.16 bitrate=114688.0kbits/s    
video:2240kB audio:0kB other streams:0kB global headers:0kB muxing overhead: 0.000000%
==37425== 
==37425== HEAP SUMMARY:
==37425==     in use at exit: 0 bytes in 0 blocks
==37425==   total heap usage: 1,787 allocs, 1,787 frees, 21,998,799 bytes allocated
==37425== 
==37425== All heap blocks were freed -- no leaks are possible
==37425== 
==37425== For counts of detected and suppressed errors, rerun with: -v
==37425== ERROR SUMMARY: 465 errors from 6 contexts (suppressed: 0 from 0)