ppc64-linux-clang v13_dev0-1417-g3ff8fbb

Architectureppc
Variantppc64
CPUgeneric
OSlinux
Ownerkostylev
Compilerclang version 6.0.0 (trunk 319011)
Configuration--prefix=/home/mik/src/fate/ppc64-linux-clang/install --samples=/home/mik/src/fate/fate-suite --enable-gpl --cc=clang --disable-debug --disable-altivec --enable-shared
CommentAltiVec disabled
Revisionv13_dev0-1417-g3ff8fbb
Date2017-12-07 00:43:33
Status2146 / 2149
Warnings61
Logscompile configure test
3 failed testsStatusLast good rev
diffstderrsipr-5k01v13_dev0-576-g6c91619
stddev:31685.79 PSNR:  6.31 MAXDIFF:41285 bytes:   322560/   322560
avconv version v13_dev0-1417-g3ff8fbb, Copyright (c) 2000-2017 the Libav developers
  built on Dec  7 2017 00:41:47 with clang version 6.0.0 (trunk 319011)
Input #0, rm, from '/home/mik/src/fate/fate-suite/sipr/sipr_5k0.rm':
  Metadata:
    title           : Plumbbob
    author          : U.S. Department of Energy
    copyright       : U.S. Department of Energy
    comment         : 
  Duration: 00:00:20.11, start: 0.000000, bitrate: 19 kb/s
    Stream #0:0: Audio: sipr [sipr / 0x72706973]
      8000 Hz, mono, flt, 5 kb/s
    Stream #0:1: Video: rv10 [RV10 / 0x30315652]
      yuv420p, 160x112, 15 kb/s
      4 fps, 1k tbn
Stream mapping:
  Stream #0:0 -> #0:0 (sipr (native) -> pcm_s16le (native))
Press ctrl-c to stop encoding
Output #0, s16le, to 'pipe:':
  Metadata:
    title           : Plumbbob
    author          : U.S. Department of Energy
    copyright       : U.S. Department of Energy
    comment         : 
    encoder         : Lavf58.1.0
    Stream #0:0: Audio: pcm_s16le
      8000 Hz, mono, s16, 128 kb/s
    Metadata:
      encoder         : Lavc58.5.0 pcm_s16le
/home/mik/src/fate/fate-suite/sipr/sipr_5k0.rm: Input/output error
size=     315kB time=20.06 bitrate= 128.6kbits/s    
video:0kB audio:315kB other streams:0kB global headers:0kB muxing overhead: 0.000000%
diffstderrsipr-6k51v13_dev0-576-g6c91619
stddev:30220.86 PSNR: 11.12 MAXDIFF:48682 bytes:   967680/   967680
avconv version v13_dev0-1417-g3ff8fbb, Copyright (c) 2000-2017 the Libav developers
  built on Dec  7 2017 00:41:47 with clang version 6.0.0 (trunk 319011)
[rm @ 0x10030e10200] Unsupported stream type 0000025b
[rm @ 0x10030e10200] max_analyze_duration 5000000 reached
Input #0, rm, from '/home/mik/src/fate/fate-suite/sipr/sipr_6k5.rm':
  Metadata:
    title           : IAC Message Sept. 11, 2001
    author          : 
    copyright       : 
    comment         : 
  Duration: 00:08:05.56, start: 0.000000, bitrate: 4 kb/s
    Stream #0:0: Audio: sipr [sipr / 0x72706973]
      8000 Hz, mono, flt, 6 kb/s
    Stream #0:1: Video: rv30 [RV30 / 0x30335652]
      yuv420p, 160x120, 27 kb/s
      15 fps, 1k tbn
    Stream #0:2: Data: [0][0][0][0] / 0x0000
Stream mapping:
  Stream #0:0 -> #0:0 (sipr (native) -> pcm_s16le (native))
Press ctrl-c to stop encoding
Output #0, s16le, to 'pipe:':
  Metadata:
    title           : IAC Message Sept. 11, 2001
    author          : 
    copyright       : 
    comment         : 
    encoder         : Lavf58.1.0
    Stream #0:0: Audio: pcm_s16le
      8000 Hz, mono, s16, 128 kb/s
    Metadata:
      encoder         : Lavc58.5.0 pcm_s16le
/home/mik/src/fate/fate-suite/sipr/sipr_6k5.rm: Input/output error
size=     945kB time=60.44 bitrate= 128.1kbits/s    
video:0kB audio:945kB other streams:0kB global headers:0kB muxing overhead: 0.000000%
diffstderrsipr-8k51v13_dev0-576-g6c91619
stddev:32003.26 PSNR:  6.23 MAXDIFF:52360 bytes:   331776/   331776
avconv version v13_dev0-1417-g3ff8fbb, Copyright (c) 2000-2017 the Libav developers
  built on Dec  7 2017 00:41:47 with clang version 6.0.0 (trunk 319011)
[rm @ 0x10007b80200] max_analyze_duration 5000000 reached
Input #0, rm, from '/home/mik/src/fate/fate-suite/sipr/sipr_8k5.rm':
  Metadata:
    title           : 
    author          : 
    copyright       : 
    comment         : 
  Duration: 00:02:23.10, start: 0.000000, bitrate: 5 kb/s
    Stream #0:0: Audio: sipr [sipr / 0x72706973]
      8000 Hz, mono, flt, 8 kb/s
    Stream #0:1: Video: rv20 [RV20 / 0x30325652]
      yuv420p, 192x144, 25 kb/s
      12.50 fps, 1k tbn
Stream mapping:
  Stream #0:0 -> #0:0 (sipr (native) -> pcm_s16le (native))
Press ctrl-c to stop encoding
Output #0, s16le, to 'pipe:':
  Metadata:
    title           : 
    author          : 
    copyright       : 
    comment         : 
    encoder         : Lavf58.1.0
    Stream #0:0: Audio: pcm_s16le
      8000 Hz, mono, s16, 128 kb/s
    Metadata:
      encoder         : Lavc58.5.0 pcm_s16le
/home/mik/src/fate/fate-suite/sipr/sipr_8k5.rm: Input/output error
size=     324kB time=20.68 bitrate= 128.4kbits/s    
video:0kB audio:324kB other streams:0kB global headers:0kB muxing overhead: 0.000000%