ppc64-linux-clang-6 v13_dev0-1548-gb930267

Architectureppc
Variantppc64
CPUgeneric
OSlinux
Ownerkostylev
Compilerclang version 6.0.0 (tags/RELEASE_600/final)
Configuration--enable-gpl --prefix=/home/mik/src/fate/ppc64-linux-clang-6/install --samples=/home/mik/src/fate/fate-suite --cc=clang --disable-debug --disable-altivec
CommentAltiVec disabled
Revisionv13_dev0-1548-gb930267
Date2018-07-07 01:00:15
Status2146 / 2149
Warnings60
Logscompile configure test
3 failed testsStatusLast good rev
diffstderrsipr-5k01n / a
stddev:31685.79 PSNR:  6.31 MAXDIFF:41285 bytes:   322560/   322560
avconv version v13_dev0-1548-gb930267, Copyright (c) 2000-2018 the Libav developers
  built on Jul  7 2018 00:58:15 with clang version 6.0.0 (tags/RELEASE_600/final)
Input #0, rm, from '/home/mik/src/fate/fate-suite/sipr/sipr_5k0.rm':
  Metadata:
    title           : Plumbbob
    author          : U.S. Department of Energy
    copyright       : U.S. Department of Energy
    comment         : 
  Duration: 00:00:20.11, start: 0.000000, bitrate: 19 kb/s
    Stream #0:0: Audio: sipr [sipr / 0x72706973]
      8000 Hz, mono, flt, 5 kb/s
    Stream #0:1: Video: rv10 [RV10 / 0x30315652]
      yuv420p, 160x112, 15 kb/s
      4 fps, 1k tbn
Stream mapping:
  Stream #0:0 -> #0:0 (sipr (native) -> pcm_s16le (native))
Press ctrl-c to stop encoding
Output #0, s16le, to 'pipe:':
  Metadata:
    title           : Plumbbob
    author          : U.S. Department of Energy
    copyright       : U.S. Department of Energy
    comment         : 
    encoder         : Lavf58.2.0
    Stream #0:0: Audio: pcm_s16le
      8000 Hz, mono, s16, 128 kb/s
    Metadata:
      encoder         : Lavc58.9.0 pcm_s16le
/home/mik/src/fate/fate-suite/sipr/sipr_5k0.rm: Input/output error
size=     315kB time=20.06 bitrate= 128.6kbits/s    
video:0kB audio:315kB other streams:0kB global headers:0kB muxing overhead: 0.000000%
diffstderrsipr-6k51n / a
stddev:30220.86 PSNR: 11.12 MAXDIFF:48682 bytes:   967680/   967680
avconv version v13_dev0-1548-gb930267, Copyright (c) 2000-2018 the Libav developers
  built on Jul  7 2018 00:58:15 with clang version 6.0.0 (tags/RELEASE_600/final)
[rm @ 0x10026c10200] Unsupported stream type 0000025b
[rm @ 0x10026c10200] max_analyze_duration 5000000 reached
Input #0, rm, from '/home/mik/src/fate/fate-suite/sipr/sipr_6k5.rm':
  Metadata:
    title           : IAC Message Sept. 11, 2001
    author          : 
    copyright       : 
    comment         : 
  Duration: 00:08:05.56, start: 0.000000, bitrate: 4 kb/s
    Stream #0:0: Audio: sipr [sipr / 0x72706973]
      8000 Hz, mono, flt, 6 kb/s
    Stream #0:1: Video: rv30 [RV30 / 0x30335652]
      yuv420p, 160x120, 27 kb/s
      15 fps, 1k tbn
    Stream #0:2: Data: [0][0][0][0] / 0x0000
Stream mapping:
  Stream #0:0 -> #0:0 (sipr (native) -> pcm_s16le (native))
Press ctrl-c to stop encoding
Output #0, s16le, to 'pipe:':
  Metadata:
    title           : IAC Message Sept. 11, 2001
    author          : 
    copyright       : 
    comment         : 
    encoder         : Lavf58.2.0
    Stream #0:0: Audio: pcm_s16le
      8000 Hz, mono, s16, 128 kb/s
    Metadata:
      encoder         : Lavc58.9.0 pcm_s16le
/home/mik/src/fate/fate-suite/sipr/sipr_6k5.rm: Input/output error
size=     945kB time=60.44 bitrate= 128.1kbits/s    
video:0kB audio:945kB other streams:0kB global headers:0kB muxing overhead: 0.000000%
diffstderrsipr-8k51n / a
stddev:32003.26 PSNR:  6.23 MAXDIFF:52360 bytes:   331776/   331776
avconv version v13_dev0-1548-gb930267, Copyright (c) 2000-2018 the Libav developers
  built on Jul  7 2018 00:58:15 with clang version 6.0.0 (tags/RELEASE_600/final)
[rm @ 0x10002550200] max_analyze_duration 5000000 reached
Input #0, rm, from '/home/mik/src/fate/fate-suite/sipr/sipr_8k5.rm':
  Metadata:
    title           : 
    author          : 
    copyright       : 
    comment         : 
  Duration: 00:02:23.10, start: 0.000000, bitrate: 5 kb/s
    Stream #0:0: Audio: sipr [sipr / 0x72706973]
      8000 Hz, mono, flt, 8 kb/s
    Stream #0:1: Video: rv20 [RV20 / 0x30325652]
      yuv420p, 192x144, 25 kb/s
      12.50 fps, 1k tbn
Stream mapping:
  Stream #0:0 -> #0:0 (sipr (native) -> pcm_s16le (native))
Press ctrl-c to stop encoding
Output #0, s16le, to 'pipe:':
  Metadata:
    title           : 
    author          : 
    copyright       : 
    comment         : 
    encoder         : Lavf58.2.0
    Stream #0:0: Audio: pcm_s16le
      8000 Hz, mono, s16, 128 kb/s
    Metadata:
      encoder         : Lavc58.9.0 pcm_s16le
/home/mik/src/fate/fate-suite/sipr/sipr_8k5.rm: Input/output error
size=     324kB time=20.68 bitrate= 128.4kbits/s    
video:0kB audio:324kB other streams:0kB global headers:0kB muxing overhead: 0.000000%