ppc64-linux-clang-3.9 v13_dev0-1417-g3ff8fbb

Architectureppc
Variantppc64
CPUgeneric
OSlinux
Ownerkostylev
Compilerclang version 3.9.0 (tags/RELEASE_390/final)
Configuration--prefix=/home/mik/src/fate/ppc64-linux-clang-3.9/install --samples=/home/mik/src/fate/fate-suite --enable-gpl --cc=clang --disable-debug --disable-altivec
CommentAltiVec disabled
Revisionv13_dev0-1417-g3ff8fbb
Date2017-12-07 00:31:30
Status2142 / 2148
Warnings59
Logscompile configure test
6 failed testsStatusLast good rev
diffstderracodec-adpcm-ima_wavSEGVn / a
--- /home/mik/src/fate/src/tests/ref/acodec/adpcm-ima_wav	2014-01-10 11:16:55.644697621 +0000
+++ tests/data/fate/acodec-adpcm-ima_wav	2017-12-07 00:31:04.270251651 +0000
@@ -1,4 +0,0 @@
-56b75c3a6dacedcf2ce7b0586aa33594 *tests/data/fate/acodec-adpcm-ima_wav.wav
-267324 tests/data/fate/acodec-adpcm-ima_wav.wav
-ddddfa47302da540abf19224202bef57 *tests/data/fate/acodec-adpcm-ima_wav.out.wav
-stddev:  903.51 PSNR: 37.21 MAXDIFF:34026 bytes:  1058400/  1061748
avconv version v13_dev0-1417-g3ff8fbb, Copyright (c) 2000-2017 the Libav developers
  built on Dec  7 2017 00:29:45 with clang version 3.9.0 (tags/RELEASE_390/final)
Guessed Channel Layout for Input Stream #0.0 : stereo
Input #0, wav, from '/home/mik/src/fate/ppc64-linux-clang-3.9/build/tests/data/asynth-44100-2.wav':
  Duration: 00:00:06.00, bitrate: 1411 kb/s
    Stream #0:0: Audio: pcm_s16le [[1][0][0][0] / 0x0001]
      44100 Hz, 2 channels, s16, 1411 kb/s
Codec AVOption thread_type (select multithreading type) specified for input file #0 (/home/mik/src/fate/ppc64-linux-clang-3.9/build/tests/data/asynth-44100-2.wav) has not been used for any stream. The most likely reason is either wrong type (e.g. a video option with no video streams) or that it is a private option of some decoder which was not actually used for any stream.
Codec AVOption idct (select IDCT implementation) specified for input file #0 (/home/mik/src/fate/ppc64-linux-clang-3.9/build/tests/data/asynth-44100-2.wav) has not been used for any stream. The most likely reason is either wrong type (e.g. a video option with no video streams) or that it is a private option of some decoder which was not actually used for any stream.
Codec AVOption threads () specified for input file #0 (/home/mik/src/fate/ppc64-linux-clang-3.9/build/tests/data/asynth-44100-2.wav) has not been used for any stream. The most likely reason is either wrong type (e.g. a video option with no video streams) or that it is a private option of some decoder which was not actually used for any stream.
Codec AVOption threads () specified for output file #0 (/home/mik/src/fate/ppc64-linux-clang-3.9/build/tests/data/fate/acodec-adpcm-ima_wav.wav) has not been used for any stream. The most likely reason is either wrong type (e.g. a video option with no video streams) or that it is a private option of some encoder which was not actually used for any stream.
Codec AVOption idct (select IDCT implementation) specified for output file #0 (/home/mik/src/fate/ppc64-linux-clang-3.9/build/tests/data/fate/acodec-adpcm-ima_wav.wav) has not been used for any stream. The most likely reason is either wrong type (e.g. a video option with no video streams) or that it is a private option of some encoder which was not actually used for any stream.
Codec AVOption dct (DCT algorithm) specified for output file #0 (/home/mik/src/fate/ppc64-linux-clang-3.9/build/tests/data/fate/acodec-adpcm-ima_wav.wav) has not been used for any stream. The most likely reason is either wrong type (e.g. a video option with no video streams) or that it is a private option of some encoder which was not actually used for any stream.
Stream mapping:
  Stream #0:0 -> #0:0 (pcm_s16le (native) -> adpcm_ima_wav (native))
Press ctrl-c to stop encoding
/home/mik/src/fate/src/tests/fate-run.sh: line 71: 10754 Segmentation fault      $target_exec $target_path/"$@"
diffstderrv2101n / a
--- /home/mik/src/fate/src/tests/ref/fate/v210	2014-12-05 13:07:16.784416624 +0000
+++ tests/data/fate/v210	2017-12-07 00:30:59.970243481 +0000
@@ -1,2 +1,2 @@
 #tb 0: 1/50
-0,          0,          0,        1,  3686400, 0x8d5c3847
+0,          0,          0,        1,  3686400, 0xf47e27ae
avconv version v13_dev0-1417-g3ff8fbb, Copyright (c) 2000-2017 the Libav developers
  built on Dec  7 2017 00:29:45 with clang version 3.9.0 (tags/RELEASE_390/final)
Guessed Channel Layout for Input Stream #0.1 : stereo
Input #0, avi, from '/home/mik/src/fate/fate-suite/v210/v210_720p-partial.avi':
  Duration: 00:00:00.24, start: 0.000000, bitrate: 104857 kb/s
    Stream #0:0: Video: v210 [v210 / 0x30313276]
      yuv422p10be, 1280x720
      50 tbn
    Stream #0:1: Audio: pcm_s16le [[1][0][0][0] / 0x0001]
      48000 Hz, 2 channels, s16, 1536 kb/s
Stream mapping:
  Stream #0:0 -> #0:0 (v210 (native) -> rawvideo (native))
Press ctrl-c to stop encoding
Output #0, framecrc, to 'pipe:':
  Metadata:
    encoder         : Lavf58.1.0
    Stream #0:0: Video: rawvideo [[16][10]3Y / 0x59330A10]
      yuv422p16be, 1280x720, q=2-31, 200 kb/s
      50 tbn
    Metadata:
      encoder         : Lavc58.5.0 rawvideo
[v210 @ 0x10008e64040] packet too small
Error while decoding stream #0:0
frame=    1 fps=  0 q=-0.0 Lsize=       0kB time=10000000000.00 bitrate=   0.0kbits/s    
video:3600kB audio:0kB other streams:0kB global headers:0kB muxing overhead: unknown
diffstderrvsynth1-v2101n / a
--- /home/mik/src/fate/src/tests/ref/vsynth/vsynth1-v210	2014-12-05 13:07:16.784416624 +0000
+++ tests/data/fate/vsynth1-v210	2017-12-07 00:31:16.330274565 +0000
@@ -1,4 +1,4 @@
 a38de84bfef53ed69204480c979dd6c4 *tests/data/fate/vsynth1-v210.avi
 14752448 tests/data/fate/vsynth1-v210.avi
-2ba7f4ca302f3c4147860b9dfb12b6e4 *tests/data/fate/vsynth1-v210.out.rawvideo
-stddev:    1.84 PSNR: 42.81 MAXDIFF:   29 bytes:  7603200/  7603200
+6f96fa2d4d07a4b2fd0db4ccc59da963 *tests/data/fate/vsynth1-v210.out.rawvideo
+stddev:   77.60 PSNR: 10.33 MAXDIFF:  255 bytes:  7603200/  7603200
avconv version v13_dev0-1417-g3ff8fbb, Copyright (c) 2000-2017 the Libav developers
  built on Dec  7 2017 00:29:45 with clang version 3.9.0 (tags/RELEASE_390/final)
[rawvideo @ 0x10031c80ec0] Estimating duration from bitrate, this may be inaccurate
Input #0, rawvideo, from '/home/mik/src/fate/ppc64-linux-clang-3.9/build/tests/data/vsynth1.yuv':
  Duration: N/A, start: 0.000000, bitrate: N/A
    Stream #0:0: Video: rawvideo
      yuv420p, 352x288
      25 fps, 25 tbn
Stream mapping:
  Stream #0:0 -> #0:0 (rawvideo (native) -> v210 (native))
Press ctrl-c to stop encoding
Output #0, avi, to '/home/mik/src/fate/ppc64-linux-clang-3.9/build/tests/data/fate/vsynth1-v210.avi':
    Stream #0:0: Video: v210 [v210 / 0x30313276]
      yuv422p, 352x288, q=2-31, 200 kb/s
      25 fps, 25 tbn
    Metadata:
      encoder         : v210
frame=   50 fps=  0 q=-0.0 Lsize=   14407kB time=1.96 bitrate=60214.1kbits/s    
video:14400kB audio:0kB other streams:0kB global headers:0kB muxing overhead: 0.046441%
avconv version v13_dev0-1417-g3ff8fbb, Copyright (c) 2000-2017 the Libav developers
  built on Dec  7 2017 00:29:45 with clang version 3.9.0 (tags/RELEASE_390/final)
Input #0, avi, from '/home/mik/src/fate/ppc64-linux-clang-3.9/build/tests/data/fate/vsynth1-v210.avi':
  Duration: 00:00:02.00, start: 0.000000, bitrate: 59009 kb/s
    Stream #0:0: Video: v210 [v210 / 0x30313276]
      yuv422p10be, 352x288
      25 fps, 25 tbn
Stream mapping:
  Stream #0:0 -> #0:0 (v210 (native) -> rawvideo (native))
Press ctrl-c to stop encoding
Output #0, rawvideo, to '/home/mik/src/fate/ppc64-linux-clang-3.9/build/tests/data/fate/vsynth1-v210.out.rawvideo':
    Stream #0:0: Video: rawvideo [I420 / 0x30323449]
      yuv420p, 352x288, q=2-31, 200 kb/s
      25 tbn
    Metadata:
      encoder         : rawvideo
frame=   50 fps=  0 q=-0.0 Lsize=    7425kB time=1.96 bitrate=31033.5kbits/s    
video:7425kB audio:0kB other streams:0kB global headers:0kB muxing overhead: 0.000000%
diffstderrvsynth1-v210-101n / a
--- /home/mik/src/fate/src/tests/ref/vsynth/vsynth1-v210-10	2016-01-21 14:07:03.697625994 +0000
+++ tests/data/fate/vsynth1-v210-10	2017-12-07 00:31:16.380274660 +0000
@@ -1,4 +1,4 @@
 054d7e903fb4d9e68700c56b93d45916 *tests/data/fate/vsynth1-v210-10.avi
 14752448 tests/data/fate/vsynth1-v210-10.avi
-50973792d3f1abe04a51ee0121f077f2 *tests/data/fate/vsynth1-v210-10.out.rawvideo
-stddev:    1.85 PSNR: 42.78 MAXDIFF:   29 bytes:  7603200/  7603200
+78dba063dfb9c7f8c185f31c5fbf8c99 *tests/data/fate/vsynth1-v210-10.out.rawvideo
+stddev:   77.60 PSNR: 10.33 MAXDIFF:  255 bytes:  7603200/  7603200
avconv version v13_dev0-1417-g3ff8fbb, Copyright (c) 2000-2017 the Libav developers
  built on Dec  7 2017 00:29:45 with clang version 3.9.0 (tags/RELEASE_390/final)
[rawvideo @ 0x1001b030ec0] Estimating duration from bitrate, this may be inaccurate
Input #0, rawvideo, from '/home/mik/src/fate/ppc64-linux-clang-3.9/build/tests/data/vsynth1.yuv':
  Duration: N/A, start: 0.000000, bitrate: N/A
    Stream #0:0: Video: rawvideo
      yuv420p, 352x288
      25 fps, 25 tbn
Stream mapping:
  Stream #0:0 -> #0:0 (rawvideo (native) -> v210 (native))
Press ctrl-c to stop encoding
Output #0, avi, to '/home/mik/src/fate/ppc64-linux-clang-3.9/build/tests/data/fate/vsynth1-v210-10.avi':
    Stream #0:0: Video: v210 [v210 / 0x30313276]
      yuv422p10be, 352x288, q=2-31, 200 kb/s
      25 fps, 25 tbn
    Metadata:
      encoder         : v210
frame=   50 fps=  0 q=-0.0 Lsize=   14407kB time=1.96 bitrate=60214.1kbits/s    
video:14400kB audio:0kB other streams:0kB global headers:0kB muxing overhead: 0.046441%
avconv version v13_dev0-1417-g3ff8fbb, Copyright (c) 2000-2017 the Libav developers
  built on Dec  7 2017 00:29:45 with clang version 3.9.0 (tags/RELEASE_390/final)
Input #0, avi, from '/home/mik/src/fate/ppc64-linux-clang-3.9/build/tests/data/fate/vsynth1-v210-10.avi':
  Duration: 00:00:02.00, start: 0.000000, bitrate: 59009 kb/s
    Stream #0:0: Video: v210 [v210 / 0x30313276]
      yuv422p10be, 352x288
      25 fps, 25 tbn
Stream mapping:
  Stream #0:0 -> #0:0 (v210 (native) -> rawvideo (native))
Press ctrl-c to stop encoding
Output #0, rawvideo, to '/home/mik/src/fate/ppc64-linux-clang-3.9/build/tests/data/fate/vsynth1-v210-10.out.rawvideo':
    Stream #0:0: Video: rawvideo [I420 / 0x30323449]
      yuv420p, 352x288, q=2-31, 200 kb/s
      25 tbn
    Metadata:
      encoder         : rawvideo
frame=   50 fps=  0 q=-0.0 Lsize=    7425kB time=1.96 bitrate=31033.5kbits/s    
video:7425kB audio:0kB other streams:0kB global headers:0kB muxing overhead: 0.000000%
diffstderrvsynth2-v2101n / a
--- /home/mik/src/fate/src/tests/ref/vsynth/vsynth2-v210	2014-12-05 13:07:16.784416624 +0000
+++ tests/data/fate/vsynth2-v210	2017-12-07 00:31:25.830292615 +0000
@@ -1,4 +1,4 @@
 3aae4d5b25a4d91e4812a297c6a9ef8a *tests/data/fate/vsynth2-v210.avi
 14752448 tests/data/fate/vsynth2-v210.avi
-99e367a50da75c2c187230889bee8e2e *tests/data/fate/vsynth2-v210.out.rawvideo
-stddev:    0.40 PSNR: 56.06 MAXDIFF:    9 bytes:  7603200/  7603200
+9c74415db605577adbd88d3c77544e80 *tests/data/fate/vsynth2-v210.out.rawvideo
+stddev:   90.87 PSNR:  8.96 MAXDIFF:  240 bytes:  7603200/  7603200
avconv version v13_dev0-1417-g3ff8fbb, Copyright (c) 2000-2017 the Libav developers
  built on Dec  7 2017 00:29:45 with clang version 3.9.0 (tags/RELEASE_390/final)
[rawvideo @ 0x1003cf70ec0] Estimating duration from bitrate, this may be inaccurate
Input #0, rawvideo, from '/home/mik/src/fate/ppc64-linux-clang-3.9/build/tests/data/vsynth2.yuv':
  Duration: N/A, start: 0.000000, bitrate: N/A
    Stream #0:0: Video: rawvideo
      yuv420p, 352x288
      25 fps, 25 tbn
Stream mapping:
  Stream #0:0 -> #0:0 (rawvideo (native) -> v210 (native))
Press ctrl-c to stop encoding
Output #0, avi, to '/home/mik/src/fate/ppc64-linux-clang-3.9/build/tests/data/fate/vsynth2-v210.avi':
    Stream #0:0: Video: v210 [v210 / 0x30313276]
      yuv422p, 352x288, q=2-31, 200 kb/s
      25 fps, 25 tbn
    Metadata:
      encoder         : v210
frame=   50 fps=  0 q=-0.0 Lsize=   14407kB time=1.96 bitrate=60214.1kbits/s    
video:14400kB audio:0kB other streams:0kB global headers:0kB muxing overhead: 0.046441%
avconv version v13_dev0-1417-g3ff8fbb, Copyright (c) 2000-2017 the Libav developers
  built on Dec  7 2017 00:29:45 with clang version 3.9.0 (tags/RELEASE_390/final)
Input #0, avi, from '/home/mik/src/fate/ppc64-linux-clang-3.9/build/tests/data/fate/vsynth2-v210.avi':
  Duration: 00:00:02.00, start: 0.000000, bitrate: 59009 kb/s
    Stream #0:0: Video: v210 [v210 / 0x30313276]
      yuv422p10be, 352x288
      25 fps, 25 tbn
Stream mapping:
  Stream #0:0 -> #0:0 (v210 (native) -> rawvideo (native))
Press ctrl-c to stop encoding
Output #0, rawvideo, to '/home/mik/src/fate/ppc64-linux-clang-3.9/build/tests/data/fate/vsynth2-v210.out.rawvideo':
    Stream #0:0: Video: rawvideo [I420 / 0x30323449]
      yuv420p, 352x288, q=2-31, 200 kb/s
      25 tbn
    Metadata:
      encoder         : rawvideo
frame=   50 fps=  0 q=-0.0 Lsize=    7425kB time=1.96 bitrate=31033.5kbits/s    
video:7425kB audio:0kB other streams:0kB global headers:0kB muxing overhead: 0.000000%
diffstderrvsynth2-v210-101n / a
--- /home/mik/src/fate/src/tests/ref/vsynth/vsynth2-v210-10	2016-01-21 14:07:03.697625994 +0000
+++ tests/data/fate/vsynth2-v210-10	2017-12-07 00:31:26.200293318 +0000
@@ -1,4 +1,4 @@
 87bb634932b3f5cacd4d08142798db17 *tests/data/fate/vsynth2-v210-10.avi
 14752448 tests/data/fate/vsynth2-v210-10.avi
-8bb1c449e1a2a94fd0d98841c04246bb *tests/data/fate/vsynth2-v210-10.out.rawvideo
-stddev:    0.39 PSNR: 56.17 MAXDIFF:    9 bytes:  7603200/  7603200
+d835dddacfa2d25f08eab4a511a6edbb *tests/data/fate/vsynth2-v210-10.out.rawvideo
+stddev:   90.87 PSNR:  8.96 MAXDIFF:  240 bytes:  7603200/  7603200
avconv version v13_dev0-1417-g3ff8fbb, Copyright (c) 2000-2017 the Libav developers
  built on Dec  7 2017 00:29:45 with clang version 3.9.0 (tags/RELEASE_390/final)
[rawvideo @ 0x10012640ec0] Estimating duration from bitrate, this may be inaccurate
Input #0, rawvideo, from '/home/mik/src/fate/ppc64-linux-clang-3.9/build/tests/data/vsynth2.yuv':
  Duration: N/A, start: 0.000000, bitrate: N/A
    Stream #0:0: Video: rawvideo
      yuv420p, 352x288
      25 fps, 25 tbn
Stream mapping:
  Stream #0:0 -> #0:0 (rawvideo (native) -> v210 (native))
Press ctrl-c to stop encoding
Output #0, avi, to '/home/mik/src/fate/ppc64-linux-clang-3.9/build/tests/data/fate/vsynth2-v210-10.avi':
    Stream #0:0: Video: v210 [v210 / 0x30313276]
      yuv422p10be, 352x288, q=2-31, 200 kb/s
      25 fps, 25 tbn
    Metadata:
      encoder         : v210
frame=   50 fps=  0 q=-0.0 Lsize=   14407kB time=1.96 bitrate=60214.1kbits/s    
video:14400kB audio:0kB other streams:0kB global headers:0kB muxing overhead: 0.046441%
avconv version v13_dev0-1417-g3ff8fbb, Copyright (c) 2000-2017 the Libav developers
  built on Dec  7 2017 00:29:45 with clang version 3.9.0 (tags/RELEASE_390/final)
Input #0, avi, from '/home/mik/src/fate/ppc64-linux-clang-3.9/build/tests/data/fate/vsynth2-v210-10.avi':
  Duration: 00:00:02.00, start: 0.000000, bitrate: 59009 kb/s
    Stream #0:0: Video: v210 [v210 / 0x30313276]
      yuv422p10be, 352x288
      25 fps, 25 tbn
Stream mapping:
  Stream #0:0 -> #0:0 (v210 (native) -> rawvideo (native))
Press ctrl-c to stop encoding
Output #0, rawvideo, to '/home/mik/src/fate/ppc64-linux-clang-3.9/build/tests/data/fate/vsynth2-v210-10.out.rawvideo':
    Stream #0:0: Video: rawvideo [I420 / 0x30323449]
      yuv420p, 352x288, q=2-31, 200 kb/s
      25 tbn
    Metadata:
      encoder         : rawvideo
frame=   50 fps=  0 q=-0.0 Lsize=    7425kB time=1.96 bitrate=31033.5kbits/s    
video:7425kB audio:0kB other streams:0kB global headers:0kB muxing overhead: 0.000000%