ppc-linux-gcc-mt v13_dev0-1400-gb72ac6d

Architectureppc
Variantppc
CPU970
OSlinux
Ownerkostylev
Compilergcc 5.5.0 (GCC)
Configuration--prefix=/home/mik/src/fate/ppc-linux-gcc-mt/install --samples=/home/mik/src/fate/fate-suite --enable-gpl --cpu=970 --cc='gcc-5 -m32' --disable-debug
CommentTHREADS=auto
Revisionv13_dev0-1400-gb72ac6d
Date2017-11-13 13:04:52
Status2061 / 2149
Warnings66
Logscompile configure test
88 failed testsStatusLast good rev
diffstderraac-al04_44SEGVv13_dev0-1330-g76481f5
No diff output recorded
avconv version v13_dev0-1400-gb72ac6d, Copyright (c) 2000-2017 the Libav developers
  built on Nov 13 2017 12:58:33 with gcc 5.5.0 (GCC)
/home/mik/src/fate/src/tests/fate-run.sh: line 71: 29396 Segmentation fault      $target_exec $target_path/"$@"
diffstderraac-al05_44SEGVv13_dev0-1330-g76481f5
No diff output recorded
avconv version v13_dev0-1400-gb72ac6d, Copyright (c) 2000-2017 the Libav developers
  built on Nov 13 2017 12:58:33 with gcc 5.5.0 (GCC)
/home/mik/src/fate/src/tests/fate-run.sh: line 71: 29418 Segmentation fault      $target_exec $target_path/"$@"
diffstderraac-al06_44SEGVv13_dev0-1330-g76481f5
No diff output recorded
avconv version v13_dev0-1400-gb72ac6d, Copyright (c) 2000-2017 the Libav developers
  built on Nov 13 2017 12:58:33 with gcc 5.5.0 (GCC)
/home/mik/src/fate/src/tests/fate-run.sh: line 71: 29441 Segmentation fault      $target_exec $target_path/"$@"
diffstderraac-al07_96SEGVv13_dev0-1330-g76481f5
No diff output recorded
avconv version v13_dev0-1400-gb72ac6d, Copyright (c) 2000-2017 the Libav developers
  built on Nov 13 2017 12:58:33 with gcc 5.5.0 (GCC)
/home/mik/src/fate/src/tests/fate-run.sh: line 71: 29463 Segmentation fault      $target_exec $target_path/"$@"
diffstderraac-al15_44SEGVv13_dev0-1330-g76481f5
No diff output recorded
avconv version v13_dev0-1400-gb72ac6d, Copyright (c) 2000-2017 the Libav developers
  built on Nov 13 2017 12:58:33 with gcc 5.5.0 (GCC)
/home/mik/src/fate/src/tests/fate-run.sh: line 71: 29485 Segmentation fault      $target_exec $target_path/"$@"
diffstderraac-al17_44SEGVv13_dev0-1330-g76481f5
No diff output recorded
avconv version v13_dev0-1400-gb72ac6d, Copyright (c) 2000-2017 the Libav developers
  built on Nov 13 2017 12:58:33 with gcc 5.5.0 (GCC)
/home/mik/src/fate/src/tests/fate-run.sh: line 71: 29507 Segmentation fault      $target_exec $target_path/"$@"
diffstderraac-al18_44SEGVv13_dev0-1330-g76481f5
No diff output recorded
avconv version v13_dev0-1400-gb72ac6d, Copyright (c) 2000-2017 the Libav developers
  built on Nov 13 2017 12:58:33 with gcc 5.5.0 (GCC)
/home/mik/src/fate/src/tests/fate-run.sh: line 71: 29529 Segmentation fault      $target_exec $target_path/"$@"
diffstderraac-al_sbr_hq_cm_48_2SEGVv13_dev0-1330-g76481f5
No diff output recorded
avconv version v13_dev0-1400-gb72ac6d, Copyright (c) 2000-2017 the Libav developers
  built on Nov 13 2017 12:58:33 with gcc 5.5.0 (GCC)
/home/mik/src/fate/src/tests/fate-run.sh: line 71: 29596 Segmentation fault      $target_exec $target_path/"$@"
diffstderraac-al_sbr_hq_cm_48_5.1SEGVv13_dev0-1330-g76481f5
No diff output recorded
avconv version v13_dev0-1400-gb72ac6d, Copyright (c) 2000-2017 the Libav developers
  built on Nov 13 2017 12:58:33 with gcc 5.5.0 (GCC)
/home/mik/src/fate/src/tests/fate-run.sh: line 71: 29618 Segmentation fault      $target_exec $target_path/"$@"
diffstderraac-al_sbr_hq_sr_48_2_fsaac48SEGVv13_dev0-1330-g76481f5
No diff output recorded
avconv version v13_dev0-1400-gb72ac6d, Copyright (c) 2000-2017 the Libav developers
  built on Nov 13 2017 12:58:33 with gcc 5.5.0 (GCC)
/home/mik/src/fate/src/tests/fate-run.sh: line 71: 29640 Segmentation fault      $target_exec $target_path/"$@"
diffstderraac-al_sbr_ps_06_urSEGVv13_dev0-1330-g76481f5
No diff output recorded
avconv version v13_dev0-1400-gb72ac6d, Copyright (c) 2000-2017 the Libav developers
  built on Nov 13 2017 12:58:33 with gcc 5.5.0 (GCC)
/home/mik/src/fate/src/tests/fate-run.sh: line 71: 29662 Segmentation fault      $target_exec $target_path/"$@"
diffstderraac-am00_88SEGVv13_dev0-1330-g76481f5
No diff output recorded
avconv version v13_dev0-1400-gb72ac6d, Copyright (c) 2000-2017 the Libav developers
  built on Nov 13 2017 12:58:33 with gcc 5.5.0 (GCC)
/home/mik/src/fate/src/tests/fate-run.sh: line 71: 29552 Segmentation fault      $target_exec $target_path/"$@"
diffstderraac-am05_44SEGVv13_dev0-1330-g76481f5
No diff output recorded
avconv version v13_dev0-1400-gb72ac6d, Copyright (c) 2000-2017 the Libav developers
  built on Nov 13 2017 12:58:33 with gcc 5.5.0 (GCC)
/home/mik/src/fate/src/tests/fate-run.sh: line 71: 29574 Segmentation fault      $target_exec $target_path/"$@"
diffstderraac-ap05_48SEGVv13_dev0-1330-g76481f5
No diff output recorded
avconv version v13_dev0-1400-gb72ac6d, Copyright (c) 2000-2017 the Libav developers
  built on Nov 13 2017 12:58:33 with gcc 5.5.0 (GCC)
/home/mik/src/fate/src/tests/fate-run.sh: line 71: 29684 Segmentation fault      $target_exec $target_path/"$@"
diffstderraac-ct-sbr_bc-ps_bc.mp4SEGVv13_dev0-1330-g76481f5
No diff output recorded
avconv version v13_dev0-1400-gb72ac6d, Copyright (c) 2000-2017 the Libav developers
  built on Nov 13 2017 12:58:33 with gcc 5.5.0 (GCC)
/home/mik/src/fate/src/tests/fate-run.sh: line 71: 29922 Segmentation fault      $target_exec $target_path/"$@"
diffstderraac-ct-sbr_bc-ps_i.3gpSEGVv13_dev0-1330-g76481f5
No diff output recorded
avconv version v13_dev0-1400-gb72ac6d, Copyright (c) 2000-2017 the Libav developers
  built on Nov 13 2017 12:58:33 with gcc 5.5.0 (GCC)
/home/mik/src/fate/src/tests/fate-run.sh: line 71: 29872 Segmentation fault      $target_exec $target_path/"$@"
diffstderraac-ct-sbr_bc-ps_i.mp4SEGVv13_dev0-1330-g76481f5
No diff output recorded
avconv version v13_dev0-1400-gb72ac6d, Copyright (c) 2000-2017 the Libav developers
  built on Nov 13 2017 12:58:33 with gcc 5.5.0 (GCC)
/home/mik/src/fate/src/tests/fate-run.sh: line 71: 29944 Segmentation fault      $target_exec $target_path/"$@"
diffstderraac-ct-sbr_bic-ps_i.3gpSEGVv13_dev0-1330-g76481f5
No diff output recorded
avconv version v13_dev0-1400-gb72ac6d, Copyright (c) 2000-2017 the Libav developers
  built on Nov 13 2017 12:58:33 with gcc 5.5.0 (GCC)
/home/mik/src/fate/src/tests/fate-run.sh: line 71: 29900 Segmentation fault      $target_exec $target_path/"$@"
diffstderraac-ct-sbr_i-ps_bic.mp4SEGVv13_dev0-1330-g76481f5
No diff output recorded
avconv version v13_dev0-1400-gb72ac6d, Copyright (c) 2000-2017 the Libav developers
  built on Nov 13 2017 12:58:33 with gcc 5.5.0 (GCC)
/home/mik/src/fate/src/tests/fate-run.sh: line 71: 29966 Segmentation fault      $target_exec $target_path/"$@"
diffstderraac-ct-sbr_i-ps_i.aacSEGVv13_dev0-1330-g76481f5
No diff output recorded
avconv version v13_dev0-1400-gb72ac6d, Copyright (c) 2000-2017 the Libav developers
  built on Nov 13 2017 12:58:33 with gcc 5.5.0 (GCC)
/home/mik/src/fate/src/tests/fate-run.sh: line 71: 29373 Segmentation fault      $target_exec $target_path/"$@"
diffstderraac-ct-sbr_i-ps_i.mp4SEGVv13_dev0-1330-g76481f5
No diff output recorded
avconv version v13_dev0-1400-gb72ac6d, Copyright (c) 2000-2017 the Libav developers
  built on Nov 13 2017 12:58:33 with gcc 5.5.0 (GCC)
/home/mik/src/fate/src/tests/fate-run.sh: line 71: 29989 Segmentation fault      $target_exec $target_path/"$@"
diffstderraac-er_ad6000np_44_ep0SEGVv13_dev0-1330-g76481f5
No diff output recorded
avconv version v13_dev0-1400-gb72ac6d, Copyright (c) 2000-2017 the Libav developers
  built on Nov 13 2017 12:58:33 with gcc 5.5.0 (GCC)
/home/mik/src/fate/src/tests/fate-run.sh: line 71: 29707 Segmentation fault      $target_exec $target_path/"$@"
diffstderraac-er_eld1001np_44_ep0SEGVv13_dev0-1330-g76481f5
No diff output recorded
avconv version v13_dev0-1400-gb72ac6d, Copyright (c) 2000-2017 the Libav developers
  built on Nov 13 2017 12:58:33 with gcc 5.5.0 (GCC)
/home/mik/src/fate/src/tests/fate-run.sh: line 71: 29729 Segmentation fault      $target_exec $target_path/"$@"
diffstderraac-er_eld2000np_48_ep0SEGVv13_dev0-1330-g76481f5
No diff output recorded
avconv version v13_dev0-1400-gb72ac6d, Copyright (c) 2000-2017 the Libav developers
  built on Nov 13 2017 12:58:33 with gcc 5.5.0 (GCC)
/home/mik/src/fate/src/tests/fate-run.sh: line 71: 29751 Segmentation fault      $target_exec $target_path/"$@"
diffstderraac-latm_000000001180bc60SEGVv13_dev0-1330-g76481f5
No diff output recorded
avconv version v13_dev0-1400-gb72ac6d, Copyright (c) 2000-2017 the Libav developers
  built on Nov 13 2017 12:58:33 with gcc 5.5.0 (GCC)
[aac_latm @ 0x11382640] audio config changed
/home/mik/src/fate/src/tests/fate-run.sh: line 71: 30011 Segmentation fault      $target_exec $target_path/"$@"
diffstderraac-latm_stereo_to_51SEGVv13_dev0-1330-g76481f5
No diff output recorded
avconv version v13_dev0-1400-gb72ac6d, Copyright (c) 2000-2017 the Libav developers
  built on Nov 13 2017 12:58:33 with gcc 5.5.0 (GCC)
[aac_latm @ 0x118c2680] audio config changed
/home/mik/src/fate/src/tests/fate-run.sh: line 71: 30033 Segmentation fault      $target_exec $target_path/"$@"
diffstderrac3-2.0SEGVv13_dev0-1330-g76481f5
No diff output recorded
avconv version v13_dev0-1400-gb72ac6d, Copyright (c) 2000-2017 the Libav developers
  built on Nov 13 2017 12:58:33 with gcc 5.5.0 (GCC)
[ac3 @ 0x1145e260] Estimating duration from bitrate, this may be inaccurate
Input #0, ac3, from '/home/mik/src/fate/fate-suite/ac3/monsters_inc_2.0_192_small.ac3':
  Duration: 00:00:04.16, start: 0.000000, bitrate: 191 kb/s
    Stream #0:0: Audio: ac3
      48000 Hz, stereo, fltp, 192 kb/s
Codec AVOption threads () specified for input file #0 (/home/mik/src/fate/fate-suite/ac3/monsters_inc_2.0_192_small.ac3) has not been used for any stream. The most likely reason is either wrong type (e.g. a video option with no video streams) or that it is a private option of some decoder which was not actually used for any stream.
Codec AVOption thread_type (select multithreading type) specified for input file #0 (/home/mik/src/fate/fate-suite/ac3/monsters_inc_2.0_192_small.ac3) has not been used for any stream. The most likely reason is either wrong type (e.g. a video option with no video streams) or that it is a private option of some decoder which was not actually used for any stream.
Stream mapping:
  Stream #0:0 -> #0:0 (ac3 (native) -> pcm_s16le (native))
Press ctrl-c to stop encoding
/home/mik/src/fate/src/tests/fate-run.sh: line 71: 30055 Segmentation fault      $target_exec $target_path/"$@"
diffstderrac3-4.0SEGVv13_dev0-1330-g76481f5
No diff output recorded
avconv version v13_dev0-1400-gb72ac6d, Copyright (c) 2000-2017 the Libav developers
  built on Nov 13 2017 12:58:33 with gcc 5.5.0 (GCC)
[ac3 @ 0x1155e260] Estimating duration from bitrate, this may be inaccurate
Input #0, ac3, from '/home/mik/src/fate/fate-suite/ac3/millers_crossing_4.0.ac3':
  Duration: 00:00:01.98, start: 0.000000, bitrate: 384 kb/s
    Stream #0:0: Audio: ac3
      48000 Hz, 4.0, fltp, 384 kb/s
Codec AVOption threads () specified for input file #0 (/home/mik/src/fate/fate-suite/ac3/millers_crossing_4.0.ac3) has not been used for any stream. The most likely reason is either wrong type (e.g. a video option with no video streams) or that it is a private option of some decoder which was not actually used for any stream.
Codec AVOption thread_type (select multithreading type) specified for input file #0 (/home/mik/src/fate/fate-suite/ac3/millers_crossing_4.0.ac3) has not been used for any stream. The most likely reason is either wrong type (e.g. a video option with no video streams) or that it is a private option of some decoder which was not actually used for any stream.
Stream mapping:
  Stream #0:0 -> #0:0 (ac3 (native) -> pcm_s16le (native))
Press ctrl-c to stop encoding
/home/mik/src/fate/src/tests/fate-run.sh: line 71: 30077 Segmentation fault      $target_exec $target_path/"$@"
diffstderrac3-4.0-downmix-monoSEGVv13_dev0-1330-g76481f5
No diff output recorded
avconv version v13_dev0-1400-gb72ac6d, Copyright (c) 2000-2017 the Libav developers
  built on Nov 13 2017 12:58:33 with gcc 5.5.0 (GCC)
[ac3 @ 0x117ee2c0] Estimating duration from bitrate, this may be inaccurate
Input #0, ac3, from '/home/mik/src/fate/fate-suite/ac3/millers_crossing_4.0.ac3':
  Duration: 00:00:01.98, start: 0.000000, bitrate: 384 kb/s
    Stream #0:0: Audio: ac3
      48000 Hz, 4.0, fltp, 384 kb/s
Codec AVOption thread_type (select multithreading type) specified for input file #0 (/home/mik/src/fate/fate-suite/ac3/millers_crossing_4.0.ac3) has not been used for any stream. The most likely reason is either wrong type (e.g. a video option with no video streams) or that it is a private option of some decoder which was not actually used for any stream.
Codec AVOption threads () specified for input file #0 (/home/mik/src/fate/fate-suite/ac3/millers_crossing_4.0.ac3) has not been used for any stream. The most likely reason is either wrong type (e.g. a video option with no video streams) or that it is a private option of some decoder which was not actually used for any stream.
[ac3 @ 0x11827a40] channel layout does not match number of channels
Stream mapping:
  Stream #0:0 -> #0:0 (ac3 (native) -> pcm_s16le (native))
Press ctrl-c to stop encoding
/home/mik/src/fate/src/tests/fate-run.sh: line 71: 30103 Segmentation fault      $target_exec $target_path/"$@"
diffstderrac3-4.0-downmix-stereoSEGVv13_dev0-1330-g76481f5
No diff output recorded
avconv version v13_dev0-1400-gb72ac6d, Copyright (c) 2000-2017 the Libav developers
  built on Nov 13 2017 12:58:33 with gcc 5.5.0 (GCC)
[ac3 @ 0x1125e2c0] Estimating duration from bitrate, this may be inaccurate
Input #0, ac3, from '/home/mik/src/fate/fate-suite/ac3/millers_crossing_4.0.ac3':
  Duration: 00:00:01.98, start: 0.000000, bitrate: 384 kb/s
    Stream #0:0: Audio: ac3
      48000 Hz, 4.0, fltp, 384 kb/s
Codec AVOption thread_type (select multithreading type) specified for input file #0 (/home/mik/src/fate/fate-suite/ac3/millers_crossing_4.0.ac3) has not been used for any stream. The most likely reason is either wrong type (e.g. a video option with no video streams) or that it is a private option of some decoder which was not actually used for any stream.
Codec AVOption threads () specified for input file #0 (/home/mik/src/fate/fate-suite/ac3/millers_crossing_4.0.ac3) has not been used for any stream. The most likely reason is either wrong type (e.g. a video option with no video streams) or that it is a private option of some decoder which was not actually used for any stream.
[ac3 @ 0x11297a40] channel layout does not match number of channels
Stream mapping:
  Stream #0:0 -> #0:0 (ac3 (native) -> pcm_s16le (native))
Press ctrl-c to stop encoding
/home/mik/src/fate/src/tests/fate-run.sh: line 71: 30127 Segmentation fault      $target_exec $target_path/"$@"
diffstderrac3-5.1SEGVv13_dev0-1330-g76481f5
No diff output recorded
avconv version v13_dev0-1400-gb72ac6d, Copyright (c) 2000-2017 the Libav developers
  built on Nov 13 2017 12:58:33 with gcc 5.5.0 (GCC)
[ac3 @ 0x111ae260] Estimating duration from bitrate, this may be inaccurate
Input #0, ac3, from '/home/mik/src/fate/fate-suite/ac3/monsters_inc_5.1_448_small.ac3':
  Duration: 00:00:01.78, start: 0.000000, bitrate: 448 kb/s
    Stream #0:0: Audio: ac3
      48000 Hz, 5.1, fltp, 448 kb/s
Codec AVOption threads () specified for input file #0 (/home/mik/src/fate/fate-suite/ac3/monsters_inc_5.1_448_small.ac3) has not been used for any stream. The most likely reason is either wrong type (e.g. a video option with no video streams) or that it is a private option of some decoder which was not actually used for any stream.
Codec AVOption thread_type (select multithreading type) specified for input file #0 (/home/mik/src/fate/fate-suite/ac3/monsters_inc_5.1_448_small.ac3) has not been used for any stream. The most likely reason is either wrong type (e.g. a video option with no video streams) or that it is a private option of some decoder which was not actually used for any stream.
Stream mapping:
  Stream #0:0 -> #0:0 (ac3 (native) -> pcm_s16le (native))
Press ctrl-c to stop encoding
/home/mik/src/fate/src/tests/fate-run.sh: line 71: 30149 Segmentation fault      $target_exec $target_path/"$@"
diffstderrac3-5.1-downmix-monoSEGVv13_dev0-1330-g76481f5
No diff output recorded
avconv version v13_dev0-1400-gb72ac6d, Copyright (c) 2000-2017 the Libav developers
  built on Nov 13 2017 12:58:33 with gcc 5.5.0 (GCC)
[ac3 @ 0x1175e2c0] Estimating duration from bitrate, this may be inaccurate
Input #0, ac3, from '/home/mik/src/fate/fate-suite/ac3/monsters_inc_5.1_448_small.ac3':
  Duration: 00:00:01.78, start: 0.000000, bitrate: 448 kb/s
    Stream #0:0: Audio: ac3
      48000 Hz, 5.1, fltp, 448 kb/s
Codec AVOption thread_type (select multithreading type) specified for input file #0 (/home/mik/src/fate/fate-suite/ac3/monsters_inc_5.1_448_small.ac3) has not been used for any stream. The most likely reason is either wrong type (e.g. a video option with no video streams) or that it is a private option of some decoder which was not actually used for any stream.
Codec AVOption threads () specified for input file #0 (/home/mik/src/fate/fate-suite/ac3/monsters_inc_5.1_448_small.ac3) has not been used for any stream. The most likely reason is either wrong type (e.g. a video option with no video streams) or that it is a private option of some decoder which was not actually used for any stream.
[ac3 @ 0x1175f680] channel layout does not match number of channels
Stream mapping:
  Stream #0:0 -> #0:0 (ac3 (native) -> pcm_s16le (native))
Press ctrl-c to stop encoding
/home/mik/src/fate/src/tests/fate-run.sh: line 71: 30171 Segmentation fault      $target_exec $target_path/"$@"
diffstderrac3-5.1-downmix-stereoSEGVv13_dev0-1330-g76481f5
No diff output recorded
avconv version v13_dev0-1400-gb72ac6d, Copyright (c) 2000-2017 the Libav developers
  built on Nov 13 2017 12:58:33 with gcc 5.5.0 (GCC)
[ac3 @ 0x115ae2c0] Estimating duration from bitrate, this may be inaccurate
Input #0, ac3, from '/home/mik/src/fate/fate-suite/ac3/monsters_inc_5.1_448_small.ac3':
  Duration: 00:00:01.78, start: 0.000000, bitrate: 448 kb/s
    Stream #0:0: Audio: ac3
      48000 Hz, 5.1, fltp, 448 kb/s
Codec AVOption thread_type (select multithreading type) specified for input file #0 (/home/mik/src/fate/fate-suite/ac3/monsters_inc_5.1_448_small.ac3) has not been used for any stream. The most likely reason is either wrong type (e.g. a video option with no video streams) or that it is a private option of some decoder which was not actually used for any stream.
Codec AVOption threads () specified for input file #0 (/home/mik/src/fate/fate-suite/ac3/monsters_inc_5.1_448_small.ac3) has not been used for any stream. The most likely reason is either wrong type (e.g. a video option with no video streams) or that it is a private option of some decoder which was not actually used for any stream.
[ac3 @ 0x115af680] channel layout does not match number of channels
Stream mapping:
  Stream #0:0 -> #0:0 (ac3 (native) -> pcm_s16le (native))
Press ctrl-c to stop encoding
/home/mik/src/fate/src/tests/fate-run.sh: line 71: 30193 Segmentation fault      $target_exec $target_path/"$@"
diffstderrac3-encodeSEGVv13_dev0-1330-g76481f5
No diff output recorded
avconv version v13_dev0-1400-gb72ac6d, Copyright (c) 2000-2017 the Libav developers
  built on Nov 13 2017 12:58:33 with gcc 5.5.0 (GCC)
Guessed Channel Layout for Input Stream #0.0 : stereo
Input #0, wav, from '/home/mik/src/fate/fate-suite/audio-reference/luckynight_2ch_44kHz_s16.wav':
  Duration: 00:00:09.50, bitrate: 1411 kb/s
    Stream #0:0: Audio: pcm_s16le [[1][0][0][0] / 0x0001]
      44100 Hz, 2 channels, s16, 1411 kb/s
Codec AVOption threads () specified for input file #0 (/home/mik/src/fate/fate-suite/audio-reference/luckynight_2ch_44kHz_s16.wav) has not been used for any stream. The most likely reason is either wrong type (e.g. a video option with no video streams) or that it is a private option of some decoder which was not actually used for any stream.
Codec AVOption thread_type (select multithreading type) specified for input file #0 (/home/mik/src/fate/fate-suite/audio-reference/luckynight_2ch_44kHz_s16.wav) has not been used for any stream. The most likely reason is either wrong type (e.g. a video option with no video streams) or that it is a private option of some decoder which was not actually used for any stream.
Stream mapping:
  Stream #0:0 -> #0:0 (pcm_s16le (native) -> ac3 (native))
Press ctrl-c to stop encoding
Output #0, ac3, to '/home/mik/src/fate/ppc-linux-gcc-mt/build/tests/data/fate/ac3-encode.ac3':
  Metadata:
    encoder         : Lavf58.1.0
    Stream #0:0: Audio: ac3
      44100 Hz, stereo, fltp, 128 kb/s
    Metadata:
      encoder         : Lavc58.5.0 ac3
size=     149kB time=9.47 bitrate= 128.5kbits/s    
video:0kB audio:149kB other streams:0kB global headers:0kB muxing overhead: 0.000000%
avconv version v13_dev0-1400-gb72ac6d, Copyright (c) 2000-2017 the Libav developers
  built on Nov 13 2017 12:58:33 with gcc 5.5.0 (GCC)
[ac3 @ 0x112ae280] Estimating duration from bitrate, this may be inaccurate
Input #0, ac3, from '/home/mik/src/fate/ppc-linux-gcc-mt/build/tests/data/fate/ac3-encode.ac3':
  Duration: 00:00:09.50, start: 0.000000, bitrate: 128 kb/s
    Stream #0:0: Audio: ac3
      44100 Hz, stereo, fltp, 128 kb/s
Codec AVOption threads () specified for input file #0 (/home/mik/src/fate/ppc-linux-gcc-mt/build/tests/data/fate/ac3-encode.ac3) has not been used for any stream. The most likely reason is either wrong type (e.g. a video option with no video streams) or that it is a private option of some decoder which was not actually used for any stream.
Codec AVOption thread_type (select multithreading type) specified for input file #0 (/home/mik/src/fate/ppc-linux-gcc-mt/build/tests/data/fate/ac3-encode.ac3) has not been used for any stream. The most likely reason is either wrong type (e.g. a video option with no video streams) or that it is a private option of some decoder which was not actually used for any stream.
Stream mapping:
  Stream #0:0 -> #0:0 (ac3 (native) -> pcm_s16le (native))
Press ctrl-c to stop encoding
/home/mik/src/fate/src/tests/fate-run.sh: line 71: 30283 Segmentation fault      $target_exec $target_path/"$@"
diffstderradts-demuxSEGVv13_dev0-1330-g76481f5
--- /home/mik/src/fate/src/tests/ref/fate/adts-demux	2014-01-10 11:16:55.644697621 +0000
+++ tests/data/fate/adts-demux	2017-11-13 13:04:14.574150265 +0000
@@ -1 +0,0 @@
-CRC=0xbda37454
avconv version v13_dev0-1400-gb72ac6d, Copyright (c) 2000-2017 the Libav developers
  built on Nov 13 2017 12:58:33 with gcc 5.5.0 (GCC)
/home/mik/src/fate/src/tests/fate-run.sh: line 71: 57711 Segmentation fault      $target_exec $target_path/"$@"
diffstderratrac1SEGVv13_dev0-1330-g76481f5
No diff output recorded
avconv version v13_dev0-1400-gb72ac6d, Copyright (c) 2000-2017 the Libav developers
  built on Nov 13 2017 12:58:33 with gcc 5.5.0 (GCC)
[aea @ 0x1154e260] Estimating duration from bitrate, this may be inaccurate
Input #0, aea, from '/home/mik/src/fate/fate-suite/atrac1/test_tones_small.aea':
  Duration: 00:00:02.73, bitrate: 292 kb/s
    Stream #0:0: Audio: atrac1
      44100 Hz, stereo, fltp, 292 kb/s
Codec AVOption threads () specified for input file #0 (/home/mik/src/fate/fate-suite/atrac1/test_tones_small.aea) has not been used for any stream. The most likely reason is either wrong type (e.g. a video option with no video streams) or that it is a private option of some decoder which was not actually used for any stream.
Codec AVOption thread_type (select multithreading type) specified for input file #0 (/home/mik/src/fate/fate-suite/atrac1/test_tones_small.aea) has not been used for any stream. The most likely reason is either wrong type (e.g. a video option with no video streams) or that it is a private option of some decoder which was not actually used for any stream.
Stream mapping:
  Stream #0:0 -> #0:0 (atrac1 (native) -> pcm_s16le (native))
Press ctrl-c to stop encoding
/home/mik/src/fate/src/tests/fate-run.sh: line 71: 32543 Segmentation fault      $target_exec $target_path/"$@"
diffstderratrac3-1SEGVv13_dev0-1330-g76481f5
No diff output recorded
avconv version v13_dev0-1400-gb72ac6d, Copyright (c) 2000-2017 the Libav developers
  built on Nov 13 2017 12:58:33 with gcc 5.5.0 (GCC)
[wav @ 0x1129e260] Estimating duration from bitrate, this may be inaccurate
Guessed Channel Layout for Input Stream #0.0 : stereo
Input #0, wav, from '/home/mik/src/fate/fate-suite/atrac3/mc_sich_at3_066_small.wav':
  Duration: 00:00:06.04, bitrate: 66 kb/s
    Stream #0:0: Audio: atrac3 [p[2][0][0] / 0x0270]
      44100 Hz, 2 channels, fltp, 66 kb/s
Codec AVOption threads () specified for input file #0 (/home/mik/src/fate/fate-suite/atrac3/mc_sich_at3_066_small.wav) has not been used for any stream. The most likely reason is either wrong type (e.g. a video option with no video streams) or that it is a private option of some decoder which was not actually used for any stream.
Codec AVOption thread_type (select multithreading type) specified for input file #0 (/home/mik/src/fate/fate-suite/atrac3/mc_sich_at3_066_small.wav) has not been used for any stream. The most likely reason is either wrong type (e.g. a video option with no video streams) or that it is a private option of some decoder which was not actually used for any stream.
Stream mapping:
  Stream #0:0 -> #0:0 (atrac3 (native) -> pcm_s16le (native))
Press ctrl-c to stop encoding
/home/mik/src/fate/src/tests/fate-run.sh: line 71: 32565 Segmentation fault      $target_exec $target_path/"$@"
diffstderratrac3-2SEGVv13_dev0-1330-g76481f5
No diff output recorded
avconv version v13_dev0-1400-gb72ac6d, Copyright (c) 2000-2017 the Libav developers
  built on Nov 13 2017 12:58:33 with gcc 5.5.0 (GCC)
[wav @ 0x1175e260] Estimating duration from bitrate, this may be inaccurate
Guessed Channel Layout for Input Stream #0.0 : stereo
Input #0, wav, from '/home/mik/src/fate/fate-suite/atrac3/mc_sich_at3_105_small.wav':
  Duration: 00:00:03.81, bitrate: 104 kb/s
    Stream #0:0: Audio: atrac3 [p[2][0][0] / 0x0270]
      44100 Hz, 2 channels, fltp, 104 kb/s
Codec AVOption threads () specified for input file #0 (/home/mik/src/fate/fate-suite/atrac3/mc_sich_at3_105_small.wav) has not been used for any stream. The most likely reason is either wrong type (e.g. a video option with no video streams) or that it is a private option of some decoder which was not actually used for any stream.
Codec AVOption thread_type (select multithreading type) specified for input file #0 (/home/mik/src/fate/fate-suite/atrac3/mc_sich_at3_105_small.wav) has not been used for any stream. The most likely reason is either wrong type (e.g. a video option with no video streams) or that it is a private option of some decoder which was not actually used for any stream.
Stream mapping:
  Stream #0:0 -> #0:0 (atrac3 (native) -> pcm_s16le (native))
Press ctrl-c to stop encoding
/home/mik/src/fate/src/tests/fate-run.sh: line 71: 32587 Segmentation fault      $target_exec $target_path/"$@"
diffstderratrac3-3SEGVv13_dev0-1330-g76481f5
No diff output recorded
avconv version v13_dev0-1400-gb72ac6d, Copyright (c) 2000-2017 the Libav developers
  built on Nov 13 2017 12:58:33 with gcc 5.5.0 (GCC)
[wav @ 0x113be260] Estimating duration from bitrate, this may be inaccurate
Guessed Channel Layout for Input Stream #0.0 : stereo
Input #0, wav, from '/home/mik/src/fate/fate-suite/atrac3/mc_sich_at3_132_small.wav':
  Duration: 00:00:03.02, bitrate: 132 kb/s
    Stream #0:0: Audio: atrac3 [p[2][0][0] / 0x0270]
      44100 Hz, 2 channels, fltp, 132 kb/s
Codec AVOption threads () specified for input file #0 (/home/mik/src/fate/fate-suite/atrac3/mc_sich_at3_132_small.wav) has not been used for any stream. The most likely reason is either wrong type (e.g. a video option with no video streams) or that it is a private option of some decoder which was not actually used for any stream.
Codec AVOption thread_type (select multithreading type) specified for input file #0 (/home/mik/src/fate/fate-suite/atrac3/mc_sich_at3_132_small.wav) has not been used for any stream. The most likely reason is either wrong type (e.g. a video option with no video streams) or that it is a private option of some decoder which was not actually used for any stream.
Stream mapping:
  Stream #0:0 -> #0:0 (atrac3 (native) -> pcm_s16le (native))
Press ctrl-c to stop encoding
/home/mik/src/fate/src/tests/fate-run.sh: line 71: 32609 Segmentation fault      $target_exec $target_path/"$@"
diffstderrcover-art-m4aSEGVv13_dev0-1330-g76481f5
--- -	2017-11-13 13:01:52.347452388 +0000
+++ tests/data/fate/cover-art-m4a	2017-11-13 13:01:52.323794640 +0000
@@ -1 +0,0 @@
-08ba70a3b594ff6345a93965e96a9d3e
avconv version v13_dev0-1400-gb72ac6d, Copyright (c) 2000-2017 the Libav developers
  built on Nov 13 2017 12:58:33 with gcc 5.5.0 (GCC)
/home/mik/src/fate/src/tests/fate-run.sh: line 71: 34598 Segmentation fault      $target_exec $target_path/"$@"
diffstderrdca-coreSEGVv13_dev0-1330-g76481f5
No diff output recorded
avconv version v13_dev0-1400-gb72ac6d, Copyright (c) 2000-2017 the Libav developers
  built on Nov 13 2017 12:58:33 with gcc 5.5.0 (GCC)
/home/mik/src/fate/src/tests/fate-run.sh: line 71: 56297 Segmentation fault      $target_exec $target_path/"$@"
diffstderrdca-xllSEGVv13_dev0-1330-g76481f5
No diff output recorded
avconv version v13_dev0-1400-gb72ac6d, Copyright (c) 2000-2017 the Libav developers
  built on Nov 13 2017 12:58:33 with gcc 5.5.0 (GCC)
/home/mik/src/fate/src/tests/fate-run.sh: line 71: 56319 Segmentation fault      $target_exec $target_path/"$@"
diffstderreac3-1SEGVv13_dev0-1330-g76481f5
No diff output recorded
avconv version v13_dev0-1400-gb72ac6d, Copyright (c) 2000-2017 the Libav developers
  built on Nov 13 2017 12:58:33 with gcc 5.5.0 (GCC)
[eac3 @ 0x1116e260] Estimating duration from bitrate, this may be inaccurate
Input #0, eac3, from '/home/mik/src/fate/fate-suite/eac3/csi_miami_5.1_256_spx_small.eac3':
  Duration: 00:00:01.50, start: 0.000000, bitrate: 256 kb/s
    Stream #0:0: Audio: eac3
      48000 Hz, 5.1, fltp, 256 kb/s
Codec AVOption threads () specified for input file #0 (/home/mik/src/fate/fate-suite/eac3/csi_miami_5.1_256_spx_small.eac3) has not been used for any stream. The most likely reason is either wrong type (e.g. a video option with no video streams) or that it is a private option of some decoder which was not actually used for any stream.
Codec AVOption thread_type (select multithreading type) specified for input file #0 (/home/mik/src/fate/fate-suite/eac3/csi_miami_5.1_256_spx_small.eac3) has not been used for any stream. The most likely reason is either wrong type (e.g. a video option with no video streams) or that it is a private option of some decoder which was not actually used for any stream.
Stream mapping:
  Stream #0:0 -> #0:0 (eac3 (native) -> pcm_s16le (native))
Press ctrl-c to stop encoding
/home/mik/src/fate/src/tests/fate-run.sh: line 71: 30381 Segmentation fault      $target_exec $target_path/"$@"
diffstderreac3-2SEGVv13_dev0-1330-g76481f5
No diff output recorded
avconv version v13_dev0-1400-gb72ac6d, Copyright (c) 2000-2017 the Libav developers
  built on Nov 13 2017 12:58:33 with gcc 5.5.0 (GCC)
[eac3 @ 0x117de260] Estimating duration from bitrate, this may be inaccurate
Input #0, eac3, from '/home/mik/src/fate/fate-suite/eac3/csi_miami_stereo_128_spx_small.eac3':
  Duration: 00:00:15.61, start: 0.000000, bitrate: 128 kb/s
    Stream #0:0: Audio: eac3
      48000 Hz, stereo, fltp, 128 kb/s
Codec AVOption threads () specified for input file #0 (/home/mik/src/fate/fate-suite/eac3/csi_miami_stereo_128_spx_small.eac3) has not been used for any stream. The most likely reason is either wrong type (e.g. a video option with no video streams) or that it is a private option of some decoder which was not actually used for any stream.
Codec AVOption thread_type (select multithreading type) specified for input file #0 (/home/mik/src/fate/fate-suite/eac3/csi_miami_stereo_128_spx_small.eac3) has not been used for any stream. The most likely reason is either wrong type (e.g. a video option with no video streams) or that it is a private option of some decoder which was not actually used for any stream.
Stream mapping:
  Stream #0:0 -> #0:0 (eac3 (native) -> pcm_s16le (native))
Press ctrl-c to stop encoding
/home/mik/src/fate/src/tests/fate-run.sh: line 71: 30403 Segmentation fault      $target_exec $target_path/"$@"
diffstderreac3-3SEGVv13_dev0-1330-g76481f5
No diff output recorded
avconv version v13_dev0-1400-gb72ac6d, Copyright (c) 2000-2017 the Libav developers
  built on Nov 13 2017 12:58:33 with gcc 5.5.0 (GCC)
[eac3 @ 0x1142e260] Estimating duration from bitrate, this may be inaccurate
Input #0, eac3, from '/home/mik/src/fate/fate-suite/eac3/matrix2_commentary1_stereo_192_small.eac3':
  Duration: 00:00:04.16, start: 0.000000, bitrate: 192 kb/s
    Stream #0:0: Audio: eac3
      48000 Hz, stereo, fltp, 192 kb/s
Codec AVOption threads () specified for input file #0 (/home/mik/src/fate/fate-suite/eac3/matrix2_commentary1_stereo_192_small.eac3) has not been used for any stream. The most likely reason is either wrong type (e.g. a video option with no video streams) or that it is a private option of some decoder which was not actually used for any stream.
Codec AVOption thread_type (select multithreading type) specified for input file #0 (/home/mik/src/fate/fate-suite/eac3/matrix2_commentary1_stereo_192_small.eac3) has not been used for any stream. The most likely reason is either wrong type (e.g. a video option with no video streams) or that it is a private option of some decoder which was not actually used for any stream.
Stream mapping:
  Stream #0:0 -> #0:0 (eac3 (native) -> pcm_s16le (native))
Press ctrl-c to stop encoding
/home/mik/src/fate/src/tests/fate-run.sh: line 71: 30425 Segmentation fault      $target_exec $target_path/"$@"
diffstderreac3-4SEGVv13_dev0-1330-g76481f5
No diff output recorded
avconv version v13_dev0-1400-gb72ac6d, Copyright (c) 2000-2017 the Libav developers
  built on Nov 13 2017 12:58:33 with gcc 5.5.0 (GCC)
[eac3 @ 0x1166e260] Estimating duration from bitrate, this may be inaccurate
Input #0, eac3, from '/home/mik/src/fate/fate-suite/eac3/serenity_english_5.1_1536_small.eac3':
  Duration: 00:00:00.51, start: 0.000000, bitrate: 1536 kb/s
    Stream #0:0: Audio: eac3
      48000 Hz, 5.1, fltp, 1536 kb/s
Codec AVOption threads () specified for input file #0 (/home/mik/src/fate/fate-suite/eac3/serenity_english_5.1_1536_small.eac3) has not been used for any stream. The most likely reason is either wrong type (e.g. a video option with no video streams) or that it is a private option of some decoder which was not actually used for any stream.
Codec AVOption thread_type (select multithreading type) specified for input file #0 (/home/mik/src/fate/fate-suite/eac3/serenity_english_5.1_1536_small.eac3) has not been used for any stream. The most likely reason is either wrong type (e.g. a video option with no video streams) or that it is a private option of some decoder which was not actually used for any stream.
Stream mapping:
  Stream #0:0 -> #0:0 (eac3 (native) -> pcm_s16le (native))
Press ctrl-c to stop encoding
/home/mik/src/fate/src/tests/fate-run.sh: line 71: 30447 Segmentation fault      $target_exec $target_path/"$@"
diffstderreac3-encodeSEGVv13_dev0-1330-g76481f5
No diff output recorded
avconv version v13_dev0-1400-gb72ac6d, Copyright (c) 2000-2017 the Libav developers
  built on Nov 13 2017 12:58:33 with gcc 5.5.0 (GCC)
Guessed Channel Layout for Input Stream #0.0 : stereo
Input #0, wav, from '/home/mik/src/fate/fate-suite/audio-reference/luckynight_2ch_44kHz_s16.wav':
  Duration: 00:00:09.50, bitrate: 1411 kb/s
    Stream #0:0: Audio: pcm_s16le [[1][0][0][0] / 0x0001]
      44100 Hz, 2 channels, s16, 1411 kb/s
Codec AVOption threads () specified for input file #0 (/home/mik/src/fate/fate-suite/audio-reference/luckynight_2ch_44kHz_s16.wav) has not been used for any stream. The most likely reason is either wrong type (e.g. a video option with no video streams) or that it is a private option of some decoder which was not actually used for any stream.
Codec AVOption thread_type (select multithreading type) specified for input file #0 (/home/mik/src/fate/fate-suite/audio-reference/luckynight_2ch_44kHz_s16.wav) has not been used for any stream. The most likely reason is either wrong type (e.g. a video option with no video streams) or that it is a private option of some decoder which was not actually used for any stream.
Stream mapping:
  Stream #0:0 -> #0:0 (pcm_s16le (native) -> eac3 (native))
Press ctrl-c to stop encoding
Output #0, eac3, to '/home/mik/src/fate/ppc-linux-gcc-mt/build/tests/data/fate/eac3-encode.eac3':
  Metadata:
    encoder         : Lavf58.1.0
    Stream #0:0: Audio: eac3
      44100 Hz, stereo, fltp, 128 kb/s
    Metadata:
      encoder         : Lavc58.5.0 eac3
size=     149kB time=9.47 bitrate= 128.5kbits/s    
video:0kB audio:149kB other streams:0kB global headers:0kB muxing overhead: 0.000000%
avconv version v13_dev0-1400-gb72ac6d, Copyright (c) 2000-2017 the Libav developers
  built on Nov 13 2017 12:58:33 with gcc 5.5.0 (GCC)
[eac3 @ 0x111ee280] Estimating duration from bitrate, this may be inaccurate
Input #0, eac3, from '/home/mik/src/fate/ppc-linux-gcc-mt/build/tests/data/fate/eac3-encode.eac3':
  Duration: 00:00:09.49, start: 0.000000, bitrate: 128 kb/s
    Stream #0:0: Audio: eac3
      44100 Hz, stereo, fltp, 128 kb/s
Codec AVOption threads () specified for input file #0 (/home/mik/src/fate/ppc-linux-gcc-mt/build/tests/data/fate/eac3-encode.eac3) has not been used for any stream. The most likely reason is either wrong type (e.g. a video option with no video streams) or that it is a private option of some decoder which was not actually used for any stream.
Codec AVOption thread_type (select multithreading type) specified for input file #0 (/home/mik/src/fate/ppc-linux-gcc-mt/build/tests/data/fate/eac3-encode.eac3) has not been used for any stream. The most likely reason is either wrong type (e.g. a video option with no video streams) or that it is a private option of some decoder which was not actually used for any stream.
Stream mapping:
  Stream #0:0 -> #0:0 (eac3 (native) -> pcm_s16le (native))
Press ctrl-c to stop encoding
/home/mik/src/fate/src/tests/fate-run.sh: line 71: 30538 Segmentation fault      $target_exec $target_path/"$@"
diffstderrfilter-asynctsSEGVv13_dev0-1330-g76481f5
No diff output recorded
avconv version v13_dev0-1400-gb72ac6d, Copyright (c) 2000-2017 the Libav developers
  built on Nov 13 2017 12:58:33 with gcc 5.5.0 (GCC)
[flv @ 0x1159e300] max_analyze_duration 10000000 reached
Input #0, flv, from '/home/mik/src/fate/fate-suite/nellymoser/nellymoser-discont.flv':
  Metadata:
    encoder         : Lavf54.6.0
  Duration: 00:00:21.25, start: 0.042000, bitrate: N/A
    Stream #0:0: Video: h264 (Main)
      yuv420p, tv, smpte170m/smpte170m/bt709
      640x340
      1k fps, 1k tbn
    Stream #0:1: Audio: nellymoser
      44100 Hz, mono, flt
Stream mapping:
  Stream #0:1 -> #0:0 (nellymoser (native) -> pcm_s16le (native))
Press ctrl-c to stop encoding
/home/mik/src/fate/src/tests/fate-run.sh: line 71: 36287 Segmentation fault      $target_exec $target_path/"$@"
diffstderrh264-twofields-packetSEGVv13_dev0-1330-g76481f5
--- /home/mik/src/fate/src/tests/ref/fate/h264-twofields-packet	2016-07-15 14:07:04.467489047 +0000
+++ tests/data/fate/h264-twofields-packet	2017-11-13 13:02:28.013883865 +0000
@@ -1,31 +0,0 @@
-#tb 0: 1/90000
-0,          0,          0,        0,  3110400, 0x48e39acd
-0,       3003,       3003,        0,  3110400, 0x40d65f69
-0,       6006,       6006,        0,  3110400, 0xdcbc50bf
-0,       9009,       9009,        0,  3110400, 0x73a2276a
-0,      12012,      12012,        0,  3110400, 0x84a2b3c6
-0,      15015,      15015,        0,  3110400, 0x7cf3b570
-0,      18018,      18018,        0,  3110400, 0xa2d1e03a
-0,      21021,      21021,        0,  3110400, 0x03220fb1
-0,      24024,      24024,        0,  3110400, 0x89cd526a
-0,      27027,      27027,        0,  3110400, 0xbb4b7531
-0,      30030,      30030,        0,  3110400, 0x0a69f053
-0,      33033,      33033,        0,  3110400, 0x0187994b
-0,      36036,      36036,        0,  3110400, 0x26ed49fa
-0,      39039,      39039,        0,  3110400, 0xbe8966d4
-0,      42042,      42042,        0,  3110400, 0x248d203c
-0,      45045,      45045,        0,  3110400, 0x3139c754
-0,      48048,      48048,        0,  3110400, 0xf22380c4
-0,      51051,      51051,        0,  3110400, 0x3e00dcc1
-0,      54054,      54054,        0,  3110400, 0x8cbe2483
-0,      57057,      57057,        0,  3110400, 0x6951cd63
-0,      60060,      60060,        0,  3110400, 0x36aca4c5
-0,      63063,      63063,        0,  3110400, 0x4d4f6fbe
-0,      66066,      66066,        0,  3110400, 0x997247aa
-0,      69069,      69069,        0,  3110400, 0x0fd40e06
-0,      72072,      72072,        0,  3110400, 0xa10d2d67
-0,      75075,      75075,        0,  3110400, 0x87c481da
-0,      78078,      78078,        0,  3110400, 0xe3dca3cd
-0,      81081,      81081,        0,  3110400, 0x5f77b078
-0,      84084,      84084,        0,  3110400, 0xf1ddd098
-0,      87087,      87087,        0,  3110400, 0xedcd1754
avconv version v13_dev0-1400-gb72ac6d, Copyright (c) 2000-2017 the Libav developers
  built on Nov 13 2017 12:58:33 with gcc 5.5.0 (GCC)
/home/mik/src/fate/src/tests/fate-run.sh: line 71: 57133 Segmentation fault      $target_exec $target_path/"$@"
diffstderrh264-unescaped-extradataSEGVv13_dev0-1330-g76481f5
--- /home/mik/src/fate/src/tests/ref/fate/h264-unescaped-extradata	2016-04-15 08:37:05.951450790 +0000
+++ tests/data/fate/h264-unescaped-extradata	2017-11-13 13:02:27.973883765 +0000
@@ -1,11 +0,0 @@
-#tb 0: 1/44100
-0,          0,          0,        0,    84480, 0x0699eb38
-0,       1764,       1764,        0,    84480, 0xce902c32
-0,       3528,       3528,        0,    84480, 0xb6d125f7
-0,       5292,       5292,        0,    84480, 0x2555e93b
-0,       7056,       7056,        0,    84480, 0xaea5c08c
-0,       8820,       8820,        0,    84480, 0x848eb3da
-0,      10584,      10584,        0,    84480, 0x6cfabe90
-0,      12348,      12348,        0,    84480, 0xed16cc5e
-0,      14112,      14112,        0,    84480, 0xda8df8f8
-0,      15876,      15876,        0,    84480, 0x83fa054b
avconv version v13_dev0-1400-gb72ac6d, Copyright (c) 2000-2017 the Libav developers
  built on Nov 13 2017 12:58:33 with gcc 5.5.0 (GCC)
[h264 @ 0x1128f220] time_scale/num_units_in_tick invalid or unsupported (0/0)
/home/mik/src/fate/src/tests/fate-run.sh: line 71: 57118 Segmentation fault      $target_exec $target_path/"$@"
diffstderrimdct-10SEGVv13_dev0-1330-g76481f5
No diff output recorded
Scale factor is set to 1.000000
IMDCT 1024 test
Checking...
/home/mik/src/fate/src/tests/fate-run.sh: line 71:  7996 Segmentation fault      $target_exec $target_path/"$@"
diffstderrimdct-11SEGVv13_dev0-1330-g76481f5
No diff output recorded
Scale factor is set to 1.000000
IMDCT 2048 test
Checking...
/home/mik/src/fate/src/tests/fate-run.sh: line 71:  8024 Segmentation fault      $target_exec $target_path/"$@"
diffstderrimdct-12SEGVv13_dev0-1330-g76481f5
No diff output recorded
Scale factor is set to 1.000000
IMDCT 4096 test
Checking...
/home/mik/src/fate/src/tests/fate-run.sh: line 71:  8083 Segmentation fault      $target_exec $target_path/"$@"
diffstderrimdct-5SEGVv13_dev0-1330-g76481f5
No diff output recorded
Scale factor is set to 1.000000
IMDCT 32 test
Checking...
/home/mik/src/fate/src/tests/fate-run.sh: line 71:  7869 Segmentation fault      $target_exec $target_path/"$@"
diffstderrimdct-6SEGVv13_dev0-1330-g76481f5
No diff output recorded
Scale factor is set to 1.000000
IMDCT 64 test
Checking...
/home/mik/src/fate/src/tests/fate-run.sh: line 71:  7894 Segmentation fault      $target_exec $target_path/"$@"
diffstderrimdct-7SEGVv13_dev0-1330-g76481f5
No diff output recorded
Scale factor is set to 1.000000
IMDCT 128 test
Checking...
/home/mik/src/fate/src/tests/fate-run.sh: line 71:  7920 Segmentation fault      $target_exec $target_path/"$@"
diffstderrimdct-8SEGVv13_dev0-1330-g76481f5
No diff output recorded
Scale factor is set to 1.000000
IMDCT 256 test
Checking...
/home/mik/src/fate/src/tests/fate-run.sh: line 71:  7945 Segmentation fault      $target_exec $target_path/"$@"
diffstderrimdct-9SEGVv13_dev0-1330-g76481f5
No diff output recorded
Scale factor is set to 1.000000
IMDCT 512 test
Checking...
/home/mik/src/fate/src/tests/fate-run.sh: line 71:  7970 Segmentation fault      $target_exec $target_path/"$@"
diffstderrnellymoserSEGVv13_dev0-1330-g76481f5
No diff output recorded
avconv version v13_dev0-1400-gb72ac6d, Copyright (c) 2000-2017 the Libav developers
  built on Nov 13 2017 12:58:33 with gcc 5.5.0 (GCC)
[flv @ 0x1166e260] max_analyze_duration 5000000 reached
Input #0, flv, from '/home/mik/src/fate/fate-suite/nellymoser/nellymoser.flv':
  Duration: 00:00:10.98, start: 0.015000, bitrate: N/A
    Stream #0:0: Audio: nellymoser
      22050 Hz, mono, flt
Codec AVOption threads () specified for input file #0 (/home/mik/src/fate/fate-suite/nellymoser/nellymoser.flv) has not been used for any stream. The most likely reason is either wrong type (e.g. a video option with no video streams) or that it is a private option of some decoder which was not actually used for any stream.
Codec AVOption thread_type (select multithreading type) specified for input file #0 (/home/mik/src/fate/fate-suite/nellymoser/nellymoser.flv) has not been used for any stream. The most likely reason is either wrong type (e.g. a video option with no video streams) or that it is a private option of some decoder which was not actually used for any stream.
Stream mapping:
  Stream #0:0 -> #0:0 (nellymoser (native) -> pcm_s16le (native))
Press ctrl-c to stop encoding
/home/mik/src/fate/src/tests/fate-run.sh: line 71: 56733 Segmentation fault      $target_exec $target_path/"$@"
diffstderron2avcSEGVv13_dev0-1330-g76481f5
--- /home/mik/src/fate/src/tests/ref/fate/on2avc	2014-06-11 00:07:03.092657025 +0000
+++ tests/data/fate/on2avc	2017-11-13 13:04:13.604147840 +0000
@@ -1,31 +0,0 @@
-#tb 0: 1/16000
-0,          0,          0,     1024,     2048, 0x00000000
-0,       1024,       1024,     1024,     2048, 0x96ee1301
-0,       2048,       2048,     1024,     2048, 0xe2a81605
-0,       3072,       3072,     1024,     2048, 0x3a0e15f9
-0,       4096,       4096,     1024,     2048, 0xcb4515d6
-0,       5120,       5120,     1024,     2048, 0x75021609
-0,       6144,       6144,     1024,     2048, 0xefa91606
-0,       7168,       7168,     1024,     2048, 0x6e8315d0
-0,       8192,       8192,     1024,     2048, 0xd03815fe
-0,       9216,       9216,     1024,     2048, 0xb38115cd
-0,      10240,      10240,     1024,     2048, 0x4ece15ec
-0,      11264,      11264,     1024,     2048, 0x33741600
-0,      12288,      12288,     1024,     2048, 0x97e915d7
-0,      13312,      13312,     1024,     2048, 0xc23815fc
-0,      14336,      14336,     1024,     2048, 0x069a15ef
-0,      15360,      15360,     1024,     2048, 0x0b3a15e7
-0,      16384,      16384,     1024,     2048, 0x9d2c1616
-0,      17408,      17408,     1024,     2048, 0x810d15d9
-0,      18432,      18432,     1024,     2048, 0x79a215ed
-0,      19456,      19456,     1024,     2048, 0x58be15e3
-0,      20480,      20480,     1024,     2048, 0x577415ed
-0,      21504,      21504,     1024,     2048, 0x208015ee
-0,      22528,      22528,     1024,     2048, 0x2f6815da
-0,      23552,      23552,     1024,     2048, 0x42e41609
-0,      24576,      24576,     1024,     2048, 0x85a915d2
-0,      25600,      25600,     1024,     2048, 0x8b8215f0
-0,      26624,      26624,     1024,     2048, 0x92c21602
-0,      27648,      27648,     1024,     2048, 0xb28115db
-0,      28672,      28672,     1024,     2048, 0x5e7615f6
-0,      29696,      29696,     1024,     2048, 0x6b1c15f6
avconv version v13_dev0-1400-gb72ac6d, Copyright (c) 2000-2017 the Libav developers
  built on Nov 13 2017 12:58:33 with gcc 5.5.0 (GCC)
Input #0, avi, from '/home/mik/src/fate/fate-suite/vp7/potter-40.vp7':
  Duration: 00:01:26.92, start: 0.000000, bitrate: 60 kb/s
    Stream #0:0: Video: vp7 [VP70 / 0x30375056]
      yuv420p, 320x176
      11.99 fps, 11.99 tbn
    Stream #0:1: Audio: avc [[0][5][0][0] / 0x0500]
      16000 Hz, mono, fltp, 16 kb/s
Stream mapping:
  Stream #0:1 -> #0:0 (avc (on2avc) -> pcm_s16le (native))
Press ctrl-c to stop encoding
/home/mik/src/fate/src/tests/fate-run.sh: line 71: 56755 Segmentation fault      $target_exec $target_path/"$@"
diffstderrprobe-format-roundup1414SEGVv13_dev0-1330-g76481f5
--- -	2017-11-13 13:01:46.129758632 +0000
+++ tests/data/fate/probe-format-roundup1414	2017-11-13 13:01:46.113779115 +0000
@@ -1 +0,0 @@
-mpeg
/home/mik/src/fate/src/tests/fate-run.sh: line 71: 29342 Segmentation fault      $target_exec $target_path/"$@"
diffstderrra-cookSEGVv13_dev0-1330-g76481f5
No diff output recorded
avconv version v13_dev0-1400-gb72ac6d, Copyright (c) 2000-2017 the Libav developers
  built on Nov 13 2017 12:58:33 with gcc 5.5.0 (GCC)
[rm @ 0x1166e260] Unsupported stream type 00000235
[rm @ 0x1166e260] max_analyze_duration 5000000 reached
Input #0, rm, from '/home/mik/src/fate/fate-suite/real/ra_cook.rm':
  Metadata:
    title           : Fun
    author          : 
    copyright       : ©2001
    comment         : 
  Duration: 00:00:16.71, start: 0.000000, bitrate: 23 kb/s
    Stream #0:0: Audio: cook [cook / 0x6B6F6F63]
      44100 Hz, stereo, fltp, 64 kb/s
    Stream #0:1: Data: [0][0][0][0] / 0x0000
Stream mapping:
  Stream #0:0 -> #0:0 (cook (native) -> pcm_s16le (native))
Press ctrl-c to stop encoding
/home/mik/src/fate/src/tests/fate-run.sh: line 71: 46786 Segmentation fault      $target_exec $target_path/"$@"
diffstderrtwinvqSEGVv13_dev0-1330-g76481f5
No diff output recorded
avconv version v13_dev0-1400-gb72ac6d, Copyright (c) 2000-2017 the Libav developers
  built on Nov 13 2017 12:58:33 with gcc 5.5.0 (GCC)
[vqf @ 0x117ce260] Estimating duration from bitrate, this may be inaccurate
Input #0, vqf, from '/home/mik/src/fate/fate-suite/vqf/achterba.vqf':
  Metadata:
    title           : Achterbahn
    comment         : http://bluemchen.koti.com.pl
    copyright       : Edel Records GmbH
    filename        : achterba.vqf
    author          : Blümchen
    size            : 300209
  Duration: 00:02:00.14, start: 0.000000, bitrate: 20 kb/s
    Stream #0:0: Audio: twinvq
      22050 Hz, mono, fltp, 20 kb/s
Codec AVOption threads () specified for input file #0 (/home/mik/src/fate/fate-suite/vqf/achterba.vqf) has not been used for any stream. The most likely reason is either wrong type (e.g. a video option with no video streams) or that it is a private option of some decoder which was not actually used for any stream.
Codec AVOption thread_type (select multithreading type) specified for input file #0 (/home/mik/src/fate/fate-suite/vqf/achterba.vqf) has not been used for any stream. The most likely reason is either wrong type (e.g. a video option with no video streams) or that it is a private option of some decoder which was not actually used for any stream.
Stream mapping:
  Stream #0:0 -> #0:0 (twinvq (native) -> pcm_s16le (native))
Press ctrl-c to stop encoding
/home/mik/src/fate/src/tests/fate-run.sh: line 71: 38940 Segmentation fault      $target_exec $target_path/"$@"
diffstderrvorbis-1SEGVv13_dev0-1330-g76481f5
No diff output recorded
avconv version v13_dev0-1400-gb72ac6d, Copyright (c) 2000-2017 the Libav developers
  built on Nov 13 2017 12:58:33 with gcc 5.5.0 (GCC)
Input #0, ogg, from '/home/mik/src/fate/fate-suite/vorbis/1.0.1-test_small.ogg':
  Duration: 00:00:07.39, start: 0.000000, bitrate: 108 kb/s
    Stream #0:0: Audio: vorbis
      44100 Hz, stereo, fltp, 112 kb/s
    Metadata:
      TITLE           : Mad World
      ARTIST          : Gary Jules
      ALBUM           : Donnie Darko
      track           : 17
Codec AVOption threads () specified for input file #0 (/home/mik/src/fate/fate-suite/vorbis/1.0.1-test_small.ogg) has not been used for any stream. The most likely reason is either wrong type (e.g. a video option with no video streams) or that it is a private option of some decoder which was not actually used for any stream.
Codec AVOption thread_type (select multithreading type) specified for input file #0 (/home/mik/src/fate/fate-suite/vorbis/1.0.1-test_small.ogg) has not been used for any stream. The most likely reason is either wrong type (e.g. a video option with no video streams) or that it is a private option of some decoder which was not actually used for any stream.
Stream mapping:
  Stream #0:0 -> #0:0 (vorbis (native) -> pcm_s16le (native))
Press ctrl-c to stop encoding
/home/mik/src/fate/src/tests/fate-run.sh: line 71: 17226 Segmentation fault      $target_exec $target_path/"$@"
diffstderrvorbis-10SEGVv13_dev0-1330-g76481f5
No diff output recorded
avconv version v13_dev0-1400-gb72ac6d, Copyright (c) 2000-2017 the Libav developers
  built on Nov 13 2017 12:58:33 with gcc 5.5.0 (GCC)
Input #0, ogg, from '/home/mik/src/fate/fate-suite/vorbis/lsp-test4_small.ogg':
  Duration: 00:00:04.55, start: 0.000000, bitrate: 175 kb/s
    Stream #0:0: Audio: vorbis
      44100 Hz, stereo, fltp, 160 kb/s
Codec AVOption threads () specified for input file #0 (/home/mik/src/fate/fate-suite/vorbis/lsp-test4_small.ogg) has not been used for any stream. The most likely reason is either wrong type (e.g. a video option with no video streams) or that it is a private option of some decoder which was not actually used for any stream.
Codec AVOption thread_type (select multithreading type) specified for input file #0 (/home/mik/src/fate/fate-suite/vorbis/lsp-test4_small.ogg) has not been used for any stream. The most likely reason is either wrong type (e.g. a video option with no video streams) or that it is a private option of some decoder which was not actually used for any stream.
Stream mapping:
  Stream #0:0 -> #0:0 (vorbis (native) -> pcm_s16le (native))
Press ctrl-c to stop encoding
/home/mik/src/fate/src/tests/fate-run.sh: line 71: 17427 Segmentation fault      $target_exec $target_path/"$@"
diffstderrvorbis-11SEGVv13_dev0-1330-g76481f5
No diff output recorded
avconv version v13_dev0-1400-gb72ac6d, Copyright (c) 2000-2017 the Libav developers
  built on Nov 13 2017 12:58:33 with gcc 5.5.0 (GCC)
Input #0, ogg, from '/home/mik/src/fate/fate-suite/vorbis/lsp-test_small.ogg':
  Duration: 00:00:06.81, start: 0.000000, bitrate: 117 kb/s
    Stream #0:0: Audio: vorbis
      44100 Hz, stereo, fltp, 96 kb/s
    Metadata:
      COMMENT         : Vorbis beta 4, mode AA (even and odd LSP, floor 0)
Codec AVOption threads () specified for input file #0 (/home/mik/src/fate/fate-suite/vorbis/lsp-test_small.ogg) has not been used for any stream. The most likely reason is either wrong type (e.g. a video option with no video streams) or that it is a private option of some decoder which was not actually used for any stream.
Codec AVOption thread_type (select multithreading type) specified for input file #0 (/home/mik/src/fate/fate-suite/vorbis/lsp-test_small.ogg) has not been used for any stream. The most likely reason is either wrong type (e.g. a video option with no video streams) or that it is a private option of some decoder which was not actually used for any stream.
Stream mapping:
  Stream #0:0 -> #0:0 (vorbis (native) -> pcm_s16le (native))
Press ctrl-c to stop encoding
/home/mik/src/fate/src/tests/fate-run.sh: line 71: 17449 Segmentation fault      $target_exec $target_path/"$@"
diffstderrvorbis-12SEGVv13_dev0-1330-g76481f5
No diff output recorded
avconv version v13_dev0-1400-gb72ac6d, Copyright (c) 2000-2017 the Libav developers
  built on Nov 13 2017 12:58:33 with gcc 5.5.0 (GCC)
Input #0, ogg, from '/home/mik/src/fate/fate-suite/vorbis/mono_small.ogg':
  Duration: 00:00:08.49, start: 0.000000, bitrate: 94 kb/s
    Stream #0:0: Audio: vorbis
      44100 Hz, mono, fltp, 79 kb/s
    Metadata:
      TITLE           : Marilyn's Martini Boyfriend
      ARTIST          : Pajama Crisis
      ALBUM           : Beautiful Science
      track           : 08
      DATE            : 2002
      DESCRIPTION     : Pizzicato Five + The National Archives + Pajama Crisis - 1 stereo track = MMB.
      GENRE           : Unclassifiable
      COPYRIGHT       : 2002, Pajama Crisis
Codec AVOption threads () specified for input file #0 (/home/mik/src/fate/fate-suite/vorbis/mono_small.ogg) has not been used for any stream. The most likely reason is either wrong type (e.g. a video option with no video streams) or that it is a private option of some decoder which was not actually used for any stream.
Codec AVOption thread_type (select multithreading type) specified for input file #0 (/home/mik/src/fate/fate-suite/vorbis/mono_small.ogg) has not been used for any stream. The most likely reason is either wrong type (e.g. a video option with no video streams) or that it is a private option of some decoder which was not actually used for any stream.
Stream mapping:
  Stream #0:0 -> #0:0 (vorbis (native) -> pcm_s16le (native))
Press ctrl-c to stop encoding
/home/mik/src/fate/src/tests/fate-run.sh: line 71: 17471 Segmentation fault      $target_exec $target_path/"$@"
diffstderrvorbis-13SEGVv13_dev0-1330-g76481f5
No diff output recorded
avconv version v13_dev0-1400-gb72ac6d, Copyright (c) 2000-2017 the Libav developers
  built on Nov 13 2017 12:58:33 with gcc 5.5.0 (GCC)
Input #0, ogg, from '/home/mik/src/fate/fate-suite/vorbis/moog_small.ogg':
  Duration: 00:00:06.71, start: 0.000000, bitrate: 119 kb/s
    Stream #0:0: Audio: vorbis
      44100 Hz, stereo, fltp, 128 kb/s
    Metadata:
      TITLE           : Ziggy Stardust
      ARTIST          : The Moog Cookbook
      ALBUM           : The Moog Cookbook Plays The Classic Rock Hits
      track           : 4
Codec AVOption threads () specified for input file #0 (/home/mik/src/fate/fate-suite/vorbis/moog_small.ogg) has not been used for any stream. The most likely reason is either wrong type (e.g. a video option with no video streams) or that it is a private option of some decoder which was not actually used for any stream.
Codec AVOption thread_type (select multithreading type) specified for input file #0 (/home/mik/src/fate/fate-suite/vorbis/moog_small.ogg) has not been used for any stream. The most likely reason is either wrong type (e.g. a video option with no video streams) or that it is a private option of some decoder which was not actually used for any stream.
Stream mapping:
  Stream #0:0 -> #0:0 (vorbis (native) -> pcm_s16le (native))
Press ctrl-c to stop encoding
/home/mik/src/fate/src/tests/fate-run.sh: line 71: 17493 Segmentation fault      $target_exec $target_path/"$@"
diffstderrvorbis-14SEGVv13_dev0-1330-g76481f5
No diff output recorded
avconv version v13_dev0-1400-gb72ac6d, Copyright (c) 2000-2017 the Libav developers
  built on Nov 13 2017 12:58:33 with gcc 5.5.0 (GCC)
Input #0, ogg, from '/home/mik/src/fate/fate-suite/vorbis/rc1-test_small.ogg':
  Duration: 00:00:08.86, start: 0.000000, bitrate: 90 kb/s
    Stream #0:0: Audio: vorbis
      44100 Hz, stereo, fltp, 128 kb/s
Codec AVOption threads () specified for input file #0 (/home/mik/src/fate/fate-suite/vorbis/rc1-test_small.ogg) has not been used for any stream. The most likely reason is either wrong type (e.g. a video option with no video streams) or that it is a private option of some decoder which was not actually used for any stream.
Codec AVOption thread_type (select multithreading type) specified for input file #0 (/home/mik/src/fate/fate-suite/vorbis/rc1-test_small.ogg) has not been used for any stream. The most likely reason is either wrong type (e.g. a video option with no video streams) or that it is a private option of some decoder which was not actually used for any stream.
Stream mapping:
  Stream #0:0 -> #0:0 (vorbis (native) -> pcm_s16le (native))
Press ctrl-c to stop encoding
/home/mik/src/fate/src/tests/fate-run.sh: line 71: 17515 Segmentation fault      $target_exec $target_path/"$@"
diffstderrvorbis-15SEGVv13_dev0-1330-g76481f5
No diff output recorded
avconv version v13_dev0-1400-gb72ac6d, Copyright (c) 2000-2017 the Libav developers
  built on Nov 13 2017 12:58:33 with gcc 5.5.0 (GCC)
Input #0, ogg, from '/home/mik/src/fate/fate-suite/vorbis/rc2-test2_small.ogg':
  Duration: 00:00:12.10, start: 0.000000, bitrate: 66 kb/s
    Stream #0:0: Audio: vorbis
      44100 Hz, stereo, fltp, 64 kb/s
Codec AVOption threads () specified for input file #0 (/home/mik/src/fate/fate-suite/vorbis/rc2-test2_small.ogg) has not been used for any stream. The most likely reason is either wrong type (e.g. a video option with no video streams) or that it is a private option of some decoder which was not actually used for any stream.
Codec AVOption thread_type (select multithreading type) specified for input file #0 (/home/mik/src/fate/fate-suite/vorbis/rc2-test2_small.ogg) has not been used for any stream. The most likely reason is either wrong type (e.g. a video option with no video streams) or that it is a private option of some decoder which was not actually used for any stream.
Stream mapping:
  Stream #0:0 -> #0:0 (vorbis (native) -> pcm_s16le (native))
Press ctrl-c to stop encoding
/home/mik/src/fate/src/tests/fate-run.sh: line 71: 17537 Segmentation fault      $target_exec $target_path/"$@"
diffstderrvorbis-16SEGVv13_dev0-1330-g76481f5
No diff output recorded
avconv version v13_dev0-1400-gb72ac6d, Copyright (c) 2000-2017 the Libav developers
  built on Nov 13 2017 12:58:33 with gcc 5.5.0 (GCC)
Input #0, ogg, from '/home/mik/src/fate/fate-suite/vorbis/rc2-test_small.ogg':
  Duration: 00:00:10.69, start: 0.000000, bitrate: 74 kb/s
    Stream #0:0: Audio: vorbis
      44100 Hz, stereo, fltp, 96 kb/s
    Metadata:
      TITLE           : Dancing Queen Medley
      ARTIST          : Moxy Fruvous
      ALBUM           : M.I.T. 1997
Codec AVOption threads () specified for input file #0 (/home/mik/src/fate/fate-suite/vorbis/rc2-test_small.ogg) has not been used for any stream. The most likely reason is either wrong type (e.g. a video option with no video streams) or that it is a private option of some decoder which was not actually used for any stream.
Codec AVOption thread_type (select multithreading type) specified for input file #0 (/home/mik/src/fate/fate-suite/vorbis/rc2-test_small.ogg) has not been used for any stream. The most likely reason is either wrong type (e.g. a video option with no video streams) or that it is a private option of some decoder which was not actually used for any stream.
Stream mapping:
  Stream #0:0 -> #0:0 (vorbis (native) -> pcm_s16le (native))
Press ctrl-c to stop encoding
/home/mik/src/fate/src/tests/fate-run.sh: line 71: 17559 Segmentation fault      $target_exec $target_path/"$@"
diffstderrvorbis-17SEGVv13_dev0-1330-g76481f5
No diff output recorded
avconv version v13_dev0-1400-gb72ac6d, Copyright (c) 2000-2017 the Libav developers
  built on Nov 13 2017 12:58:33 with gcc 5.5.0 (GCC)
Input #0, ogg, from '/home/mik/src/fate/fate-suite/vorbis/rc3-test_small.ogg':
  Duration: 00:00:05.68, start: 0.000000, bitrate: 140 kb/s
    Stream #0:0: Audio: vorbis
      44100 Hz, stereo, fltp, 128 kb/s
Codec AVOption threads () specified for input file #0 (/home/mik/src/fate/fate-suite/vorbis/rc3-test_small.ogg) has not been used for any stream. The most likely reason is either wrong type (e.g. a video option with no video streams) or that it is a private option of some decoder which was not actually used for any stream.
Codec AVOption thread_type (select multithreading type) specified for input file #0 (/home/mik/src/fate/fate-suite/vorbis/rc3-test_small.ogg) has not been used for any stream. The most likely reason is either wrong type (e.g. a video option with no video streams) or that it is a private option of some decoder which was not actually used for any stream.
Stream mapping:
  Stream #0:0 -> #0:0 (vorbis (native) -> pcm_s16le (native))
Press ctrl-c to stop encoding
/home/mik/src/fate/src/tests/fate-run.sh: line 71: 17581 Segmentation fault      $target_exec $target_path/"$@"
diffstderrvorbis-18SEGVv13_dev0-1330-g76481f5
No diff output recorded
avconv version v13_dev0-1400-gb72ac6d, Copyright (c) 2000-2017 the Libav developers
  built on Nov 13 2017 12:58:33 with gcc 5.5.0 (GCC)
Input #0, ogg, from '/home/mik/src/fate/fate-suite/vorbis/sleepzor_small.ogg':
  Duration: 00:00:06.06, start: 0.000000, bitrate: 131 kb/s
    Stream #0:0: Audio: vorbis
      44100 Hz, stereo, fltp, 128 kb/s
Codec AVOption threads () specified for input file #0 (/home/mik/src/fate/fate-suite/vorbis/sleepzor_small.ogg) has not been used for any stream. The most likely reason is either wrong type (e.g. a video option with no video streams) or that it is a private option of some decoder which was not actually used for any stream.
Codec AVOption thread_type (select multithreading type) specified for input file #0 (/home/mik/src/fate/fate-suite/vorbis/sleepzor_small.ogg) has not been used for any stream. The most likely reason is either wrong type (e.g. a video option with no video streams) or that it is a private option of some decoder which was not actually used for any stream.
Stream mapping:
  Stream #0:0 -> #0:0 (vorbis (native) -> pcm_s16le (native))
Press ctrl-c to stop encoding
/home/mik/src/fate/src/tests/fate-run.sh: line 71: 17603 Segmentation fault      $target_exec $target_path/"$@"
diffstderrvorbis-19SEGVv13_dev0-1330-g76481f5
No diff output recorded
avconv version v13_dev0-1400-gb72ac6d, Copyright (c) 2000-2017 the Libav developers
  built on Nov 13 2017 12:58:33 with gcc 5.5.0 (GCC)
Input #0, ogg, from '/home/mik/src/fate/fate-suite/vorbis/test-short2_small.ogg':
  Duration: 00:00:04.21, start: 0.000000, bitrate: 190 kb/s
    Stream #0:0: Audio: vorbis
      44100 Hz, stereo, fltp, 160 kb/s
Codec AVOption threads () specified for input file #0 (/home/mik/src/fate/fate-suite/vorbis/test-short2_small.ogg) has not been used for any stream. The most likely reason is either wrong type (e.g. a video option with no video streams) or that it is a private option of some decoder which was not actually used for any stream.
Codec AVOption thread_type (select multithreading type) specified for input file #0 (/home/mik/src/fate/fate-suite/vorbis/test-short2_small.ogg) has not been used for any stream. The most likely reason is either wrong type (e.g. a video option with no video streams) or that it is a private option of some decoder which was not actually used for any stream.
Stream mapping:
  Stream #0:0 -> #0:0 (vorbis (native) -> pcm_s16le (native))
Press ctrl-c to stop encoding
/home/mik/src/fate/src/tests/fate-run.sh: line 71: 17625 Segmentation fault      $target_exec $target_path/"$@"
diffstderrvorbis-2SEGVv13_dev0-1330-g76481f5
No diff output recorded
avconv version v13_dev0-1400-gb72ac6d, Copyright (c) 2000-2017 the Libav developers
  built on Nov 13 2017 12:58:33 with gcc 5.5.0 (GCC)
Input #0, ogg, from '/home/mik/src/fate/fate-suite/vorbis/1.0-test_small.ogg':
  Duration: 00:00:05.86, start: 0.000000, bitrate: 136 kb/s
    Stream #0:0: Audio: vorbis
      44100 Hz, stereo, fltp, 156 kb/s
    Metadata:
      TITLE           : Closing
      ARTIST          : Moulin Rouge
      ALBUM           : Combined Soundtrack
Codec AVOption threads () specified for input file #0 (/home/mik/src/fate/fate-suite/vorbis/1.0-test_small.ogg) has not been used for any stream. The most likely reason is either wrong type (e.g. a video option with no video streams) or that it is a private option of some decoder which was not actually used for any stream.
Codec AVOption thread_type (select multithreading type) specified for input file #0 (/home/mik/src/fate/fate-suite/vorbis/1.0-test_small.ogg) has not been used for any stream. The most likely reason is either wrong type (e.g. a video option with no video streams) or that it is a private option of some decoder which was not actually used for any stream.
Stream mapping:
  Stream #0:0 -> #0:0 (vorbis (native) -> pcm_s16le (native))
Press ctrl-c to stop encoding
/home/mik/src/fate/src/tests/fate-run.sh: line 71: 17249 Segmentation fault      $target_exec $target_path/"$@"
diffstderrvorbis-20SEGVv13_dev0-1330-g76481f5
No diff output recorded
avconv version v13_dev0-1400-gb72ac6d, Copyright (c) 2000-2017 the Libav developers
  built on Nov 13 2017 12:58:33 with gcc 5.5.0 (GCC)
Input #0, ogg, from '/home/mik/src/fate/fate-suite/vorbis/6.ogg':
  Duration: 00:00:05.83, start: 0.000000, bitrate: 117 kb/s
    Stream #0:0: Audio: vorbis
      44100 Hz, 5.1, fltp, 276 kb/s
Codec AVOption threads () specified for input file #0 (/home/mik/src/fate/fate-suite/vorbis/6.ogg) has not been used for any stream. The most likely reason is either wrong type (e.g. a video option with no video streams) or that it is a private option of some decoder which was not actually used for any stream.
Codec AVOption thread_type (select multithreading type) specified for input file #0 (/home/mik/src/fate/fate-suite/vorbis/6.ogg) has not been used for any stream. The most likely reason is either wrong type (e.g. a video option with no video streams) or that it is a private option of some decoder which was not actually used for any stream.
Stream mapping:
  Stream #0:0 -> #0:0 (vorbis (native) -> pcm_s16le (native))
Press ctrl-c to stop encoding
/home/mik/src/fate/src/tests/fate-run.sh: line 71: 17647 Segmentation fault      $target_exec $target_path/"$@"
diffstderrvorbis-3SEGVv13_dev0-1330-g76481f5
No diff output recorded
avconv version v13_dev0-1400-gb72ac6d, Copyright (c) 2000-2017 the Libav developers
  built on Nov 13 2017 12:58:33 with gcc 5.5.0 (GCC)
Input #0, ogg, from '/home/mik/src/fate/fate-suite/vorbis/beta3-test_small.ogg':
  Duration: 00:00:04.38, start: 0.000000, bitrate: 182 kb/s
    Stream #0:0: Audio: vorbis
      44100 Hz, stereo, fltp, 160 kb/s
    Metadata:
      TITLE           : Bed And Breakfast
      ARTIST          : Moxy Fruvous
      ALBUM           : Wood
Codec AVOption threads () specified for input file #0 (/home/mik/src/fate/fate-suite/vorbis/beta3-test_small.ogg) has not been used for any stream. The most likely reason is either wrong type (e.g. a video option with no video streams) or that it is a private option of some decoder which was not actually used for any stream.
Codec AVOption thread_type (select multithreading type) specified for input file #0 (/home/mik/src/fate/fate-suite/vorbis/beta3-test_small.ogg) has not been used for any stream. The most likely reason is either wrong type (e.g. a video option with no video streams) or that it is a private option of some decoder which was not actually used for any stream.
Stream mapping:
  Stream #0:0 -> #0:0 (vorbis (native) -> pcm_s16le (native))
Press ctrl-c to stop encoding
/home/mik/src/fate/src/tests/fate-run.sh: line 71: 17271 Segmentation fault      $target_exec $target_path/"$@"
diffstderrvorbis-4SEGVv13_dev0-1330-g76481f5
No diff output recorded
avconv version v13_dev0-1400-gb72ac6d, Copyright (c) 2000-2017 the Libav developers
  built on Nov 13 2017 12:58:33 with gcc 5.5.0 (GCC)
Input #0, ogg, from '/home/mik/src/fate/fate-suite/vorbis/beta4-test_small.ogg':
  Duration: 00:00:07.79, start: 0.000000, bitrate: 102 kb/s
    Stream #0:0: Audio: vorbis
      44100 Hz, mono, fltp, 96 kb/s
    Metadata:
      TITLE           : Chevy Chase
      ARTIST          : Steve Williams
      COMMENT         : Song composed by Eubie Blake. From a piano roll.
Codec AVOption threads () specified for input file #0 (/home/mik/src/fate/fate-suite/vorbis/beta4-test_small.ogg) has not been used for any stream. The most likely reason is either wrong type (e.g. a video option with no video streams) or that it is a private option of some decoder which was not actually used for any stream.
Codec AVOption thread_type (select multithreading type) specified for input file #0 (/home/mik/src/fate/fate-suite/vorbis/beta4-test_small.ogg) has not been used for any stream. The most likely reason is either wrong type (e.g. a video option with no video streams) or that it is a private option of some decoder which was not actually used for any stream.
Stream mapping:
  Stream #0:0 -> #0:0 (vorbis (native) -> pcm_s16le (native))
Press ctrl-c to stop encoding
/home/mik/src/fate/src/tests/fate-run.sh: line 71: 17293 Segmentation fault      $target_exec $target_path/"$@"
diffstderrvorbis-5SEGVv13_dev0-1330-g76481f5
No diff output recorded
avconv version v13_dev0-1400-gb72ac6d, Copyright (c) 2000-2017 the Libav developers
  built on Nov 13 2017 12:58:33 with gcc 5.5.0 (GCC)
Input #0, ogg, from '/home/mik/src/fate/fate-suite/vorbis/chain-test1_small.ogg':
  Duration: 00:00:08.09, start: 0.000000, bitrate: 98 kb/s
    Stream #0:0: Audio: vorbis
      44100 Hz, stereo, fltp, 112 kb/s
Codec AVOption threads () specified for input file #0 (/home/mik/src/fate/fate-suite/vorbis/chain-test1_small.ogg) has not been used for any stream. The most likely reason is either wrong type (e.g. a video option with no video streams) or that it is a private option of some decoder which was not actually used for any stream.
Codec AVOption thread_type (select multithreading type) specified for input file #0 (/home/mik/src/fate/fate-suite/vorbis/chain-test1_small.ogg) has not been used for any stream. The most likely reason is either wrong type (e.g. a video option with no video streams) or that it is a private option of some decoder which was not actually used for any stream.
Stream mapping:
  Stream #0:0 -> #0:0 (vorbis (native) -> pcm_s16le (native))
Press ctrl-c to stop encoding
/home/mik/src/fate/src/tests/fate-run.sh: line 71: 17315 Segmentation fault      $target_exec $target_path/"$@"
diffstderrvorbis-6SEGVv13_dev0-1330-g76481f5
No diff output recorded
avconv version v13_dev0-1400-gb72ac6d, Copyright (c) 2000-2017 the Libav developers
  built on Nov 13 2017 12:58:33 with gcc 5.5.0 (GCC)
Input #0, ogg, from '/home/mik/src/fate/fate-suite/vorbis/chain-test2_small.ogg':
  Duration: 00:00:11.06, start: 0.000000, bitrate: 72 kb/s
    Stream #0:0: Audio: vorbis
      44100 Hz, mono, fltp, 80 kb/s
Codec AVOption threads () specified for input file #0 (/home/mik/src/fate/fate-suite/vorbis/chain-test2_small.ogg) has not been used for any stream. The most likely reason is either wrong type (e.g. a video option with no video streams) or that it is a private option of some decoder which was not actually used for any stream.
Codec AVOption thread_type (select multithreading type) specified for input file #0 (/home/mik/src/fate/fate-suite/vorbis/chain-test2_small.ogg) has not been used for any stream. The most likely reason is either wrong type (e.g. a video option with no video streams) or that it is a private option of some decoder which was not actually used for any stream.
Stream mapping:
  Stream #0:0 -> #0:0 (vorbis (native) -> pcm_s16le (native))
Press ctrl-c to stop encoding
/home/mik/src/fate/src/tests/fate-run.sh: line 71: 17337 Segmentation fault      $target_exec $target_path/"$@"
diffstderrvorbis-7SEGVv13_dev0-1330-g76481f5
No diff output recorded
avconv version v13_dev0-1400-gb72ac6d, Copyright (c) 2000-2017 the Libav developers
  built on Nov 13 2017 12:58:33 with gcc 5.5.0 (GCC)
Input #0, ogg, from '/home/mik/src/fate/fate-suite/vorbis/highrate-test_small.ogg':
  Duration: 00:00:04.07, start: 0.000000, bitrate: 196 kb/s
    Stream #0:0: Audio: vorbis
      44100 Hz, stereo, fltp, 192 kb/s
    Metadata:
      TITLE           : Down From Above
      ARTIST          : Moxy Fruvous
      ALBUM           : Wood
Codec AVOption threads () specified for input file #0 (/home/mik/src/fate/fate-suite/vorbis/highrate-test_small.ogg) has not been used for any stream. The most likely reason is either wrong type (e.g. a video option with no video streams) or that it is a private option of some decoder which was not actually used for any stream.
Codec AVOption thread_type (select multithreading type) specified for input file #0 (/home/mik/src/fate/fate-suite/vorbis/highrate-test_small.ogg) has not been used for any stream. The most likely reason is either wrong type (e.g. a video option with no video streams) or that it is a private option of some decoder which was not actually used for any stream.
Stream mapping:
  Stream #0:0 -> #0:0 (vorbis (native) -> pcm_s16le (native))
Press ctrl-c to stop encoding
/home/mik/src/fate/src/tests/fate-run.sh: line 71: 17360 Segmentation fault      $target_exec $target_path/"$@"
diffstderrvorbis-8SEGVv13_dev0-1330-g76481f5
No diff output recorded
avconv version v13_dev0-1400-gb72ac6d, Copyright (c) 2000-2017 the Libav developers
  built on Nov 13 2017 12:58:33 with gcc 5.5.0 (GCC)
Input #0, ogg, from '/home/mik/src/fate/fate-suite/vorbis/lsp-test2_small.ogg':
  Duration: 00:00:05.70, start: 0.000000, bitrate: 140 kb/s
    Stream #0:0: Audio: vorbis
      44100 Hz, stereo, fltp, 128 kb/s
    Metadata:
      COMMENT         : Vorbis beta 4, mode A (even LSP only, floor 0)
Codec AVOption threads () specified for input file #0 (/home/mik/src/fate/fate-suite/vorbis/lsp-test2_small.ogg) has not been used for any stream. The most likely reason is either wrong type (e.g. a video option with no video streams) or that it is a private option of some decoder which was not actually used for any stream.
Codec AVOption thread_type (select multithreading type) specified for input file #0 (/home/mik/src/fate/fate-suite/vorbis/lsp-test2_small.ogg) has not been used for any stream. The most likely reason is either wrong type (e.g. a video option with no video streams) or that it is a private option of some decoder which was not actually used for any stream.
Stream mapping:
  Stream #0:0 -> #0:0 (vorbis (native) -> pcm_s16le (native))
Press ctrl-c to stop encoding
/home/mik/src/fate/src/tests/fate-run.sh: line 71: 17382 Segmentation fault      $target_exec $target_path/"$@"
diffstderrvorbis-9SEGVv13_dev0-1330-g76481f5
No diff output recorded
avconv version v13_dev0-1400-gb72ac6d, Copyright (c) 2000-2017 the Libav developers
  built on Nov 13 2017 12:58:33 with gcc 5.5.0 (GCC)
Input #0, ogg, from '/home/mik/src/fate/fate-suite/vorbis/lsp-test3_small.ogg':
  Duration: 00:00:03.86, start: 0.000000, bitrate: 207 kb/s
    Stream #0:0: Audio: vorbis
      44100 Hz, stereo, fltp
Codec AVOption threads () specified for input file #0 (/home/mik/src/fate/fate-suite/vorbis/lsp-test3_small.ogg) has not been used for any stream. The most likely reason is either wrong type (e.g. a video option with no video streams) or that it is a private option of some decoder which was not actually used for any stream.
Codec AVOption thread_type (select multithreading type) specified for input file #0 (/home/mik/src/fate/fate-suite/vorbis/lsp-test3_small.ogg) has not been used for any stream. The most likely reason is either wrong type (e.g. a video option with no video streams) or that it is a private option of some decoder which was not actually used for any stream.
Stream mapping:
  Stream #0:0 -> #0:0 (vorbis (native) -> pcm_s16le (native))
Press ctrl-c to stop encoding
/home/mik/src/fate/src/tests/fate-run.sh: line 71: 17404 Segmentation fault      $target_exec $target_path/"$@"
diffstderrwmapro-2chSEGVv13_dev0-1330-g76481f5
No diff output recorded
avconv version v13_dev0-1400-gb72ac6d, Copyright (c) 2000-2017 the Libav developers
  built on Nov 13 2017 12:58:33 with gcc 5.5.0 (GCC)
Input #0, asf, from '/home/mik/src/fate/fate-suite/wmapro/Beethovens_9th-1_small.wma':
  Metadata:
    creation_time   : 2009-04-22 19:24:02
    WMFSDKVersion   : 10.00.00.3802
    WMFSDKNeeded    : 0.0.0.0000
    IsVBR           : 1
    ASFLeakyBucketPairs: 
  Duration: 00:01:15.64, start: 0.000000, bitrate: 10 kb/s
    Stream #0:0(swe): Audio: wmapro [b[1][0][0] / 0x0162]
      48000 Hz, stereo, fltp, 287 kb/s
    Metadata:
      IsVBR           : 1
      DeviceConformanceTemplate: M1
      WM/WMADRCPeakReference: 30403
      WM/WMADRCPeakTarget: 30403
      WM/WMADRCAverageReference: 3140
      WM/WMADRCAverageTarget: 3140
Codec AVOption threads () specified for input file #0 (/home/mik/src/fate/fate-suite/wmapro/Beethovens_9th-1_small.wma) has not been used for any stream. The most likely reason is either wrong type (e.g. a video option with no video streams) or that it is a private option of some decoder which was not actually used for any stream.
Codec AVOption thread_type (select multithreading type) specified for input file #0 (/home/mik/src/fate/fate-suite/wmapro/Beethovens_9th-1_small.wma) has not been used for any stream. The most likely reason is either wrong type (e.g. a video option with no video streams) or that it is a private option of some decoder which was not actually used for any stream.
Stream mapping:
  Stream #0:0 -> #0:0 (wmapro (native) -> pcm_s16le (native))
Press ctrl-c to stop encoding
/home/mik/src/fate/src/tests/fate-run.sh: line 71: 51935 Segmentation fault      $target_exec $target_path/"$@"
diffstderrwmapro-5.1SEGVv13_dev0-1330-g76481f5
No diff output recorded
avconv version v13_dev0-1400-gb72ac6d, Copyright (c) 2000-2017 the Libav developers
  built on Nov 13 2017 12:58:33 with gcc 5.5.0 (GCC)
Input #0, asf, from '/home/mik/src/fate/fate-suite/wmapro/latin_192_mulitchannel_cut.wma':
  Metadata:
    creation_time   : 2009-04-22 19:23:46
    WMFSDKVersion   : 9.00.00.2796
    WMFSDKNeeded    : 0.0.0.0000
    IsVBR           : 1
    ASFLeakyBucketPairs: 
  Duration: 00:01:05.07, start: 0.000000, bitrate: 3 kb/s
    Stream #0:0(eng): Audio: wmapro [b[1][0][0] / 0x0162]
      48000 Hz, 5.1, fltp, 196 kb/s
    Metadata:
      IsVBR           : 1
      DeviceConformanceTemplate: M1
      WM/WMADRCPeakReference: 30587
      WM/WMADRCPeakTarget: 30587
      WM/WMADRCAverageReference: 3801
      WM/WMADRCAverageTarget: 3801
Codec AVOption threads () specified for input file #0 (/home/mik/src/fate/fate-suite/wmapro/latin_192_mulitchannel_cut.wma) has not been used for any stream. The most likely reason is either wrong type (e.g. a video option with no video streams) or that it is a private option of some decoder which was not actually used for any stream.
Codec AVOption thread_type (select multithreading type) specified for input file #0 (/home/mik/src/fate/fate-suite/wmapro/latin_192_mulitchannel_cut.wma) has not been used for any stream. The most likely reason is either wrong type (e.g. a video option with no video streams) or that it is a private option of some decoder which was not actually used for any stream.
Stream mapping:
  Stream #0:0 -> #0:0 (wmapro (native) -> pcm_s16le (native))
Press ctrl-c to stop encoding
/home/mik/src/fate/src/tests/fate-run.sh: line 71: 51957 Segmentation fault      $target_exec $target_path/"$@"
diffstderrwmapro-ismSEGVv13_dev0-1330-g76481f5
No diff output recorded
avconv version v13_dev0-1400-gb72ac6d, Copyright (c) 2000-2017 the Libav developers
  built on Nov 13 2017 12:58:33 with gcc 5.5.0 (GCC)
[mov,mp4,m4a,3gp,3g2,mj2 @ 0x1171e2c0] Non-increasing DTS in stream 1: packet 2 with DTS 840000, packet 3 with DTS 420000
[mov,mp4,m4a,3gp,3g2,mj2 @ 0x1171e2c0] Non-increasing DTS in stream 1: packet 4 with DTS 1670000, packet 5 with DTS 1250000
[mov,mp4,m4a,3gp,3g2,mj2 @ 0x1171e2c0] Non-increasing DTS in stream 1: packet 6 with DTS 2500000, packet 7 with DTS 2090000
[mov,mp4,m4a,3gp,3g2,mj2 @ 0x1171e2c0] Non-increasing DTS in stream 1: packet 8 with DTS 3340000, packet 9 with DTS 2920000
[mov,mp4,m4a,3gp,3g2,mj2 @ 0x1171e2c0] Non-increasing DTS in stream 1: packet 10 with DTS 4170000, packet 11 with DTS 3750000
[mov,mp4,m4a,3gp,3g2,mj2 @ 0x1171e2c0] Non-increasing DTS in stream 1: packet 12 with DTS 5000000, packet 13 with DTS 4590000
[mov,mp4,m4a,3gp,3g2,mj2 @ 0x1171e2c0] Non-increasing DTS in stream 1: packet 14 with DTS 5840000, packet 15 with DTS 5420000
[mov,mp4,m4a,3gp,3g2,mj2 @ 0x1171e2c0] Non-increasing DTS in stream 1: packet 16 with DTS 6670000, packet 17 with DTS 6250000
[mov,mp4,m4a,3gp,3g2,mj2 @ 0x1171e2c0] Non-increasing DTS in stream 1: packet 18 with DTS 7500000, packet 19 with DTS 7090000
Input #0, mov,mp4,m4a,3gp,3g2,mj2, from '/home/mik/src/fate/fate-suite/isom/vc1-wmapro.ism':
  Metadata:
    major_brand     : isml
    minor_version   : 1
    compatible_brands: piffiso2
    creation_time   : 2012-01-06 01:48:59
  Duration: 00:00:05.07, start: 0.041667, bitrate: 310 kb/s
    Stream #0:0(und): Audio: wmapro [b[1][0][0] / 0x0162]
      44100 Hz, stereo, fltp, 113 kb/s (default)
    Metadata:
      creation_time   : 2012-01-06 01:48:59
      handler_name    : Audio
    Stream #0:1(und): Video: vc1 (Advanced) [vc[45]1 / 0x312D6376]
      yuv420p, 240x104 [PAR 156:156 DAR 30:13], 198 kb/s
      10000k tbn (default)
    Metadata:
      creation_time   : 2012-01-06 01:48:59
      handler_name    : Video
Stream mapping:
  Stream #0:0 -> #0:0 (wmapro (native) -> pcm_s16le (native))
Press ctrl-c to stop encoding
/home/mik/src/fate/src/tests/fate-run.sh: line 71: 52033 Segmentation fault      $target_exec $target_path/"$@"
diffstderrwmav1-encodeSEGVv13_dev0-1330-g76481f5
No diff output recorded
avconv version v13_dev0-1400-gb72ac6d, Copyright (c) 2000-2017 the Libav developers
  built on Nov 13 2017 12:58:33 with gcc 5.5.0 (GCC)
Guessed Channel Layout for Input Stream #0.0 : stereo
Input #0, wav, from '/home/mik/src/fate/fate-suite/audio-reference/luckynight_2ch_44kHz_s16.wav':
  Duration: 00:00:09.50, bitrate: 1411 kb/s
    Stream #0:0: Audio: pcm_s16le [[1][0][0][0] / 0x0001]
      44100 Hz, 2 channels, s16, 1411 kb/s
Codec AVOption threads () specified for input file #0 (/home/mik/src/fate/fate-suite/audio-reference/luckynight_2ch_44kHz_s16.wav) has not been used for any stream. The most likely reason is either wrong type (e.g. a video option with no video streams) or that it is a private option of some decoder which was not actually used for any stream.
Codec AVOption thread_type (select multithreading type) specified for input file #0 (/home/mik/src/fate/fate-suite/audio-reference/luckynight_2ch_44kHz_s16.wav) has not been used for any stream. The most likely reason is either wrong type (e.g. a video option with no video streams) or that it is a private option of some decoder which was not actually used for any stream.
Stream mapping:
  Stream #0:0 -> #0:0 (pcm_s16le (native) -> wmav1 (native))
Press ctrl-c to stop encoding
Output #0, asf, to '/home/mik/src/fate/ppc-linux-gcc-mt/build/tests/data/fate/wmav1-encode.asf':
  Metadata:
    WM/EncodingSettings: Lavf58.1.0
    Stream #0:0: Audio: wmav1 [[96][1][0][0] / 0x0160]
      44100 Hz, stereo, fltp, 127 kb/s
    Metadata:
      encoder         : Lavc58.5.0 wmav1
size=     163kB time=9.43 bitrate= 141.6kbits/s    
video:0kB audio:149kB other streams:0kB global headers:0kB muxing overhead: 9.574238%
avconv version v13_dev0-1400-gb72ac6d, Copyright (c) 2000-2017 the Libav developers
  built on Nov 13 2017 12:58:33 with gcc 5.5.0 (GCC)
Guessed Channel Layout for Input Stream #0.0 : stereo
Input #0, asf, from '/home/mik/src/fate/ppc-linux-gcc-mt/build/tests/data/fate/wmav1-encode.asf':
  Metadata:
    creation_time   : 2009-04-22 19:23:37
    WM/EncodingSettings: Lavf58.1.0
  Duration: 00:00:09.51, start: 0.000000, bitrate: 140 kb/s
    Stream #0:0: Audio: wmav1 [[96][1][0][0] / 0x0160]
      44100 Hz, 2 channels, fltp, 127 kb/s
Codec AVOption threads () specified for input file #0 (/home/mik/src/fate/ppc-linux-gcc-mt/build/tests/data/fate/wmav1-encode.asf) has not been used for any stream. The most likely reason is either wrong type (e.g. a video option with no video streams) or that it is a private option of some decoder which was not actually used for any stream.
Codec AVOption thread_type (select multithreading type) specified for input file #0 (/home/mik/src/fate/ppc-linux-gcc-mt/build/tests/data/fate/wmav1-encode.asf) has not been used for any stream. The most likely reason is either wrong type (e.g. a video option with no video streams) or that it is a private option of some decoder which was not actually used for any stream.
Stream mapping:
  Stream #0:0 -> #0:0 (wmav1 (native) -> pcm_s16le (native))
Press ctrl-c to stop encoding
/home/mik/src/fate/src/tests/fate-run.sh: line 71: 52454 Segmentation fault      $target_exec $target_path/"$@"
diffstderrwmav2-encodeSEGVv13_dev0-1330-g76481f5
No diff output recorded
avconv version v13_dev0-1400-gb72ac6d, Copyright (c) 2000-2017 the Libav developers
  built on Nov 13 2017 12:58:33 with gcc 5.5.0 (GCC)
Guessed Channel Layout for Input Stream #0.0 : stereo
Input #0, wav, from '/home/mik/src/fate/fate-suite/audio-reference/luckynight_2ch_44kHz_s16.wav':
  Duration: 00:00:09.50, bitrate: 1411 kb/s
    Stream #0:0: Audio: pcm_s16le [[1][0][0][0] / 0x0001]
      44100 Hz, 2 channels, s16, 1411 kb/s
Codec AVOption threads () specified for input file #0 (/home/mik/src/fate/fate-suite/audio-reference/luckynight_2ch_44kHz_s16.wav) has not been used for any stream. The most likely reason is either wrong type (e.g. a video option with no video streams) or that it is a private option of some decoder which was not actually used for any stream.
Codec AVOption thread_type (select multithreading type) specified for input file #0 (/home/mik/src/fate/fate-suite/audio-reference/luckynight_2ch_44kHz_s16.wav) has not been used for any stream. The most likely reason is either wrong type (e.g. a video option with no video streams) or that it is a private option of some decoder which was not actually used for any stream.
Stream mapping:
  Stream #0:0 -> #0:0 (pcm_s16le (native) -> wmav2 (native))
Press ctrl-c to stop encoding
Output #0, asf, to '/home/mik/src/fate/ppc-linux-gcc-mt/build/tests/data/fate/wmav2-encode.asf':
  Metadata:
    WM/EncodingSettings: Lavf58.1.0
    Stream #0:0: Audio: wmav2 [a[1][0][0] / 0x0161]
      44100 Hz, stereo, fltp, 127 kb/s
    Metadata:
      encoder         : Lavc58.5.0 wmav2
size=     163kB time=9.43 bitrate= 141.7kbits/s    
video:0kB audio:149kB other streams:0kB global headers:0kB muxing overhead: 9.600499%
avconv version v13_dev0-1400-gb72ac6d, Copyright (c) 2000-2017 the Libav developers
  built on Nov 13 2017 12:58:33 with gcc 5.5.0 (GCC)
Guessed Channel Layout for Input Stream #0.0 : stereo
Input #0, asf, from '/home/mik/src/fate/ppc-linux-gcc-mt/build/tests/data/fate/wmav2-encode.asf':
  Metadata:
    creation_time   : 2009-04-22 19:23:37
    WM/EncodingSettings: Lavf58.1.0
  Duration: 00:00:09.51, start: 0.000000, bitrate: 140 kb/s
    Stream #0:0: Audio: wmav2 [a[1][0][0] / 0x0161]
      44100 Hz, 2 channels, fltp, 127 kb/s
Codec AVOption threads () specified for input file #0 (/home/mik/src/fate/ppc-linux-gcc-mt/build/tests/data/fate/wmav2-encode.asf) has not been used for any stream. The most likely reason is either wrong type (e.g. a video option with no video streams) or that it is a private option of some decoder which was not actually used for any stream.
Codec AVOption thread_type (select multithreading type) specified for input file #0 (/home/mik/src/fate/ppc-linux-gcc-mt/build/tests/data/fate/wmav2-encode.asf) has not been used for any stream. The most likely reason is either wrong type (e.g. a video option with no video streams) or that it is a private option of some decoder which was not actually used for any stream.
Stream mapping:
  Stream #0:0 -> #0:0 (wmav2 (native) -> pcm_s16le (native))
Press ctrl-c to stop encoding
/home/mik/src/fate/src/tests/fate-run.sh: line 71: 52544 Segmentation fault      $target_exec $target_path/"$@"