mipsel-linux-clang v13_dev0-1578-g7e929dac1

Architecturemips
Variantmips
CPUmips32
OSlinux
Ownerkostylev
Compilerclang version 6.0.0 (tags/RELEASE_600/final)
Configuration--enable-gpl --prefix=/home/mik/src/fate/mipsel-linux-clang/install --samples=/home/mik/src/fate/fate-suite --arch=mips --cpu=mips32 --cross-prefix=mipsel-linux- --cc='mipsel-linux-clang-6 -gcc-toolchain /opt/mipsel-linux' --target-os=linux --sysroot=/opt/mipsel-linux/mipsel-linux --target-exec='ssh solo2' --disable-debug
Comment
Revisionv13_dev0-1578-g7e929dac1
Date2018-09-12 18:37:34
Status2147 / 2149
Warnings69
Logscompile configure test
2 failed testsStatusLast good rev
diffstderrmpeg12framerate1n / a
No diff output recorded
Failed to match 23998999/1001000: code = 4, ext_n = 0, ext_d = 0.
diffstderrpixlet1n / a
--- /home/mik/src/fate/src/tests/ref/fate/pixlet	2017-05-26 23:20:34.684819411 +0300
+++ tests/data/fate/pixlet	2018-09-12 21:25:13.883229927 +0300
@@ -1,2 +0,0 @@
-#tb 0: 1/25
-0,          0,          0,        1,  2764800, 0xe8eff295
avconv version v13_dev0-1578-g7e929dac1, Copyright (c) 2000-2018 the Libav developers
  built on Sep 12 2018 20:59:31 with clang version 6.0.0 (tags/RELEASE_600/final)
[mov,mp4,m4a,3gp,3g2,mj2 @ 0x14c3140] Could not find codec parameters (Data: tmcd / 0x64636D74, 0 kb/s)
Input #0, mov,mp4,m4a,3gp,3g2,mj2, from '/home/mik/src/fate/fate-suite/pxlt/pixlet.mov':
  Metadata:
    major_brand     : qt  
    minor_version   : 537199360
    compatible_brands: qt  
    creation_time   : 2017-02-03 15:59:57
  Duration: 00:00:00.04, start: 0.000000, bitrate: 9227 kb/s
    Stream #0:0(eng): Video: pixlet [pxlt / 0x746C7870]
      yuv420p16le, pc, 1280x720, 5886 kb/s, PAR 1280:1280 DAR 16:9
      25 tbn (default)
    Metadata:
      creation_time   : 2017-02-03 15:59:57
      handler_name    : Apple Alias Data Handler
      encoder         : Apple Pixlet Video
    Stream #0:1(eng): Audio: pcm_s16le [sowt / 0x74776F73]
      48000 Hz, stereo, s16, 1536 kb/s (default)
    Metadata:
      creation_time   : 2017-02-03 15:59:57
      handler_name    : Apple Alias Data Handler
    Stream #0:2(eng): Data: tmcd / 0x64636D74, 0 kb/s (default)
    Metadata:
      creation_time   : 2017-02-03 15:59:58
      handler_name    : Apple Alias Data Handler
Stream mapping:
  Stream #0:0 -> #0:0 (pixlet (native) -> rawvideo (native))
Press ctrl-c to stop encoding
[pixlet @ 0x14c8a20] error in highpass coefficients for plane 0, band 0
Error while decoding stream #0:0
Video encoding failed