armv8-linux-gcc-valgrind v13_dev0-1250-g538e50875

Architectureaarch64
Variant
CPUgeneric
OSlinux
Ownerkostylev
Compilergcc 5.4.0 (GCC)
Configuration--prefix=/home/mik/src/fate/armv8-linux-gcc-valgrind/install --samples=/home/mik/src/fate/fate-suite --enable-gpl --cc=gcc-5 --target-exec='valgrind --leak-check=full --show-reachable=yes --error-exitcode=1 --malloc-fill=0x4a --undef-value-errors=no'
Commentvalgrind --undef-value-errors=no
Revisionv13_dev0-1250-g538e50875
Date2017-08-11 15:59:55
Status2110 / 2111
Warnings60
Logscompile configure test
1 failed testsStatusLast good rev
diffstderrsvq3-21n / a
--- /home/mik/src/fate/src/tests/ref/fate/svq3-2	2017-02-27 02:04:02.564169000 -0800
+++ tests/data/fate/svq3-2	2017-08-11 08:36:11.445678008 -0700
@@ -1,5 +1,5 @@
 #tb 0: 1/19200
-0,     -20000,     -20000,        0,   185280, 0x061c0d85
+0,     -20000,     -20000,        0,   185280, 0xc0bd953f
 0,     -19200,     -19200,        0,   185280, 0x427ef9a7
 0,     -18400,     -18400,        0,   185280, 0x64c74d6a
 0,     -17600,     -17600,        0,   185280, 0x5bfd0e5b
==18267== Memcheck, a memory error detector
==18267== Copyright (C) 2002-2015, and GNU GPL'd, by Julian Seward et al.
==18267== Using Valgrind-3.13.0.SVN and LibVEX; rerun with -h for copyright info
==18267== Command: /home/mik/src/fate/armv8-linux-gcc-valgrind/build/avconv -nostats -cpuflags all -flags +bitexact -hwaccel none -threads 1 -thread_type frame+slice -i /home/mik/src/fate/fate-suite/svq3/svq3_decoding_regression.mov -an -f framecrc -
==18267== 
avconv version v13_dev0-1250-g538e50875, Copyright (c) 2000-2017 the Libav developers
  built on Aug 11 2017 08:06:26 with gcc 5.4.0 (GCC)
Input #0, mov,mp4,m4a,3gp,3g2,mj2, from '/home/mik/src/fate/fate-suite/svq3/svq3_decoding_regression.mov':
  Metadata:
    major_brand     : qt  
    minor_version   : 512
    compatible_brands: qt  
    artist          : Mark Strube - SupaDupaStrube@msn.com
    artist-eng      : Mark Strube - SupaDupaStrube@msn.com
    title           : Movie-List Presents: The Abyss
    title-eng       : Movie-List Presents: The Abyss
    encoder         : Lavf57.66.101
    copyright       : © 1989 Twentieth Century Fox
    copyright-eng   : © 1989 Twentieth Century Fox
  Duration: 00:00:00.83, bitrate: 2376 kb/s
    Stream #0:0(eng): Video: svq3 [SVQ3 / 0x33515653]
      yuvj420p, pc, 480x257, 2366 kb/s
      24 fps, 19200 tbn (default)
    Metadata:
      handler_name    : DataHandler
      encoder         : Sorenson Video 3
Stream mapping:
  Stream #0:0 -> #0:0 (svq3 (native) -> rawvideo (native))
Press ctrl-c to stop encoding
[svq3 @ 0x4bb74e0] Missing reference frame.
Output #0, framecrc, to 'pipe:':
  Metadata:
    major_brand     : qt  
    minor_version   : 512
    compatible_brands: qt  
    artist          : Mark Strube - SupaDupaStrube@msn.com
    artist-eng      : Mark Strube - SupaDupaStrube@msn.com
    title           : Movie-List Presents: The Abyss
    title-eng       : Movie-List Presents: The Abyss
    copyright-eng   : © 1989 Twentieth Century Fox
    copyright       : © 1989 Twentieth Century Fox
    encoder         : Lavf58.0.0
    Stream #0:0(eng): Video: rawvideo [I420 / 0x30323449]
      yuvj420p, 480x257, q=2-31, 200 kb/s
      19200 tbn (default)
    Metadata:
      handler_name    : DataHandler
      encoder         : Sorenson Video 3
*** dropping frame 19 from stream 0 at ts -6400
frame=   19 fps=  0 q=-0.0 Lsize=       1kB time=10000000000.00 bitrate=   0.0kbits/s drop=1    
video:3438kB audio:0kB other streams:0kB global headers:0kB muxing overhead: unknown
==18267== 
==18267== HEAP SUMMARY:
==18267==     in use at exit: 0 bytes in 0 blocks
==18267==   total heap usage: 1,612 allocs, 1,612 frees, 8,642,394 bytes allocated
==18267== 
==18267== All heap blocks were freed -- no leaks are possible
==18267== 
==18267== For counts of detected and suppressed errors, rerun with: -v
==18267== ERROR SUMMARY: 0 errors from 0 contexts (suppressed: 0 from 0)