armv8-linux-gcc-valgrind v13_dev0-1218-g95ce02b

Architectureaarch64
Variant
CPUgeneric
OSlinux
Ownerkostylev
Compilergcc 5.4.0 (GCC)
Configuration--prefix=/home/mik/src/fate/armv8-linux-gcc-valgrind/install --samples=/home/mik/src/fate/fate-suite --enable-gpl --cc=gcc-5 --target-exec='valgrind --leak-check=full --show-reachable=yes --error-exitcode=1 --malloc-fill=0x4a --undef-value-errors=no'
Commentvalgrind --undef-value-errors=no
Revisionv13_dev0-1218-g95ce02b
Date2017-07-17 15:59:52
Status2106 / 2111
Warnings60
Logscompile configure test
5 failed testsStatusLast good rev
diffstderrsipr-16k1v13_dev0-1217-g825e463
No diff output recorded
==2992== Memcheck, a memory error detector
==2992== Copyright (C) 2002-2015, and GNU GPL'd, by Julian Seward et al.
==2992== Using Valgrind-3.13.0.SVN and LibVEX; rerun with -h for copyright info
==2992== Command: /home/mik/src/fate/armv8-linux-gcc-valgrind/build/avconv -nostats -cpuflags all -hwaccel none -threads 1 -thread_type frame+slice -i /home/mik/src/fate/fate-suite/sipr/sipr_16k.rm -vn -f s16le -
==2992== 
avconv version v13_dev0-1218-g95ce02b, Copyright (c) 2000-2017 the Libav developers
  built on Jul 17 2017 08:06:27 with gcc 5.4.0 (GCC)
[rm @ 0x4b5a360] Unsupported stream type 00000183
[rm @ 0x4b5a360] max_analyze_duration 5000000 reached
Input #0, rm, from '/home/mik/src/fate/fate-suite/sipr/sipr_16k.rm':
  Metadata:
    title           : Dewdz
    author          : Twisted Mojo
    copyright       : 2000 M.J. Butler
    comment         : 
  Duration: 00:03:04.32, start: 0.000000, bitrate: 4 kb/s
    Stream #0:0: Audio: sipr [sipr / 0x72706973]
      16000 Hz, mono, flt, 16 kb/s
    Stream #0:1: Video: rv20 [RV20 / 0x30325652]
      yuv420p, 128x96, 8 kb/s
      2 fps, 1k tbn
    Stream #0:2: Data: [0][0][0][0] / 0x0000
Stream mapping:
  Stream #0:0 -> #0:0 (sipr (native) -> pcm_s16le (native))
Press ctrl-c to stop encoding
Output #0, s16le, to 'pipe:':
  Metadata:
    title           : Dewdz
    author          : Twisted Mojo
    copyright       : 2000 M.J. Butler
    comment         : 
    encoder         : Lavf58.0.0
    Stream #0:0: Audio: pcm_s16le
      16000 Hz, mono, s16, 256 kb/s
    Metadata:
      encoder         : Lavc58.4.0 pcm_s16le
/home/mik/src/fate/fate-suite/sipr/sipr_16k.rm: Input/output error
size=    1050kB time=33.59 bitrate= 256.1kbits/s    
video:0kB audio:1050kB other streams:0kB global headers:0kB muxing overhead: 0.000000%
==2992== 
==2992== HEAP SUMMARY:
==2992==     in use at exit: 27,407 bytes in 105 blocks
==2992==   total heap usage: 65,761 allocs, 65,656 frees, 8,804,000 bytes allocated
==2992== 
==2992== 560 bytes in 14 blocks are indirectly lost in loss record 1 of 6
==2992==    at 0x4866568: memalign (vg_replace_malloc.c:857)
==2992==    by 0x486666B: posix_memalign (vg_replace_malloc.c:1020)
==2992==    by 0xA32A83: av_malloc (mem.c:71)
==2992==    by 0xA32A83: av_mallocz (mem.c:204)
==2992==    by 0xA254C3: av_buffer_create (buffer.c:35)
==2992==    by 0xA254C3: av_buffer_realloc (buffer.c:160)
==2992==    by 0x57883F: packet_alloc (avpacket.c:75)
==2992==    by 0x57883F: av_new_packet (avpacket.c:87)
==2992==    by 0x5071DB: rm_assemble_video_frame (rmdec.c:664)
==2992==    by 0x5071DB: ff_rm_parse_packet (rmdec.c:729)
==2992==    by 0x5071DB: rm_read_packet (rmdec.c:869)
==2992==    by 0x53A6F3: ff_read_packet (utils.c:447)
==2992==    by 0x53BC13: read_frame_internal (utils.c:932)
==2992==    by 0x53C27F: av_read_frame (utils.c:1030)
==2992==    by 0x446F83: process_input (avconv.c:2611)
==2992==    by 0x446F83: transcode (avconv.c:2764)
==2992==    by 0x446F83: main (avconv.c:2938)
==2992== 
==2992== 840 bytes in 21 blocks are indirectly lost in loss record 2 of 6
==2992==    at 0x4866568: memalign (vg_replace_malloc.c:857)
==2992==    by 0x486666B: posix_memalign (vg_replace_malloc.c:1020)
==2992==    by 0xA32A83: av_malloc (mem.c:71)
==2992==    by 0xA32A83: av_mallocz (mem.c:204)
==2992==    by 0xA254C3: av_buffer_create (buffer.c:35)
==2992==    by 0xA254C3: av_buffer_realloc (buffer.c:160)
==2992==    by 0x57883F: packet_alloc (avpacket.c:75)
==2992==    by 0x57883F: av_new_packet (avpacket.c:87)
==2992==    by 0x5073DB: rm_assemble_video_frame (rmdec.c:649)
==2992==    by 0x5073DB: ff_rm_parse_packet (rmdec.c:729)
==2992==    by 0x5073DB: rm_read_packet (rmdec.c:869)
==2992==    by 0x53A6F3: ff_read_packet (utils.c:447)
==2992==    by 0x53BC13: read_frame_internal (utils.c:932)
==2992==    by 0x53C27F: av_read_frame (utils.c:1030)
==2992==    by 0x446F83: process_input (avconv.c:2611)
==2992==    by 0x446F83: transcode (avconv.c:2764)
==2992==    by 0x446F83: main (avconv.c:2938)
==2992== 
==2992== 6,053 bytes in 21 blocks are indirectly lost in loss record 3 of 6
==2992==    at 0x4864180: malloc (vg_replace_malloc.c:298)
==2992==    by 0x48663DF: realloc (vg_replace_malloc.c:785)
==2992==    by 0xA254AB: av_buffer_realloc (buffer.c:156)
==2992==    by 0x57883F: packet_alloc (avpacket.c:75)
==2992==    by 0x57883F: av_new_packet (avpacket.c:87)
==2992==    by 0x5073DB: rm_assemble_video_frame (rmdec.c:649)
==2992==    by 0x5073DB: ff_rm_parse_packet (rmdec.c:729)
==2992==    by 0x5073DB: rm_read_packet (rmdec.c:869)
==2992==    by 0x53A6F3: ff_read_packet (utils.c:447)
==2992==    by 0x53BC13: read_frame_internal (utils.c:932)
==2992==    by 0x53C27F: av_read_frame (utils.c:1030)
==2992==    by 0x446F83: process_input (avconv.c:2611)
==2992==    by 0x446F83: transcode (avconv.c:2764)
==2992==    by 0x446F83: main (avconv.c:2938)
==2992== 
==2992== 7,397 (504 direct, 6,893 indirect) bytes in 21 blocks are definitely lost in loss record 4 of 6
==2992==    at 0x4866568: memalign (vg_replace_malloc.c:857)
==2992==    by 0x486666B: posix_memalign (vg_replace_malloc.c:1020)
==2992==    by 0xA32A83: av_malloc (mem.c:71)
==2992==    by 0xA32A83: av_mallocz (mem.c:204)
==2992==    by 0xA254F3: av_buffer_create (buffer.c:49)
==2992==    by 0xA254F3: av_buffer_realloc (buffer.c:160)
==2992==    by 0x57883F: packet_alloc (avpacket.c:75)
==2992==    by 0x57883F: av_new_packet (avpacket.c:87)
==2992==    by 0x5073DB: rm_assemble_video_frame (rmdec.c:649)
==2992==    by 0x5073DB: ff_rm_parse_packet (rmdec.c:729)
==2992==    by 0x5073DB: rm_read_packet (rmdec.c:869)
==2992==    by 0x53A6F3: ff_read_packet (utils.c:447)
==2992==    by 0x53BC13: read_frame_internal (utils.c:932)
==2992==    by 0x53C27F: av_read_frame (utils.c:1030)
==2992==    by 0x446F83: process_input (avconv.c:2611)
==2992==    by 0x446F83: transcode (avconv.c:2764)
==2992==    by 0x446F83: main (avconv.c:2938)
==2992== 
==2992== 19,114 bytes in 14 blocks are indirectly lost in loss record 5 of 6
==2992==    at 0x4864180: malloc (vg_replace_malloc.c:298)
==2992==    by 0x48663DF: realloc (vg_replace_malloc.c:785)
==2992==    by 0xA254AB: av_buffer_realloc (buffer.c:156)
==2992==    by 0x57883F: packet_alloc (avpacket.c:75)
==2992==    by 0x57883F: av_new_packet (avpacket.c:87)
==2992==    by 0x5071DB: rm_assemble_video_frame (rmdec.c:664)
==2992==    by 0x5071DB: ff_rm_parse_packet (rmdec.c:729)
==2992==    by 0x5071DB: rm_read_packet (rmdec.c:869)
==2992==    by 0x53A6F3: ff_read_packet (utils.c:447)
==2992==    by 0x53BC13: read_frame_internal (utils.c:932)
==2992==    by 0x53C27F: av_read_frame (utils.c:1030)
==2992==    by 0x446F83: process_input (avconv.c:2611)
==2992==    by 0x446F83: transcode (avconv.c:2764)
==2992==    by 0x446F83: main (avconv.c:2938)
==2992== 
==2992== 20,010 (336 direct, 19,674 indirect) bytes in 14 blocks are definitely lost in loss record 6 of 6
==2992==    at 0x4866568: memalign (vg_replace_malloc.c:857)
==2992==    by 0x486666B: posix_memalign (vg_replace_malloc.c:1020)
==2992==    by 0xA32A83: av_malloc (mem.c:71)
==2992==    by 0xA32A83: av_mallocz (mem.c:204)
==2992==    by 0xA254F3: av_buffer_create (buffer.c:49)
==2992==    by 0xA254F3: av_buffer_realloc (buffer.c:160)
==2992==    by 0x57883F: packet_alloc (avpacket.c:75)
==2992==    by 0x57883F: av_new_packet (avpacket.c:87)
==2992==    by 0x5071DB: rm_assemble_video_frame (rmdec.c:664)
==2992==    by 0x5071DB: ff_rm_parse_packet (rmdec.c:729)
==2992==    by 0x5071DB: rm_read_packet (rmdec.c:869)
==2992==    by 0x53A6F3: ff_read_packet (utils.c:447)
==2992==    by 0x53BC13: read_frame_internal (utils.c:932)
==2992==    by 0x53C27F: av_read_frame (utils.c:1030)
==2992==    by 0x446F83: process_input (avconv.c:2611)
==2992==    by 0x446F83: transcode (avconv.c:2764)
==2992==    by 0x446F83: main (avconv.c:2938)
==2992== 
==2992== LEAK SUMMARY:
==2992==    definitely lost: 840 bytes in 35 blocks
==2992==    indirectly lost: 26,567 bytes in 70 blocks
==2992==      possibly lost: 0 bytes in 0 blocks
==2992==    still reachable: 0 bytes in 0 blocks
==2992==         suppressed: 0 bytes in 0 blocks
==2992== 
==2992== For counts of detected and suppressed errors, rerun with: -v
==2992== ERROR SUMMARY: 2 errors from 2 contexts (suppressed: 0 from 0)
diffstderrsipr-5k01v13_dev0-1217-g825e463
No diff output recorded
==2919== Memcheck, a memory error detector
==2919== Copyright (C) 2002-2015, and GNU GPL'd, by Julian Seward et al.
==2919== Using Valgrind-3.13.0.SVN and LibVEX; rerun with -h for copyright info
==2919== Command: /home/mik/src/fate/armv8-linux-gcc-valgrind/build/avconv -nostats -cpuflags all -hwaccel none -threads 1 -thread_type frame+slice -i /home/mik/src/fate/fate-suite/sipr/sipr_5k0.rm -vn -f s16le -
==2919== 
avconv version v13_dev0-1218-g95ce02b, Copyright (c) 2000-2017 the Libav developers
  built on Jul 17 2017 08:06:27 with gcc 5.4.0 (GCC)
Input #0, rm, from '/home/mik/src/fate/fate-suite/sipr/sipr_5k0.rm':
  Metadata:
    title           : Plumbbob
    author          : U.S. Department of Energy
    copyright       : U.S. Department of Energy
    comment         : 
  Duration: 00:00:20.11, start: 0.000000, bitrate: 19 kb/s
    Stream #0:0: Audio: sipr [sipr / 0x72706973]
      8000 Hz, mono, flt, 5 kb/s
    Stream #0:1: Video: rv10 [RV10 / 0x30315652]
      yuv420p, 160x112, 15 kb/s
      4 fps, 1k tbn
Stream mapping:
  Stream #0:0 -> #0:0 (sipr (native) -> pcm_s16le (native))
Press ctrl-c to stop encoding
Output #0, s16le, to 'pipe:':
  Metadata:
    title           : Plumbbob
    author          : U.S. Department of Energy
    copyright       : U.S. Department of Energy
    comment         : 
    encoder         : Lavf58.0.0
    Stream #0:0: Audio: pcm_s16le
      8000 Hz, mono, s16, 128 kb/s
    Metadata:
      encoder         : Lavc58.4.0 pcm_s16le
/home/mik/src/fate/fate-suite/sipr/sipr_5k0.rm: Input/output error
size=     315kB time=20.06 bitrate= 128.6kbits/s    
video:0kB audio:315kB other streams:0kB global headers:0kB muxing overhead: 0.000000%
==2919== 
==2919== HEAP SUMMARY:
==2919==     in use at exit: 38,641 bytes in 228 blocks
==2919==   total heap usage: 7,449 allocs, 7,221 frees, 1,912,905 bytes allocated
==2919== 
==2919== 560 bytes in 14 blocks are indirectly lost in loss record 1 of 6
==2919==    at 0x4866568: memalign (vg_replace_malloc.c:857)
==2919==    by 0x486666B: posix_memalign (vg_replace_malloc.c:1020)
==2919==    by 0xA32A83: av_malloc (mem.c:71)
==2919==    by 0xA32A83: av_mallocz (mem.c:204)
==2919==    by 0xA254C3: av_buffer_create (buffer.c:35)
==2919==    by 0xA254C3: av_buffer_realloc (buffer.c:160)
==2919==    by 0x57883F: packet_alloc (avpacket.c:75)
==2919==    by 0x57883F: av_new_packet (avpacket.c:87)
==2919==    by 0x5071DB: rm_assemble_video_frame (rmdec.c:664)
==2919==    by 0x5071DB: ff_rm_parse_packet (rmdec.c:729)
==2919==    by 0x5071DB: rm_read_packet (rmdec.c:869)
==2919==    by 0x53A6F3: ff_read_packet (utils.c:447)
==2919==    by 0x53BC13: read_frame_internal (utils.c:932)
==2919==    by 0x53C27F: av_read_frame (utils.c:1030)
==2919==    by 0x446F83: process_input (avconv.c:2611)
==2919==    by 0x446F83: transcode (avconv.c:2764)
==2919==    by 0x446F83: main (avconv.c:2938)
==2919== 
==2919== 2,480 bytes in 62 blocks are indirectly lost in loss record 2 of 6
==2919==    at 0x4866568: memalign (vg_replace_malloc.c:857)
==2919==    by 0x486666B: posix_memalign (vg_replace_malloc.c:1020)
==2919==    by 0xA32A83: av_malloc (mem.c:71)
==2919==    by 0xA32A83: av_mallocz (mem.c:204)
==2919==    by 0xA254C3: av_buffer_create (buffer.c:35)
==2919==    by 0xA254C3: av_buffer_realloc (buffer.c:160)
==2919==    by 0x57883F: packet_alloc (avpacket.c:75)
==2919==    by 0x57883F: av_new_packet (avpacket.c:87)
==2919==    by 0x5073DB: rm_assemble_video_frame (rmdec.c:649)
==2919==    by 0x5073DB: ff_rm_parse_packet (rmdec.c:729)
==2919==    by 0x5073DB: rm_read_packet (rmdec.c:869)
==2919==    by 0x53A6F3: ff_read_packet (utils.c:447)
==2919==    by 0x53BC13: read_frame_internal (utils.c:932)
==2919==    by 0x53C27F: av_read_frame (utils.c:1030)
==2919==    by 0x446F83: process_input (avconv.c:2611)
==2919==    by 0x446F83: transcode (avconv.c:2764)
==2919==    by 0x446F83: main (avconv.c:2938)
==2919== 
==2919== 14,423 bytes in 14 blocks are indirectly lost in loss record 3 of 6
==2919==    at 0x4864180: malloc (vg_replace_malloc.c:298)
==2919==    by 0x48663DF: realloc (vg_replace_malloc.c:785)
==2919==    by 0xA254AB: av_buffer_realloc (buffer.c:156)
==2919==    by 0x57883F: packet_alloc (avpacket.c:75)
==2919==    by 0x57883F: av_new_packet (avpacket.c:87)
==2919==    by 0x5071DB: rm_assemble_video_frame (rmdec.c:664)
==2919==    by 0x5071DB: ff_rm_parse_packet (rmdec.c:729)
==2919==    by 0x5071DB: rm_read_packet (rmdec.c:869)
==2919==    by 0x53A6F3: ff_read_packet (utils.c:447)
==2919==    by 0x53BC13: read_frame_internal (utils.c:932)
==2919==    by 0x53C27F: av_read_frame (utils.c:1030)
==2919==    by 0x446F83: process_input (avconv.c:2611)
==2919==    by 0x446F83: transcode (avconv.c:2764)
==2919==    by 0x446F83: main (avconv.c:2938)
==2919== 
==2919== 15,319 (336 direct, 14,983 indirect) bytes in 14 blocks are definitely lost in loss record 4 of 6
==2919==    at 0x4866568: memalign (vg_replace_malloc.c:857)
==2919==    by 0x486666B: posix_memalign (vg_replace_malloc.c:1020)
==2919==    by 0xA32A83: av_malloc (mem.c:71)
==2919==    by 0xA32A83: av_mallocz (mem.c:204)
==2919==    by 0xA254F3: av_buffer_create (buffer.c:49)
==2919==    by 0xA254F3: av_buffer_realloc (buffer.c:160)
==2919==    by 0x57883F: packet_alloc (avpacket.c:75)
==2919==    by 0x57883F: av_new_packet (avpacket.c:87)
==2919==    by 0x5071DB: rm_assemble_video_frame (rmdec.c:664)
==2919==    by 0x5071DB: ff_rm_parse_packet (rmdec.c:729)
==2919==    by 0x5071DB: rm_read_packet (rmdec.c:869)
==2919==    by 0x53A6F3: ff_read_packet (utils.c:447)
==2919==    by 0x53BC13: read_frame_internal (utils.c:932)
==2919==    by 0x53C27F: av_read_frame (utils.c:1030)
==2919==    by 0x446F83: process_input (avconv.c:2611)
==2919==    by 0x446F83: transcode (avconv.c:2764)
==2919==    by 0x446F83: main (avconv.c:2938)
==2919== 
==2919== 19,354 bytes in 62 blocks are indirectly lost in loss record 5 of 6
==2919==    at 0x4864180: malloc (vg_replace_malloc.c:298)
==2919==    by 0x48663DF: realloc (vg_replace_malloc.c:785)
==2919==    by 0xA254AB: av_buffer_realloc (buffer.c:156)
==2919==    by 0x57883F: packet_alloc (avpacket.c:75)
==2919==    by 0x57883F: av_new_packet (avpacket.c:87)
==2919==    by 0x5073DB: rm_assemble_video_frame (rmdec.c:649)
==2919==    by 0x5073DB: ff_rm_parse_packet (rmdec.c:729)
==2919==    by 0x5073DB: rm_read_packet (rmdec.c:869)
==2919==    by 0x53A6F3: ff_read_packet (utils.c:447)
==2919==    by 0x53BC13: read_frame_internal (utils.c:932)
==2919==    by 0x53C27F: av_read_frame (utils.c:1030)
==2919==    by 0x446F83: process_input (avconv.c:2611)
==2919==    by 0x446F83: transcode (avconv.c:2764)
==2919==    by 0x446F83: main (avconv.c:2938)
==2919== 
==2919== 23,322 (1,488 direct, 21,834 indirect) bytes in 62 blocks are definitely lost in loss record 6 of 6
==2919==    at 0x4866568: memalign (vg_replace_malloc.c:857)
==2919==    by 0x486666B: posix_memalign (vg_replace_malloc.c:1020)
==2919==    by 0xA32A83: av_malloc (mem.c:71)
==2919==    by 0xA32A83: av_mallocz (mem.c:204)
==2919==    by 0xA254F3: av_buffer_create (buffer.c:49)
==2919==    by 0xA254F3: av_buffer_realloc (buffer.c:160)
==2919==    by 0x57883F: packet_alloc (avpacket.c:75)
==2919==    by 0x57883F: av_new_packet (avpacket.c:87)
==2919==    by 0x5073DB: rm_assemble_video_frame (rmdec.c:649)
==2919==    by 0x5073DB: ff_rm_parse_packet (rmdec.c:729)
==2919==    by 0x5073DB: rm_read_packet (rmdec.c:869)
==2919==    by 0x53A6F3: ff_read_packet (utils.c:447)
==2919==    by 0x53BC13: read_frame_internal (utils.c:932)
==2919==    by 0x53C27F: av_read_frame (utils.c:1030)
==2919==    by 0x446F83: process_input (avconv.c:2611)
==2919==    by 0x446F83: transcode (avconv.c:2764)
==2919==    by 0x446F83: main (avconv.c:2938)
==2919== 
==2919== LEAK SUMMARY:
==2919==    definitely lost: 1,824 bytes in 76 blocks
==2919==    indirectly lost: 36,817 bytes in 152 blocks
==2919==      possibly lost: 0 bytes in 0 blocks
==2919==    still reachable: 0 bytes in 0 blocks
==2919==         suppressed: 0 bytes in 0 blocks
==2919== 
==2919== For counts of detected and suppressed errors, rerun with: -v
==2919== ERROR SUMMARY: 2 errors from 2 contexts (suppressed: 0 from 0)
diffstderrsipr-6k51v13_dev0-1217-g825e463
No diff output recorded
==2936== Memcheck, a memory error detector
==2936== Copyright (C) 2002-2015, and GNU GPL'd, by Julian Seward et al.
==2936== Using Valgrind-3.13.0.SVN and LibVEX; rerun with -h for copyright info
==2936== Command: /home/mik/src/fate/armv8-linux-gcc-valgrind/build/avconv -nostats -cpuflags all -hwaccel none -threads 1 -thread_type frame+slice -i /home/mik/src/fate/fate-suite/sipr/sipr_6k5.rm -vn -f s16le -
==2936== 
avconv version v13_dev0-1218-g95ce02b, Copyright (c) 2000-2017 the Libav developers
  built on Jul 17 2017 08:06:27 with gcc 5.4.0 (GCC)
[rm @ 0x4b5a360] Unsupported stream type 0000025b
[rm @ 0x4b5a360] max_analyze_duration 5000000 reached
Input #0, rm, from '/home/mik/src/fate/fate-suite/sipr/sipr_6k5.rm':
  Metadata:
    title           : IAC Message Sept. 11, 2001
    author          : 
    copyright       : 
    comment         : 
  Duration: 00:08:05.56, start: 0.000000, bitrate: 4 kb/s
    Stream #0:0: Audio: sipr [sipr / 0x72706973]
      8000 Hz, mono, flt, 6 kb/s
    Stream #0:1: Video: rv30 [RV30 / 0x30335652]
      yuv420p, 160x120, 27 kb/s
      15 fps, 1k tbn
    Stream #0:2: Data: [0][0][0][0] / 0x0000
Stream mapping:
  Stream #0:0 -> #0:0 (sipr (native) -> pcm_s16le (native))
Press ctrl-c to stop encoding
Output #0, s16le, to 'pipe:':
  Metadata:
    title           : IAC Message Sept. 11, 2001
    author          : 
    copyright       : 
    comment         : 
    encoder         : Lavf58.0.0
    Stream #0:0: Audio: pcm_s16le
      8000 Hz, mono, s16, 128 kb/s
    Metadata:
      encoder         : Lavc58.4.0 pcm_s16le
/home/mik/src/fate/fate-suite/sipr/sipr_6k5.rm: Input/output error
size=     945kB time=60.44 bitrate= 128.1kbits/s    
video:0kB audio:945kB other streams:0kB global headers:0kB muxing overhead: 0.000000%
==2936== 
==2936== HEAP SUMMARY:
==2936==     in use at exit: 277,153 bytes in 2,475 blocks
==2936==   total heap usage: 36,148 allocs, 33,673 frees, 7,040,620 bytes allocated
==2936== 
==2936== 1,960 bytes in 49 blocks are indirectly lost in loss record 1 of 6
==2936==    at 0x4866568: memalign (vg_replace_malloc.c:857)
==2936==    by 0x486666B: posix_memalign (vg_replace_malloc.c:1020)
==2936==    by 0xA32A83: av_malloc (mem.c:71)
==2936==    by 0xA32A83: av_mallocz (mem.c:204)
==2936==    by 0xA254C3: av_buffer_create (buffer.c:35)
==2936==    by 0xA254C3: av_buffer_realloc (buffer.c:160)
==2936==    by 0x57883F: packet_alloc (avpacket.c:75)
==2936==    by 0x57883F: av_new_packet (avpacket.c:87)
==2936==    by 0x5071DB: rm_assemble_video_frame (rmdec.c:664)
==2936==    by 0x5071DB: ff_rm_parse_packet (rmdec.c:729)
==2936==    by 0x5071DB: rm_read_packet (rmdec.c:869)
==2936==    by 0x53A6F3: ff_read_packet (utils.c:447)
==2936==    by 0x53BC13: read_frame_internal (utils.c:932)
==2936==    by 0x53C27F: av_read_frame (utils.c:1030)
==2936==    by 0x446F83: process_input (avconv.c:2611)
==2936==    by 0x446F83: transcode (avconv.c:2764)
==2936==    by 0x446F83: main (avconv.c:2938)
==2936== 
==2936== 31,040 bytes in 776 blocks are indirectly lost in loss record 2 of 6
==2936==    at 0x4866568: memalign (vg_replace_malloc.c:857)
==2936==    by 0x486666B: posix_memalign (vg_replace_malloc.c:1020)
==2936==    by 0xA32A83: av_malloc (mem.c:71)
==2936==    by 0xA32A83: av_mallocz (mem.c:204)
==2936==    by 0xA254C3: av_buffer_create (buffer.c:35)
==2936==    by 0xA254C3: av_buffer_realloc (buffer.c:160)
==2936==    by 0x57883F: packet_alloc (avpacket.c:75)
==2936==    by 0x57883F: av_new_packet (avpacket.c:87)
==2936==    by 0x5073DB: rm_assemble_video_frame (rmdec.c:649)
==2936==    by 0x5073DB: ff_rm_parse_packet (rmdec.c:729)
==2936==    by 0x5073DB: rm_read_packet (rmdec.c:869)
==2936==    by 0x53A6F3: ff_read_packet (utils.c:447)
==2936==    by 0x53BC13: read_frame_internal (utils.c:932)
==2936==    by 0x53C27F: av_read_frame (utils.c:1030)
==2936==    by 0x446F83: process_input (avconv.c:2611)
==2936==    by 0x446F83: transcode (avconv.c:2764)
==2936==    by 0x446F83: main (avconv.c:2938)
==2936== 
==2936== 45,721 bytes in 49 blocks are indirectly lost in loss record 3 of 6
==2936==    at 0x4864180: malloc (vg_replace_malloc.c:298)
==2936==    by 0x48663DF: realloc (vg_replace_malloc.c:785)
==2936==    by 0xA254AB: av_buffer_realloc (buffer.c:156)
==2936==    by 0x57883F: packet_alloc (avpacket.c:75)
==2936==    by 0x57883F: av_new_packet (avpacket.c:87)
==2936==    by 0x5071DB: rm_assemble_video_frame (rmdec.c:664)
==2936==    by 0x5071DB: ff_rm_parse_packet (rmdec.c:729)
==2936==    by 0x5071DB: rm_read_packet (rmdec.c:869)
==2936==    by 0x53A6F3: ff_read_packet (utils.c:447)
==2936==    by 0x53BC13: read_frame_internal (utils.c:932)
==2936==    by 0x53C27F: av_read_frame (utils.c:1030)
==2936==    by 0x446F83: process_input (avconv.c:2611)
==2936==    by 0x446F83: transcode (avconv.c:2764)
==2936==    by 0x446F83: main (avconv.c:2938)
==2936== 
==2936== 48,857 (1,176 direct, 47,681 indirect) bytes in 49 blocks are definitely lost in loss record 4 of 6
==2936==    at 0x4866568: memalign (vg_replace_malloc.c:857)
==2936==    by 0x486666B: posix_memalign (vg_replace_malloc.c:1020)
==2936==    by 0xA32A83: av_malloc (mem.c:71)
==2936==    by 0xA32A83: av_mallocz (mem.c:204)
==2936==    by 0xA254F3: av_buffer_create (buffer.c:49)
==2936==    by 0xA254F3: av_buffer_realloc (buffer.c:160)
==2936==    by 0x57883F: packet_alloc (avpacket.c:75)
==2936==    by 0x57883F: av_new_packet (avpacket.c:87)
==2936==    by 0x5071DB: rm_assemble_video_frame (rmdec.c:664)
==2936==    by 0x5071DB: ff_rm_parse_packet (rmdec.c:729)
==2936==    by 0x5071DB: rm_read_packet (rmdec.c:869)
==2936==    by 0x53A6F3: ff_read_packet (utils.c:447)
==2936==    by 0x53BC13: read_frame_internal (utils.c:932)
==2936==    by 0x53C27F: av_read_frame (utils.c:1030)
==2936==    by 0x446F83: process_input (avconv.c:2611)
==2936==    by 0x446F83: transcode (avconv.c:2764)
==2936==    by 0x446F83: main (avconv.c:2938)
==2936== 
==2936== 178,632 bytes in 776 blocks are indirectly lost in loss record 5 of 6
==2936==    at 0x4864180: malloc (vg_replace_malloc.c:298)
==2936==    by 0x48663DF: realloc (vg_replace_malloc.c:785)
==2936==    by 0xA254AB: av_buffer_realloc (buffer.c:156)
==2936==    by 0x57883F: packet_alloc (avpacket.c:75)
==2936==    by 0x57883F: av_new_packet (avpacket.c:87)
==2936==    by 0x5073DB: rm_assemble_video_frame (rmdec.c:649)
==2936==    by 0x5073DB: ff_rm_parse_packet (rmdec.c:729)
==2936==    by 0x5073DB: rm_read_packet (rmdec.c:869)
==2936==    by 0x53A6F3: ff_read_packet (utils.c:447)
==2936==    by 0x53BC13: read_frame_internal (utils.c:932)
==2936==    by 0x53C27F: av_read_frame (utils.c:1030)
==2936==    by 0x446F83: process_input (avconv.c:2611)
==2936==    by 0x446F83: transcode (avconv.c:2764)
==2936==    by 0x446F83: main (avconv.c:2938)
==2936== 
==2936== 228,296 (18,624 direct, 209,672 indirect) bytes in 776 blocks are definitely lost in loss record 6 of 6
==2936==    at 0x4866568: memalign (vg_replace_malloc.c:857)
==2936==    by 0x486666B: posix_memalign (vg_replace_malloc.c:1020)
==2936==    by 0xA32A83: av_malloc (mem.c:71)
==2936==    by 0xA32A83: av_mallocz (mem.c:204)
==2936==    by 0xA254F3: av_buffer_create (buffer.c:49)
==2936==    by 0xA254F3: av_buffer_realloc (buffer.c:160)
==2936==    by 0x57883F: packet_alloc (avpacket.c:75)
==2936==    by 0x57883F: av_new_packet (avpacket.c:87)
==2936==    by 0x5073DB: rm_assemble_video_frame (rmdec.c:649)
==2936==    by 0x5073DB: ff_rm_parse_packet (rmdec.c:729)
==2936==    by 0x5073DB: rm_read_packet (rmdec.c:869)
==2936==    by 0x53A6F3: ff_read_packet (utils.c:447)
==2936==    by 0x53BC13: read_frame_internal (utils.c:932)
==2936==    by 0x53C27F: av_read_frame (utils.c:1030)
==2936==    by 0x446F83: process_input (avconv.c:2611)
==2936==    by 0x446F83: transcode (avconv.c:2764)
==2936==    by 0x446F83: main (avconv.c:2938)
==2936== 
==2936== LEAK SUMMARY:
==2936==    definitely lost: 19,800 bytes in 825 blocks
==2936==    indirectly lost: 257,353 bytes in 1,650 blocks
==2936==      possibly lost: 0 bytes in 0 blocks
==2936==    still reachable: 0 bytes in 0 blocks
==2936==         suppressed: 0 bytes in 0 blocks
==2936== 
==2936== For counts of detected and suppressed errors, rerun with: -v
==2936== ERROR SUMMARY: 2 errors from 2 contexts (suppressed: 0 from 0)
diffstderrsipr-8k51v13_dev0-1217-g825e463
No diff output recorded
==2971== Memcheck, a memory error detector
==2971== Copyright (C) 2002-2015, and GNU GPL'd, by Julian Seward et al.
==2971== Using Valgrind-3.13.0.SVN and LibVEX; rerun with -h for copyright info
==2971== Command: /home/mik/src/fate/armv8-linux-gcc-valgrind/build/avconv -nostats -cpuflags all -hwaccel none -threads 1 -thread_type frame+slice -i /home/mik/src/fate/fate-suite/sipr/sipr_8k5.rm -vn -f s16le -
==2971== 
avconv version v13_dev0-1218-g95ce02b, Copyright (c) 2000-2017 the Libav developers
  built on Jul 17 2017 08:06:27 with gcc 5.4.0 (GCC)
[rm @ 0x4b5a360] max_analyze_duration 5000000 reached
Input #0, rm, from '/home/mik/src/fate/fate-suite/sipr/sipr_8k5.rm':
  Metadata:
    title           : 
    author          : 
    copyright       : 
    comment         : 
  Duration: 00:02:23.10, start: 0.000000, bitrate: 5 kb/s
    Stream #0:0: Audio: sipr [sipr / 0x72706973]
      8000 Hz, mono, flt, 8 kb/s
    Stream #0:1: Video: rv20 [RV20 / 0x30325652]
      yuv420p, 192x144, 25 kb/s
      12.50 fps, 1k tbn
Stream mapping:
  Stream #0:0 -> #0:0 (sipr (native) -> pcm_s16le (native))
Press ctrl-c to stop encoding
Output #0, s16le, to 'pipe:':
  Metadata:
    title           : 
    author          : 
    copyright       : 
    comment         : 
    encoder         : Lavf58.0.0
    Stream #0:0: Audio: pcm_s16le
      8000 Hz, mono, s16, 128 kb/s
    Metadata:
      encoder         : Lavc58.4.0 pcm_s16le
/home/mik/src/fate/fate-suite/sipr/sipr_8k5.rm: Input/output error
size=     324kB time=20.68 bitrate= 128.4kbits/s    
video:0kB audio:324kB other streams:0kB global headers:0kB muxing overhead: 0.000000%
==2971== 
==2971== HEAP SUMMARY:
==2971==     in use at exit: 74,014 bytes in 438 blocks
==2971==   total heap usage: 23,773 allocs, 23,335 frees, 3,355,608 bytes allocated
==2971== 
==2971== 1,040 bytes in 26 blocks are indirectly lost in loss record 1 of 6
==2971==    at 0x4866568: memalign (vg_replace_malloc.c:857)
==2971==    by 0x486666B: posix_memalign (vg_replace_malloc.c:1020)
==2971==    by 0xA32A83: av_malloc (mem.c:71)
==2971==    by 0xA32A83: av_mallocz (mem.c:204)
==2971==    by 0xA254C3: av_buffer_create (buffer.c:35)
==2971==    by 0xA254C3: av_buffer_realloc (buffer.c:160)
==2971==    by 0x57883F: packet_alloc (avpacket.c:75)
==2971==    by 0x57883F: av_new_packet (avpacket.c:87)
==2971==    by 0x5071DB: rm_assemble_video_frame (rmdec.c:664)
==2971==    by 0x5071DB: ff_rm_parse_packet (rmdec.c:729)
==2971==    by 0x5071DB: rm_read_packet (rmdec.c:869)
==2971==    by 0x53A6F3: ff_read_packet (utils.c:447)
==2971==    by 0x53BC13: read_frame_internal (utils.c:932)
==2971==    by 0x53C27F: av_read_frame (utils.c:1030)
==2971==    by 0x446F83: process_input (avconv.c:2611)
==2971==    by 0x446F83: transcode (avconv.c:2764)
==2971==    by 0x446F83: main (avconv.c:2938)
==2971== 
==2971== 4,800 bytes in 120 blocks are indirectly lost in loss record 2 of 6
==2971==    at 0x4866568: memalign (vg_replace_malloc.c:857)
==2971==    by 0x486666B: posix_memalign (vg_replace_malloc.c:1020)
==2971==    by 0xA32A83: av_malloc (mem.c:71)
==2971==    by 0xA32A83: av_mallocz (mem.c:204)
==2971==    by 0xA254C3: av_buffer_create (buffer.c:35)
==2971==    by 0xA254C3: av_buffer_realloc (buffer.c:160)
==2971==    by 0x57883F: packet_alloc (avpacket.c:75)
==2971==    by 0x57883F: av_new_packet (avpacket.c:87)
==2971==    by 0x5073DB: rm_assemble_video_frame (rmdec.c:649)
==2971==    by 0x5073DB: ff_rm_parse_packet (rmdec.c:729)
==2971==    by 0x5073DB: rm_read_packet (rmdec.c:869)
==2971==    by 0x53A6F3: ff_read_packet (utils.c:447)
==2971==    by 0x53BC13: read_frame_internal (utils.c:932)
==2971==    by 0x53C27F: av_read_frame (utils.c:1030)
==2971==    by 0x446F83: process_input (avconv.c:2611)
==2971==    by 0x446F83: transcode (avconv.c:2764)
==2971==    by 0x446F83: main (avconv.c:2938)
==2971== 
==2971== 22,194 bytes in 26 blocks are indirectly lost in loss record 3 of 6
==2971==    at 0x4864180: malloc (vg_replace_malloc.c:298)
==2971==    by 0x48663DF: realloc (vg_replace_malloc.c:785)
==2971==    by 0xA254AB: av_buffer_realloc (buffer.c:156)
==2971==    by 0x57883F: packet_alloc (avpacket.c:75)
==2971==    by 0x57883F: av_new_packet (avpacket.c:87)
==2971==    by 0x5071DB: rm_assemble_video_frame (rmdec.c:664)
==2971==    by 0x5071DB: ff_rm_parse_packet (rmdec.c:729)
==2971==    by 0x5071DB: rm_read_packet (rmdec.c:869)
==2971==    by 0x53A6F3: ff_read_packet (utils.c:447)
==2971==    by 0x53BC13: read_frame_internal (utils.c:932)
==2971==    by 0x53C27F: av_read_frame (utils.c:1030)
==2971==    by 0x446F83: process_input (avconv.c:2611)
==2971==    by 0x446F83: transcode (avconv.c:2764)
==2971==    by 0x446F83: main (avconv.c:2938)
==2971== 
==2971== 23,858 (624 direct, 23,234 indirect) bytes in 26 blocks are definitely lost in loss record 4 of 6
==2971==    at 0x4866568: memalign (vg_replace_malloc.c:857)
==2971==    by 0x486666B: posix_memalign (vg_replace_malloc.c:1020)
==2971==    by 0xA32A83: av_malloc (mem.c:71)
==2971==    by 0xA32A83: av_mallocz (mem.c:204)
==2971==    by 0xA254F3: av_buffer_create (buffer.c:49)
==2971==    by 0xA254F3: av_buffer_realloc (buffer.c:160)
==2971==    by 0x57883F: packet_alloc (avpacket.c:75)
==2971==    by 0x57883F: av_new_packet (avpacket.c:87)
==2971==    by 0x5071DB: rm_assemble_video_frame (rmdec.c:664)
==2971==    by 0x5071DB: ff_rm_parse_packet (rmdec.c:729)
==2971==    by 0x5071DB: rm_read_packet (rmdec.c:869)
==2971==    by 0x53A6F3: ff_read_packet (utils.c:447)
==2971==    by 0x53BC13: read_frame_internal (utils.c:932)
==2971==    by 0x53C27F: av_read_frame (utils.c:1030)
==2971==    by 0x446F83: process_input (avconv.c:2611)
==2971==    by 0x446F83: transcode (avconv.c:2764)
==2971==    by 0x446F83: main (avconv.c:2938)
==2971== 
==2971== 42,476 bytes in 120 blocks are indirectly lost in loss record 5 of 6
==2971==    at 0x4864180: malloc (vg_replace_malloc.c:298)
==2971==    by 0x48663DF: realloc (vg_replace_malloc.c:785)
==2971==    by 0xA254AB: av_buffer_realloc (buffer.c:156)
==2971==    by 0x57883F: packet_alloc (avpacket.c:75)
==2971==    by 0x57883F: av_new_packet (avpacket.c:87)
==2971==    by 0x5073DB: rm_assemble_video_frame (rmdec.c:649)
==2971==    by 0x5073DB: ff_rm_parse_packet (rmdec.c:729)
==2971==    by 0x5073DB: rm_read_packet (rmdec.c:869)
==2971==    by 0x53A6F3: ff_read_packet (utils.c:447)
==2971==    by 0x53BC13: read_frame_internal (utils.c:932)
==2971==    by 0x53C27F: av_read_frame (utils.c:1030)
==2971==    by 0x446F83: process_input (avconv.c:2611)
==2971==    by 0x446F83: transcode (avconv.c:2764)
==2971==    by 0x446F83: main (avconv.c:2938)
==2971== 
==2971== 50,156 (2,880 direct, 47,276 indirect) bytes in 120 blocks are definitely lost in loss record 6 of 6
==2971==    at 0x4866568: memalign (vg_replace_malloc.c:857)
==2971==    by 0x486666B: posix_memalign (vg_replace_malloc.c:1020)
==2971==    by 0xA32A83: av_malloc (mem.c:71)
==2971==    by 0xA32A83: av_mallocz (mem.c:204)
==2971==    by 0xA254F3: av_buffer_create (buffer.c:49)
==2971==    by 0xA254F3: av_buffer_realloc (buffer.c:160)
==2971==    by 0x57883F: packet_alloc (avpacket.c:75)
==2971==    by 0x57883F: av_new_packet (avpacket.c:87)
==2971==    by 0x5073DB: rm_assemble_video_frame (rmdec.c:649)
==2971==    by 0x5073DB: ff_rm_parse_packet (rmdec.c:729)
==2971==    by 0x5073DB: rm_read_packet (rmdec.c:869)
==2971==    by 0x53A6F3: ff_read_packet (utils.c:447)
==2971==    by 0x53BC13: read_frame_internal (utils.c:932)
==2971==    by 0x53C27F: av_read_frame (utils.c:1030)
==2971==    by 0x446F83: process_input (avconv.c:2611)
==2971==    by 0x446F83: transcode (avconv.c:2764)
==2971==    by 0x446F83: main (avconv.c:2938)
==2971== 
==2971== LEAK SUMMARY:
==2971==    definitely lost: 3,504 bytes in 146 blocks
==2971==    indirectly lost: 70,510 bytes in 292 blocks
==2971==      possibly lost: 0 bytes in 0 blocks
==2971==    still reachable: 0 bytes in 0 blocks
==2971==         suppressed: 0 bytes in 0 blocks
==2971== 
==2971== For counts of detected and suppressed errors, rerun with: -v
==2971== ERROR SUMMARY: 2 errors from 2 contexts (suppressed: 0 from 0)
diffstderrsvq3-21n / a
--- /home/mik/src/fate/src/tests/ref/fate/svq3-2	2017-02-27 02:04:02.564169000 -0800
+++ tests/data/fate/svq3-2	2017-07-17 08:36:07.173592000 -0700
@@ -1,5 +1,5 @@
 #tb 0: 1/19200
-0,     -20000,     -20000,        0,   185280, 0x061c0d85
+0,     -20000,     -20000,        0,   185280, 0xc0bd953f
 0,     -19200,     -19200,        0,   185280, 0x427ef9a7
 0,     -18400,     -18400,        0,   185280, 0x64c74d6a
 0,     -17600,     -17600,        0,   185280, 0x5bfd0e5b
==7999== Memcheck, a memory error detector
==7999== Copyright (C) 2002-2015, and GNU GPL'd, by Julian Seward et al.
==7999== Using Valgrind-3.13.0.SVN and LibVEX; rerun with -h for copyright info
==7999== Command: /home/mik/src/fate/armv8-linux-gcc-valgrind/build/avconv -nostats -cpuflags all -flags +bitexact -hwaccel none -threads 1 -thread_type frame+slice -i /home/mik/src/fate/fate-suite/svq3/svq3_decoding_regression.mov -an -f framecrc -
==7999== 
avconv version v13_dev0-1218-g95ce02b, Copyright (c) 2000-2017 the Libav developers
  built on Jul 17 2017 08:06:27 with gcc 5.4.0 (GCC)
Input #0, mov,mp4,m4a,3gp,3g2,mj2, from '/home/mik/src/fate/fate-suite/svq3/svq3_decoding_regression.mov':
  Metadata:
    major_brand     : qt  
    minor_version   : 512
    compatible_brands: qt  
    artist          : Mark Strube - SupaDupaStrube@msn.com
    artist-eng      : Mark Strube - SupaDupaStrube@msn.com
    title           : Movie-List Presents: The Abyss
    title-eng       : Movie-List Presents: The Abyss
    encoder         : Lavf57.66.101
    copyright       : © 1989 Twentieth Century Fox
    copyright-eng   : © 1989 Twentieth Century Fox
  Duration: 00:00:00.83, bitrate: 2376 kb/s
    Stream #0:0(eng): Video: svq3 [SVQ3 / 0x33515653]
      yuvj420p, pc, 480x257, 2366 kb/s
      24 fps, 19200 tbn (default)
    Metadata:
      handler_name    : DataHandler
      encoder         : Sorenson Video 3
Stream mapping:
  Stream #0:0 -> #0:0 (svq3 (native) -> rawvideo (native))
Press ctrl-c to stop encoding
[svq3 @ 0x4bb74e0] Missing reference frame.
Output #0, framecrc, to 'pipe:':
  Metadata:
    major_brand     : qt  
    minor_version   : 512
    compatible_brands: qt  
    artist          : Mark Strube - SupaDupaStrube@msn.com
    artist-eng      : Mark Strube - SupaDupaStrube@msn.com
    title           : Movie-List Presents: The Abyss
    title-eng       : Movie-List Presents: The Abyss
    copyright-eng   : © 1989 Twentieth Century Fox
    copyright       : © 1989 Twentieth Century Fox
    encoder         : Lavf58.0.0
    Stream #0:0(eng): Video: rawvideo [I420 / 0x30323449]
      yuvj420p, 480x257, q=2-31, 200 kb/s
      19200 tbn (default)
    Metadata:
      handler_name    : DataHandler
      encoder         : Sorenson Video 3
*** dropping frame 19 from stream 0 at ts -6400
frame=   19 fps=  0 q=-0.0 Lsize=       1kB time=10000000000.00 bitrate=   0.0kbits/s drop=1    
video:3438kB audio:0kB other streams:0kB global headers:0kB muxing overhead: unknown
==7999== 
==7999== HEAP SUMMARY:
==7999==     in use at exit: 0 bytes in 0 blocks
==7999==   total heap usage: 1,529 allocs, 1,529 frees, 8,639,530 bytes allocated
==7999== 
==7999== All heap blocks were freed -- no leaks are possible
==7999== 
==7999== For counts of detected and suppressed errors, rerun with: -v
==7999== ERROR SUMMARY: 0 errors from 0 contexts (suppressed: 0 from 0)