armv8-linux-clang-3.8 v13_dev0-1401-g5c2a01f

Architectureaarch64
Variant
CPUgeneric
OSlinux
Ownerkostylev
Compilerclang version 3.8.1 (tags/RELEASE_381/final)
Configuration--prefix=/home/mik/src/fate/armv8-linux-clang-3.8/install --samples=/home/mik/src/fate/fate-suite --enable-gpl --cc='ccache clang' --disable-debug
Comment
Revisionv13_dev0-1401-g5c2a01f
Date2017-11-14 14:29:17
Status2143 / 2149
Warnings53
Logscompile configure test
6 failed testsStatusLast good rev
diffstderrvc1_ilaced_twomv1n / a
--- /home/mik/src/fate/src/tests/ref/fate/vc1_ilaced_twomv	2016-07-03 03:12:39.834184960 -0700
+++ tests/data/fate/vc1_ilaced_twomv	2017-11-14 06:27:24.060353566 -0800
@@ -1,14 +1,14 @@
 #tb 0: 1/25
-0,          0,          0,        1,  3110400, 0x764f8856
-0,          2,          2,        1,  3110400, 0x3b615b79
-0,          3,          3,        1,  3110400, 0x4fbb6f84
-0,          4,          4,        1,  3110400, 0xc1ca8532
-0,          5,          5,        1,  3110400, 0x53efd0f9
-0,          6,          6,        1,  3110400, 0xa9605bc9
-0,          7,          7,        1,  3110400, 0xbaa9aede
-0,          8,          8,        1,  3110400, 0x602fbcd5
-0,          9,          9,        1,  3110400, 0x93d204b5
-0,         10,         10,        1,  3110400, 0x7b047286
-0,         11,         11,        1,  3110400, 0xa7cb2f84
-0,         12,         12,        1,  3110400, 0xfba20dd1
-0,         13,         13,        1,  3110400, 0x24c32a55
+0,          0,          0,        1,  3110400, 0xebce8883
+0,          2,          2,        1,  3110400, 0xd8055891
+0,          3,          3,        1,  3110400, 0x6a5b6d43
+0,          4,          4,        1,  3110400, 0xbaad837d
+0,          5,          5,        1,  3110400, 0x9819d1f3
+0,          6,          6,        1,  3110400, 0xc2335a6a
+0,          7,          7,        1,  3110400, 0x8515ad4e
+0,          8,          8,        1,  3110400, 0xfe2cbd25
+0,          9,          9,        1,  3110400, 0x29e6f9d1
+0,         10,         10,        1,  3110400, 0xffb77205
+0,         11,         11,        1,  3110400, 0x87252df4
+0,         12,         12,        1,  3110400, 0xe3ce0720
+0,         13,         13,        1,  3110400, 0xb5a329fe
avconv version v13_dev0-1401-g5c2a01f, Copyright (c) 2000-2017 the Libav developers
  built on Nov 14 2017 06:25:18 with clang version 3.8.1 (tags/RELEASE_381/final)
[vc1 @ 0x141c4240] Estimating duration from bitrate, this may be inaccurate
Input #0, vc1, from '/home/mik/src/fate/fate-suite/vc1/ilaced_twomv.vc1':
  Duration: N/A, bitrate: N/A
    Stream #0:0: Video: vc1 (Advanced)
      yuv420p, 1920x1080 [PAR 1:1 DAR 16:9]
      25 fps, 25 tbn
Stream mapping:
  Stream #0:0 -> #0:0 (vc1 (native) -> rawvideo (native))
Press ctrl-c to stop encoding
Output #0, framecrc, to 'pipe:':
  Metadata:
    encoder         : Lavf58.1.0
    Stream #0:0: Video: rawvideo [I420 / 0x30323449]
      yuv420p, 1920x1080 [PAR 1:1 DAR 16:9], q=2-31, 200 kb/s, PAR 1:1 DAR 16:9
      25 tbn
    Metadata:
      encoder         : Lavc58.5.0 rawvideo
frame=   13 fps=  0 q=-0.0 Lsize=       1kB time=0.52 bitrate=  11.8kbits/s    
video:39488kB audio:0kB other streams:0kB global headers:0kB muxing overhead: unknown
diffstderrvc1_sa000401n / a
--- /home/mik/src/fate/src/tests/ref/fate/vc1_sa00040	2016-07-03 03:12:39.834184960 -0700
+++ tests/data/fate/vc1_sa00040	2017-11-14 06:27:22.250530368 -0800
@@ -4,13 +4,13 @@
 0,          2,          2,        1,    38016, 0xa6f15db5
 0,          4,          4,        1,    38016, 0x5c4ef0e7
 0,          5,          5,        1,    38016, 0x53a42d1d
-0,          6,          6,        1,    38016, 0x68f7d89e
-0,          7,          7,        1,    38016, 0xc15f4368
-0,          8,          8,        1,    38016, 0xc15f4368
-0,          9,          9,        1,    38016, 0xd1bd47a8
-0,         10,         10,        1,    38016, 0xd1bd47a8
-0,         11,         11,        1,    38016, 0xe1e821ca
-0,         12,         12,        1,    38016, 0xe1e821ca
-0,         13,         13,        1,    38016, 0xe1e821ca
-0,         14,         14,        1,    38016, 0xe1e821ca
-0,         15,         15,        1,    38016, 0xe1e821ca
+0,          6,          6,        1,    38016, 0x1eaed89d
+0,          7,          7,        1,    38016, 0xa0764363
+0,          8,          8,        1,    38016, 0xa0764363
+0,          9,          9,        1,    38016, 0xfb8c4713
+0,         10,         10,        1,    38016, 0xfb8c4713
+0,         11,         11,        1,    38016, 0x4c7e2294
+0,         12,         12,        1,    38016, 0x4c7e2294
+0,         13,         13,        1,    38016, 0x4c7e2294
+0,         14,         14,        1,    38016, 0x4c7e2294
+0,         15,         15,        1,    38016, 0x4c7e2294
avconv version v13_dev0-1401-g5c2a01f, Copyright (c) 2000-2017 the Libav developers
  built on Nov 14 2017 06:25:18 with clang version 3.8.1 (tags/RELEASE_381/final)
[vc1 @ 0x1ba4c1e0] Estimating duration from bitrate, this may be inaccurate
Input #0, vc1, from '/home/mik/src/fate/fate-suite/vc1/SA00040.vc1':
  Duration: N/A, bitrate: N/A
    Stream #0:0: Video: vc1 (Advanced)
      yuv420p, 176x144 [PAR 1:1 DAR 11:9]
      25 fps, 25 tbn
Stream mapping:
  Stream #0:0 -> #0:0 (vc1 (native) -> rawvideo (native))
Press ctrl-c to stop encoding
Output #0, framecrc, to 'pipe:':
  Metadata:
    encoder         : Lavf58.1.0
    Stream #0:0: Video: rawvideo [I420 / 0x30323449]
      yuv420p, 176x144 [PAR 1:1 DAR 11:9], q=2-31, 200 kb/s, PAR 1:1 DAR 11:9
      25 tbn
    Metadata:
      encoder         : Lavc58.5.0 rawvideo
frame=   15 fps=  0 q=-0.0 Lsize=       1kB time=0.60 bitrate=  11.8kbits/s    
video:557kB audio:0kB other streams:0kB global headers:0kB muxing overhead: unknown
diffstderrvc1_sa000501n / a
--- /home/mik/src/fate/src/tests/ref/fate/vc1_sa00050	2016-07-03 03:12:39.834184960 -0700
+++ tests/data/fate/vc1_sa00050	2017-11-14 06:27:22.310524507 -0800
@@ -3,12 +3,12 @@
 0,          1,          1,        1,   115200, 0xb8830eef
 0,          2,          2,        1,   115200, 0xb8830eef
 0,          4,          4,        1,   115200, 0x952ff5e1
-0,          5,          5,        1,   115200, 0xa4362b14
-0,          6,          6,        1,   115200, 0x32bacbe7
-0,          7,          7,        1,   115200, 0x509eb814
-0,          8,          8,        1,   115200, 0x509eb814
-0,          9,          9,        1,   115200, 0x11a76c3e
-0,         10,         10,        1,   115200, 0x11a76c3e
+0,          5,          5,        1,   115200, 0x44522b1c
+0,          6,          6,        1,   115200, 0x1f6dcbd1
+0,          7,          7,        1,   115200, 0x4cb9b814
+0,          8,          8,        1,   115200, 0x4cb9b814
+0,          9,          9,        1,   115200, 0x93c06c1b
+0,         10,         10,        1,   115200, 0x93c06c1b
 0,         11,         11,        1,   115200, 0x00cf734a
 0,         12,         12,        1,   115200, 0x00cf734a
 0,         13,         13,        1,   115200, 0x00cf734a
@@ -19,13 +19,13 @@
 0,         18,         18,        1,   115200, 0x00cf734a
 0,         19,         19,        1,   115200, 0xfddf48e6
 0,         20,         20,        1,   115200, 0xfddf48e6
-0,         21,         21,        1,   115200, 0x1eccebbf
-0,         22,         22,        1,   115200, 0x3da2f77e
-0,         23,         23,        1,   115200, 0x7c232572
-0,         24,         24,        1,   115200, 0xedf426e5
-0,         25,         25,        1,   115200, 0x5324ab20
-0,         26,         26,        1,   115200, 0x5324ab20
-0,         27,         27,        1,   115200, 0xa23e66bb
-0,         28,         28,        1,   115200, 0x680a50ff
-0,         29,         29,        1,   115200, 0x680a50ff
-0,         30,         30,        1,   115200, 0x680a50ff
+0,         21,         21,        1,   115200, 0x8f89ebc0
+0,         22,         22,        1,   115200, 0xba5ef777
+0,         23,         23,        1,   115200, 0x678d2572
+0,         24,         24,        1,   115200, 0xc07d2709
+0,         25,         25,        1,   115200, 0x4c08aaff
+0,         26,         26,        1,   115200, 0x4c08aaff
+0,         27,         27,        1,   115200, 0x5d9b6695
+0,         28,         28,        1,   115200, 0x556350d9
+0,         29,         29,        1,   115200, 0x556350d9
+0,         30,         30,        1,   115200, 0x556350d9
avconv version v13_dev0-1401-g5c2a01f, Copyright (c) 2000-2017 the Libav developers
  built on Nov 14 2017 06:25:18 with clang version 3.8.1 (tags/RELEASE_381/final)
[vc1 @ 0x165a61e0] Estimating duration from bitrate, this may be inaccurate
Input #0, vc1, from '/home/mik/src/fate/fate-suite/vc1/SA00050.vc1':
  Duration: N/A, bitrate: N/A
    Stream #0:0: Video: vc1 (Advanced)
      yuv420p, 320x240 [PAR 1:1 DAR 4:3]
      25 fps, 25 tbn
Stream mapping:
  Stream #0:0 -> #0:0 (vc1 (native) -> rawvideo (native))
Press ctrl-c to stop encoding
Output #0, framecrc, to 'pipe:':
  Metadata:
    encoder         : Lavf58.1.0
    Stream #0:0: Video: rawvideo [I420 / 0x30323449]
      yuv420p, 320x240 [PAR 1:1 DAR 4:3], q=2-31, 200 kb/s, PAR 1:1 DAR 4:3
      25 tbn
    Metadata:
      encoder         : Lavc58.5.0 rawvideo
frame=   30 fps=  0 q=-0.0 Lsize=       2kB time=1.20 bitrate=  11.7kbits/s    
video:3375kB audio:0kB other streams:0kB global headers:0kB muxing overhead: unknown
diffstderrvc1_sa100911n / a
--- /home/mik/src/fate/src/tests/ref/fate/vc1_sa10091	2016-07-03 03:12:39.834184960 -0700
+++ tests/data/fate/vc1_sa10091	2017-11-14 06:27:22.500505948 -0800
@@ -9,23 +9,23 @@
 0,          8,          8,        1,   518400, 0x70d9a891
 0,          9,          9,        1,   518400, 0x70d9a891
 0,         10,         10,        1,   518400, 0xa461ee86
-0,         11,         11,        1,   518400, 0x722bc6e8
-0,         12,         12,        1,   518400, 0x722bc6e8
-0,         13,         13,        1,   518400, 0x722bc6e8
-0,         14,         14,        1,   518400, 0xf752fd2c
-0,         15,         15,        1,   518400, 0xf752fd2c
-0,         16,         16,        1,   518400, 0x91abcaca
-0,         17,         17,        1,   518400, 0x572727c3
-0,         18,         18,        1,   518400, 0x572727c3
-0,         19,         19,        1,   518400, 0x24c12382
-0,         20,         20,        1,   518400, 0x24c12382
-0,         21,         21,        1,   518400, 0x9aa39fe8
-0,         22,         22,        1,   518400, 0x9aa39fe8
-0,         23,         23,        1,   518400, 0x5cb6bd19
-0,         24,         24,        1,   518400, 0x704d9300
-0,         25,         25,        1,   518400, 0x590fad49
-0,         26,         26,        1,   518400, 0x590fad49
-0,         27,         27,        1,   518400, 0x590fad49
-0,         28,         28,        1,   518400, 0x46bea10b
-0,         29,         29,        1,   518400, 0x46bea10b
-0,         30,         30,        1,   518400, 0x46bea10b
+0,         11,         11,        1,   518400, 0x3628c70a
+0,         12,         12,        1,   518400, 0x3628c70a
+0,         13,         13,        1,   518400, 0x3628c70a
+0,         14,         14,        1,   518400, 0x83f3fda3
+0,         15,         15,        1,   518400, 0x83f3fda3
+0,         16,         16,        1,   518400, 0x21a4cb0c
+0,         17,         17,        1,   518400, 0x11cd27d7
+0,         18,         18,        1,   518400, 0x11cd27d7
+0,         19,         19,        1,   518400, 0x7ba5238f
+0,         20,         20,        1,   518400, 0x7ba5238f
+0,         21,         21,        1,   518400, 0xe26aa02d
+0,         22,         22,        1,   518400, 0xe26aa02d
+0,         23,         23,        1,   518400, 0x7daebd63
+0,         24,         24,        1,   518400, 0x9d72937a
+0,         25,         25,        1,   518400, 0x38e4ae50
+0,         26,         26,        1,   518400, 0x38e4ae50
+0,         27,         27,        1,   518400, 0x38e4ae50
+0,         28,         28,        1,   518400, 0x0353a150
+0,         29,         29,        1,   518400, 0x0353a150
+0,         30,         30,        1,   518400, 0x0353a150
avconv version v13_dev0-1401-g5c2a01f, Copyright (c) 2000-2017 the Libav developers
  built on Nov 14 2017 06:25:18 with clang version 3.8.1 (tags/RELEASE_381/final)
[vc1 @ 0x9fb31e0] Estimating duration from bitrate, this may be inaccurate
Input #0, vc1, from '/home/mik/src/fate/fate-suite/vc1/SA10091.vc1':
  Duration: N/A, bitrate: N/A
    Stream #0:0: Video: vc1 (Advanced)
      yuv420p, 720x480 [PAR 1:1 DAR 3:2]
      25 fps, 25 tbn
Stream mapping:
  Stream #0:0 -> #0:0 (vc1 (native) -> rawvideo (native))
Press ctrl-c to stop encoding
Output #0, framecrc, to 'pipe:':
  Metadata:
    encoder         : Lavf58.1.0
    Stream #0:0: Video: rawvideo [I420 / 0x30323449]
      yuv420p, 720x480 [PAR 1:1 DAR 3:2], q=2-31, 200 kb/s, PAR 1:1 DAR 3:2
      25 tbn
    Metadata:
      encoder         : Lavc58.5.0 rawvideo
frame=   30 fps=  0 q=-0.0 Lsize=       2kB time=1.20 bitrate=  11.7kbits/s    
video:15188kB audio:0kB other streams:0kB global headers:0kB muxing overhead: unknown
diffstderrvc1_sa200211n / a
--- /home/mik/src/fate/src/tests/ref/fate/vc1_sa20021	2016-07-03 03:12:39.834184960 -0700
+++ tests/data/fate/vc1_sa20021	2017-11-14 06:27:23.150442455 -0800
@@ -1,61 +1,61 @@
 #tb 0: 1/25
 0,          0,          0,        1,   506880, 0x884bc093
 0,          2,          2,        1,   506880, 0x4b09548f
-0,          3,          3,        1,   506880, 0x195cbee1
-0,          4,          4,        1,   506880, 0xc8141e28
-0,          5,          5,        1,   506880, 0xb170c49b
-0,          6,          6,        1,   506880, 0x2782268a
-0,          7,          7,        1,   506880, 0x2782268a
-0,          8,          8,        1,   506880, 0x2782268a
-0,          9,          9,        1,   506880, 0x2782268a
-0,         10,         10,        1,   506880, 0xe6803b32
-0,         11,         11,        1,   506880, 0xe6803b32
-0,         12,         12,        1,   506880, 0xa5ef9baf
-0,         13,         13,        1,   506880, 0xa5ef9baf
-0,         14,         14,        1,   506880, 0x46e8cbcb
-0,         15,         15,        1,   506880, 0x28a2239b
-0,         16,         16,        1,   506880, 0x7667af2f
-0,         17,         17,        1,   506880, 0x7667af2f
-0,         18,         18,        1,   506880, 0x8011bcaf
-0,         19,         19,        1,   506880, 0xd422115b
-0,         20,         20,        1,   506880, 0xd422115b
-0,         21,         21,        1,   506880, 0xd422115b
-0,         22,         22,        1,   506880, 0xbcee0b5b
-0,         23,         23,        1,   506880, 0x08fe9ec8
-0,         24,         24,        1,   506880, 0xc8fb8b37
-0,         25,         25,        1,   506880, 0xc8fb8b37
-0,         26,         26,        1,   506880, 0x2c698b52
-0,         27,         27,        1,   506880, 0x2c698b52
-0,         28,         28,        1,   506880, 0x2c698b52
-0,         29,         29,        1,   506880, 0x2b4ad9bc
-0,         30,         30,        1,   506880, 0x2b4ad9bc
-0,         31,         31,        1,   506880, 0x2b4ad9bc
-0,         32,         32,        1,   506880, 0x2b4ad9bc
-0,         33,         33,        1,   506880, 0x92e84ebb
-0,         34,         34,        1,   506880, 0x92e84ebb
-0,         35,         35,        1,   506880, 0xdb877da3
-0,         36,         36,        1,   506880, 0xdb877da3
-0,         37,         37,        1,   506880, 0xdb877da3
-0,         38,         38,        1,   506880, 0x44610654
-0,         39,         39,        1,   506880, 0x44610654
-0,         40,         40,        1,   506880, 0xe254ce67
-0,         41,         41,        1,   506880, 0xa6085385
-0,         42,         42,        1,   506880, 0x2d45d744
-0,         43,         43,        1,   506880, 0x2d45d744
-0,         44,         44,        1,   506880, 0x6e684f51
-0,         45,         45,        1,   506880, 0xe96186cf
-0,         46,         46,        1,   506880, 0xb535d369
-0,         47,         47,        1,   506880, 0xb535d369
-0,         48,         48,        1,   506880, 0xb535d369
-0,         49,         49,        1,   506880, 0xeed0b7e0
-0,         50,         50,        1,   506880, 0xeed0b7e0
-0,         51,         51,        1,   506880, 0xeed0b7e0
-0,         52,         52,        1,   506880, 0xeed0b7e0
-0,         53,         53,        1,   506880, 0x8789b20b
-0,         54,         54,        1,   506880, 0x0a0f42fb
-0,         55,         55,        1,   506880, 0x09bbac2d
-0,         56,         56,        1,   506880, 0x09bbac2d
-0,         57,         57,        1,   506880, 0x09bbac2d
-0,         58,         58,        1,   506880, 0x09bbac2d
-0,         59,         59,        1,   506880, 0x09bbac2d
-0,         60,         60,        1,   506880, 0xda77f0df
+0,          3,          3,        1,   506880, 0xfb98bede
+0,          4,          4,        1,   506880, 0x92021e4b
+0,          5,          5,        1,   506880, 0xce86c4aa
+0,          6,          6,        1,   506880, 0x556b26b4
+0,          7,          7,        1,   506880, 0x556b26b4
+0,          8,          8,        1,   506880, 0x556b26b4
+0,          9,          9,        1,   506880, 0x556b26b4
+0,         10,         10,        1,   506880, 0xba563b50
+0,         11,         11,        1,   506880, 0xba563b50
+0,         12,         12,        1,   506880, 0x21f69be7
+0,         13,         13,        1,   506880, 0x21f69be7
+0,         14,         14,        1,   506880, 0x6d02cbc3
+0,         15,         15,        1,   506880, 0x8b6523a5
+0,         16,         16,        1,   506880, 0x92b9af38
+0,         17,         17,        1,   506880, 0x92b9af38
+0,         18,         18,        1,   506880, 0xe951bcbe
+0,         19,         19,        1,   506880, 0x93df10e8
+0,         20,         20,        1,   506880, 0x93df10e8
+0,         21,         21,        1,   506880, 0x93df10e8
+0,         22,         22,        1,   506880, 0xca8d0b6b
+0,         23,         23,        1,   506880, 0x9a0d9eb7
+0,         24,         24,        1,   506880, 0x4fe98b5d
+0,         25,         25,        1,   506880, 0x4fe98b5d
+0,         26,         26,        1,   506880, 0x18728b58
+0,         27,         27,        1,   506880, 0x18728b58
+0,         28,         28,        1,   506880, 0x18728b58
+0,         29,         29,        1,   506880, 0x87d9d9c4
+0,         30,         30,        1,   506880, 0x87d9d9c4
+0,         31,         31,        1,   506880, 0x87d9d9c4
+0,         32,         32,        1,   506880, 0x87d9d9c4
+0,         33,         33,        1,   506880, 0x7b164ebd
+0,         34,         34,        1,   506880, 0x7b164ebd
+0,         35,         35,        1,   506880, 0x01877d8c
+0,         36,         36,        1,   506880, 0x01877d8c
+0,         37,         37,        1,   506880, 0x01877d8c
+0,         38,         38,        1,   506880, 0xe08f0637
+0,         39,         39,        1,   506880, 0xe08f0637
+0,         40,         40,        1,   506880, 0x77e0cf72
+0,         41,         41,        1,   506880, 0x5df4542c
+0,         42,         42,        1,   506880, 0xde84d6a2
+0,         43,         43,        1,   506880, 0xde84d6a2
+0,         44,         44,        1,   506880, 0x0bc74f80
+0,         45,         45,        1,   506880, 0x77778684
+0,         46,         46,        1,   506880, 0xe42ad35f
+0,         47,         47,        1,   506880, 0xe42ad35f
+0,         48,         48,        1,   506880, 0xe42ad35f
+0,         49,         49,        1,   506880, 0xb877b769
+0,         50,         50,        1,   506880, 0xb877b769
+0,         51,         51,        1,   506880, 0xb877b769
+0,         52,         52,        1,   506880, 0xb877b769
+0,         53,         53,        1,   506880, 0x9b63b135
+0,         54,         54,        1,   506880, 0xcff94298
+0,         55,         55,        1,   506880, 0xb373abd7
+0,         56,         56,        1,   506880, 0xb373abd7
+0,         57,         57,        1,   506880, 0xb373abd7
+0,         58,         58,        1,   506880, 0xb373abd7
+0,         59,         59,        1,   506880, 0xb373abd7
+0,         60,         60,        1,   506880, 0xf5f3f0b4
avconv version v13_dev0-1401-g5c2a01f, Copyright (c) 2000-2017 the Libav developers
  built on Nov 14 2017 06:25:18 with clang version 3.8.1 (tags/RELEASE_381/final)
[vc1 @ 0x37f671e0] Estimating duration from bitrate, this may be inaccurate
Input #0, vc1, from '/home/mik/src/fate/fate-suite/vc1/SA20021.vc1':
  Duration: N/A, bitrate: N/A
    Stream #0:0: Video: vc1 (Advanced)
      yuv420p, 704x480 [PAR 1:1 DAR 22:15]
      25 fps, 25 tbn
Stream mapping:
  Stream #0:0 -> #0:0 (vc1 (native) -> rawvideo (native))
Press ctrl-c to stop encoding
Output #0, framecrc, to 'pipe:':
  Metadata:
    encoder         : Lavf58.1.0
    Stream #0:0: Video: rawvideo [I420 / 0x30323449]
      yuv420p, 704x480 [PAR 1:1 DAR 22:15], q=2-31, 200 kb/s, PAR 1:1 DAR 22:15
      25 tbn
    Metadata:
      encoder         : Lavc58.5.0 rawvideo
frame=   60 fps=  0 q=-0.0 Lsize=       3kB time=2.40 bitrate=  11.6kbits/s    
video:29700kB audio:0kB other streams:0kB global headers:0kB muxing overhead: unknown
diffstderrwmv3-drm-dec1n / a
--- /home/mik/src/fate/src/tests/ref/fate/wmv3-drm-dec	2017-02-28 04:46:08.592180680 -0800
+++ tests/data/fate/wmv3-drm-dec	2017-11-14 06:27:21.760578231 -0800
@@ -3,15 +3,15 @@
 0,       1208,       1208,        0,    84480, 0xfe39a1db
 0,       1250,       1250,        0,    84480, 0xd71961b4
 0,       1291,       1291,        0,    84480, 0xc80dedba
-0,       1333,       1333,        0,    84480, 0x34d8b538
-0,       1375,       1375,        0,    84480, 0x1a86b8e5
-0,       1416,       1416,        0,    84480, 0xabf7c25d
-0,       1458,       1458,        0,    84480, 0x912600ee
-0,       1500,       1500,        0,    84480, 0x7ee7c70b
-0,       1541,       1541,        0,    84480, 0x09c5b0d1
-0,       1583,       1583,        0,    84480, 0x6dbe6c0c
-0,       1625,       1625,        0,    84480, 0x0fe0a120
-0,       1666,       1666,        0,    84480, 0x2352d3a2
+0,       1333,       1333,        0,    84480, 0x5e6ab538
+0,       1375,       1375,        0,    84480, 0xc0a7b8f2
+0,       1416,       1416,        0,    84480, 0x6a54c28a
+0,       1458,       1458,        0,    84480, 0x967c0124
+0,       1500,       1500,        0,    84480, 0xe54cc714
+0,       1541,       1541,        0,    84480, 0x77f7b10a
+0,       1583,       1583,        0,    84480, 0xfcaf6c4f
+0,       1625,       1625,        0,    84480, 0x7906a184
+0,       1666,       1666,        0,    84480, 0x8d80d3e2
 0,       1708,       1708,        0,    84480, 0xb22ce92e
 0,       1750,       1750,        0,    84480, 0x31db0099
 0,       1791,       1791,        0,    84480, 0xad2dd73a
@@ -39,48 +39,48 @@
 0,       2708,       2708,        0,    84480, 0xbadd61ca
 0,       2750,       2750,        0,    84480, 0x2060465b
 0,       2791,       2791,        0,    84480, 0x256e6965
-0,       2833,       2833,        0,    84480, 0x243b7084
-0,       2875,       2875,        0,    84480, 0x8b3c0b47
-0,       2916,       2916,        0,    84480, 0xc174a9af
-0,       2958,       2958,        0,    84480, 0xb6d48686
-0,       3000,       3000,        0,    84480, 0xa3dd1871
-0,       3041,       3041,        0,    84480, 0x04cdcaf7
-0,       3083,       3083,        0,    84480, 0x55f89c94
-0,       3125,       3125,        0,    84480, 0xda657032
-0,       3166,       3166,        0,    84480, 0x38ba7698
-0,       3208,       3208,        0,    84480, 0x4d03a7f2
-0,       3250,       3250,        0,    84480, 0x115d9035
-0,       3291,       3291,        0,    84480, 0x24c6acc6
-0,       3333,       3333,        0,    84480, 0xdd2bbcae
-0,       3375,       3375,        0,    84480, 0xb4fee0b9
-0,       3416,       3416,        0,    84480, 0xc51c14e0
-0,       3458,       3458,        0,    84480, 0xfb7737de
-0,       3500,       3500,        0,    84480, 0x38675fb0
-0,       3541,       3541,        0,    84480, 0x4752c710
-0,       3583,       3583,        0,    84480, 0xfeb7491b
-0,       3625,       3625,        0,    84480, 0xaa248122
-0,       3666,       3666,        0,    84480, 0x9a4af87c
-0,       3708,       3708,        0,    84480, 0xedcf09df
-0,       3750,       3750,        0,    84480, 0x563a05df
-0,       3791,       3791,        0,    84480, 0x0dde1e03
-0,       3833,       3833,        0,    84480, 0xd8f0ff65
-0,       3875,       3875,        0,    84480, 0xbeb9ae1a
-0,       3916,       3916,        0,    84480, 0x416d1468
-0,       3958,       3958,        0,    84480, 0x66c87d4c
-0,       4000,       4000,        0,    84480, 0xa67c0774
-0,       4041,       4041,        0,    84480, 0xd8f8aec1
-0,       4083,       4083,        0,    84480, 0xadfa502b
-0,       4125,       4125,        0,    84480, 0x50bf20e4
-0,       4166,       4166,        0,    84480, 0xbcb3d8cc
-0,       4208,       4208,        0,    84480, 0xa54677d7
-0,       4250,       4250,        0,    84480, 0x3566042d
-0,       4291,       4291,        0,    84480, 0x4c9eed57
-0,       4333,       4333,        0,    84480, 0xc3b90e58
-0,       4375,       4375,        0,    84480, 0x3c042bfa
-0,       4416,       4416,        0,    84480, 0x19f8e890
-0,       4458,       4458,        0,    84480, 0xd3dacfb9
-0,       4500,       4500,        0,    84480, 0x2365fc6f
-0,       4541,       4541,        0,    84480, 0xa2c19d00
+0,       2833,       2833,        0,    84480, 0x480e7087
+0,       2875,       2875,        0,    84480, 0x6ffc0a7f
+0,       2916,       2916,        0,    84480, 0xaed8a69e
+0,       2958,       2958,        0,    84480, 0xdafe8530
+0,       3000,       3000,        0,    84480, 0xe5511713
+0,       3041,       3041,        0,    84480, 0xb4a7c99e
+0,       3083,       3083,        0,    84480, 0x42839b17
+0,       3125,       3125,        0,    84480, 0x57706eb3
+0,       3166,       3166,        0,    84480, 0x963d7526
+0,       3208,       3208,        0,    84480, 0xd474a67e
+0,       3250,       3250,        0,    84480, 0xcb3d8eca
+0,       3291,       3291,        0,    84480, 0x737bab6b
+0,       3333,       3333,        0,    84480, 0xd3f4bb7e
+0,       3375,       3375,        0,    84480, 0xdff5e016
+0,       3416,       3416,        0,    84480, 0x7ff71432
+0,       3458,       3458,        0,    84480, 0x9efc3734
+0,       3500,       3500,        0,    84480, 0x50c25f0a
+0,       3541,       3541,        0,    84480, 0x4fbcc668
+0,       3583,       3583,        0,    84480, 0xc75c485e
+0,       3625,       3625,        0,    84480, 0x7536806e
+0,       3666,       3666,        0,    84480, 0x4848f7c9
+0,       3708,       3708,        0,    84480, 0x7454091a
+0,       3750,       3750,        0,    84480, 0x2d320519
+0,       3791,       3791,        0,    84480, 0x24191d50
+0,       3833,       3833,        0,    84480, 0xc7a8feae
+0,       3875,       3875,        0,    84480, 0x30a6ad62
+0,       3916,       3916,        0,    84480, 0x0fb113ca
+0,       3958,       3958,        0,    84480, 0xad9d7cbd
+0,       4000,       4000,        0,    84480, 0x02e906d2
+0,       4041,       4041,        0,    84480, 0xe5deae33
+0,       4083,       4083,        0,    84480, 0x85304fa8
+0,       4125,       4125,        0,    84480, 0x15bd2070
+0,       4166,       4166,        0,    84480, 0x9319d84d
+0,       4208,       4208,        0,    84480, 0x37767754
+0,       4250,       4250,        0,    84480, 0x0c3203b6
+0,       4291,       4291,        0,    84480, 0xb899ecd9
+0,       4333,       4333,        0,    84480, 0xe2180e0f
+0,       4375,       4375,        0,    84480, 0x67e82bb0
+0,       4416,       4416,        0,    84480, 0x72afe865
+0,       4458,       4458,        0,    84480, 0xb6ebcfb4
+0,       4500,       4500,        0,    84480, 0xbe55fc6c
+0,       4541,       4541,        0,    84480, 0x65399d04
 0,       4583,       4583,        0,    84480, 0xce94336f
 0,       4625,       4625,        0,    84480, 0xfa9bcf14
 0,       4916,       4916,        0,    84480, 0x24d6a243
@@ -115,16 +115,16 @@
 0,       6125,       6125,        0,    84480, 0xaa85c9b1
 0,       6166,       6166,        0,    84480, 0xa005edaf
 0,       6208,       6208,        0,    84480, 0x7fc4e5cc
-0,       6250,       6250,        0,    84480, 0xb0f6e8d1
-0,       6291,       6291,        0,    84480, 0x9ef9f330
-0,       6333,       6333,        0,    84480, 0xbe14ff1f
-0,       6375,       6375,        0,    84480, 0xd494048c
-0,       6416,       6416,        0,    84480, 0x046166a7
-0,       6458,       6458,        0,    84480, 0x052a09b2
-0,       6500,       6500,        0,    84480, 0x71fff4ab
-0,       6541,       6541,        0,    84480, 0xb9684e41
-0,       6583,       6583,        0,    84480, 0x1ddce068
-0,       6625,       6625,        0,    84480, 0xb9de300e
-0,       6666,       6666,        0,    84480, 0x13962590
-0,       6708,       6708,        0,    84480, 0xde79482f
-0,       6750,       6750,        0,    84480, 0x7d1ca064
+0,       6250,       6250,        0,    84480, 0x02e8e8d1
+0,       6291,       6291,        0,    84480, 0xe250f32a
+0,       6333,       6333,        0,    84480, 0xe58bff45
+0,       6375,       6375,        0,    84480, 0x353404b6
+0,       6416,       6416,        0,    84480, 0x5efa66b6
+0,       6458,       6458,        0,    84480, 0xb60e0993
+0,       6500,       6500,        0,    84480, 0xa1c6f494
+0,       6541,       6541,        0,    84480, 0x36024deb
+0,       6583,       6583,        0,    84480, 0xe942e045
+0,       6625,       6625,        0,    84480, 0x74112fec
+0,       6666,       6666,        0,    84480, 0x81e72572
+0,       6708,       6708,        0,    84480, 0x306e47fc
+0,       6750,       6750,        0,    84480, 0x872aa05d
avconv version v13_dev0-1401-g5c2a01f, Copyright (c) 2000-2017 the Libav developers
  built on Nov 14 2017 06:25:18 with clang version 3.8.1 (tags/RELEASE_381/final)
Input #0, asf, from '/home/mik/src/fate/fate-suite/wmv3/wmv_drm.wmv':
  Metadata:
    creation_time   : 2003-04-17 13:57:22
    Title           : Sample File
    Author          : Microsoft
    Copyright       : 2003
    Description     : This is a sample, proteced by www.EZDRM.com
    Rate            : G
    WMFSDKVersion   : 9.00.00.2980
    WMFSDKNeeded    : 0.0.0.0000
    IsVBR           : 0
  Duration: 00:00:34.87, start: 0.000000, bitrate: 45 kb/s
    Stream #0:0(eng): Audio: wmavoice [[10][0][0][0] / 0x000A]
      22050 Hz, mono, flt, 20 kb/s
    Metadata:
      IsVBR           : 0
      DeviceConformanceTemplate: S1
    Stream #0:1(eng): Video: wmv3 (Main) [WMV3 / 0x33564D57]
      yuv420p, 320x176
      24 fps, 1k tbn
    Metadata:
      IsVBR           : 0
      DeviceConformanceTemplate: MP@LL
Stream mapping:
  Stream #0:1 -> #0:0 (wmv3 (native) -> rawvideo (native))
Press ctrl-c to stop encoding
Output #0, framecrc, to 'pipe:':
  Metadata:
    creation_time   : 2003-04-17 13:57:22
    Title           : Sample File
    Author          : Microsoft
    Copyright       : 2003
    Description     : This is a sample, proteced by www.EZDRM.com
    Rate            : G
    WMFSDKVersion   : 9.00.00.2980
    WMFSDKNeeded    : 0.0.0.0000
    IsVBR           : 0
    encoder         : Lavf58.1.0
    Stream #0:0(eng): Video: rawvideo [I420 / 0x30323449]
      yuv420p, 320x176, q=2-31, 200 kb/s
      1k tbn
    Metadata:
      IsVBR           : 0
      DeviceConformanceTemplate: MP@LL
      encoder         : Lavc58.5.0 rawvideo
frame=  129 fps=  0 q=-0.0 Lsize=       7kB time=6.75 bitrate=   8.9kbits/s    
video:10642kB audio:0kB other streams:0kB global headers:0kB muxing overhead: unknown