armv7-linux-clang v13_dev0-1217-g825e463

Architecturearm
Variantarmv7a
CPUarmv7-a
OSlinux
Ownerkostylev
Compilerclang version 5.0.0 (trunk 307630)
Configuration--prefix=/home/mik/src/fate/armv7-linux-clang/install --samples=/home/mik/src/fate/fate-suite --enable-gpl --arch=arm --cpu=armv7-a --cross-prefix=arm-linux-gnueabihf- --cc='ccache arm-linux-gnueabihf-clang -gcc-toolchain /home/mik/misc/arm-linux-gnueabihf' --target-os=linux --sysroot=/home/mik/misc/arm-linux-gnueabihf/arm-linux-gnueabihf --extra-ldflags=-static --disable-debug
Comment
Revisionv13_dev0-1217-g825e463
Date2017-07-11 13:45:39
Status2109 / 2111
Warnings57
Logscompile configure test
2 failed testsStatusLast good rev
diffstderrbmp-1bit1v13_dev0-1216-g0f5ad12
--- /home/mik/src/fate/src/tests/ref/fate/bmp-1bit	2016-07-03 03:12:39.524184960 -0700
+++ tests/data/fate/bmp-1bit	2017-07-11 06:41:35.451982195 -0700
@@ -1,2 +1,2 @@
 #tb 0: 1/25
-0,          0,          0,        1,    24384, 0x4c968301
+0,          0,          0,        1,    24384, 0x2dff8301
avconv version v13_dev0-1217-g825e463, Copyright (c) 2000-2017 the Libav developers
  built on Jul 11 2017 06:40:34 with clang version 5.0.0 (trunk 307630)
Input #0, image2, from '/home/mik/src/fate/fate-suite/bmp/test1.bmp':
  Duration: 00:00:00.04, start: 0.000000, bitrate: N/A
    Stream #0:0: Video: bmp
      pal8, 127x64
      25 tbn
Stream mapping:
  Stream #0:0 -> #0:0 (bmp (native) -> rawvideo (native))
Press ctrl-c to stop encoding
Output #0, framecrc, to 'pipe:':
  Metadata:
    encoder         : Lavf58.0.0
    Stream #0:0: Video: rawvideo [RGB[24] / 0x18424752]
      rgb24, 127x64, q=2-31, 200 kb/s
      25 tbn
    Metadata:
      encoder         : Lavc58.4.0 rawvideo
frame=    1 fps=  0 q=-0.0 Lsize=       0kB time=10000000000.00 bitrate=   0.0kbits/s    
video:24kB audio:0kB other streams:0kB global headers:0kB muxing overhead: unknown
diffstderrcheckasm-vp9dsp1v13_dev0-1201-g61f589e
No diff output recorded
checkasm: using random seed 727059093
NEON:
   vp9_inv_dct_dct_8x8_sub2_add_neon (vp9dsp.c:304)
   vp9_inv_dct_dct_8x8_sub4_add_neon (vp9dsp.c:304)
   vp9_inv_dct_dct_8x8_sub8_add_neon (vp9dsp.c:304)
   vp9_inv_adst_dct_8x8_sub8_add_neon (vp9dsp.c:304)
   vp9_inv_dct_adst_8x8_sub8_add_neon (vp9dsp.c:304)
   vp9_inv_adst_adst_8x8_sub8_add_neon (vp9dsp.c:304)
 - vp9dsp.itxfm      [FAILED]
 - vp9dsp.loopfilter [OK]
 - vp9dsp.mc         [OK]
checkasm: 6 of 149 tests have failed