armv7-hf-linux-gcc-4.6 v13_dev0-1649-ge5afa1b

Architecturearm
Variantarmv7a
CPUarmv7-a
OSlinux
Ownermartin
Compilergcc 4.6 (Ubuntu/Linaro 4.6.3-1ubuntu5)
Configuration--enable-gpl --prefix=/home/martin/fate-local/install --samples=/home/martin/fate-local/samples --arch=arm --cpu=armv7-a --target-os=linux
Comment
Revisionv13_dev0-1649-ge5afa1b
Date2019-08-26 02:17:49
Status2168 / 2169
Warnings400
Logscompile configure test
1 failed testsStatusLast good rev
diffstderrvsynth1-v210-101v13_dev0-1648-gc464278
--- /home/martin/fate-local/src/tests/ref/vsynth/vsynth1-v210-10	2016-01-26 11:11:14.715179362 +0200
+++ tests/data/fate/vsynth1-v210-10	2019-08-26 04:31:39.719785126 +0300
@@ -1,4 +1,4 @@
-054d7e903fb4d9e68700c56b93d45916 *tests/data/fate/vsynth1-v210-10.avi
+e44a8c0f0b5e53a15cd25a8e066aafb3 *tests/data/fate/vsynth1-v210-10.avi
 14752448 tests/data/fate/vsynth1-v210-10.avi
-50973792d3f1abe04a51ee0121f077f2 *tests/data/fate/vsynth1-v210-10.out.rawvideo
-stddev:    1.85 PSNR: 42.78 MAXDIFF:   29 bytes:  7603200/  7603200
+efc558de65900f80729d373465ff4a95 *tests/data/fate/vsynth1-v210-10.out.rawvideo
+stddev:    1.85 PSNR: 42.78 MAXDIFF:   56 bytes:  7603200/  7603200
avconv version v13_dev0-1649-ge5afa1b, Copyright (c) 2000-2018 the Libav developers
  built on Aug 26 2019 04:10:35 with gcc 4.6 (Ubuntu/Linaro 4.6.3-1ubuntu5)
[rawvideo @ 0x1efb320] Estimating duration from bitrate, this may be inaccurate
Input #0, rawvideo, from '/home/martin/fate-local/build/tests/data/vsynth1.yuv':
  Duration: N/A, start: 0.000000, bitrate: N/A
    Stream #0:0: Video: rawvideo
      yuv420p, 352x288
      25 fps, 25 tbn
Stream mapping:
  Stream #0:0 -> #0:0 (rawvideo (native) -> v210 (native))
Press ctrl-c to stop encoding
Output #0, avi, to '/home/martin/fate-local/build/tests/data/fate/vsynth1-v210-10.avi':
    Stream #0:0: Video: v210 [v210 / 0x30313276]
      yuv422p10le, 352x288, q=2-31, 200 kb/s
      25 fps, 25 tbn
    Metadata:
      encoder         : v210
frame=   50 fps= 49 q=-0.0 Lsize=   14407kB time=1.96 bitrate=60214.1kbits/s    
video:14400kB audio:0kB other streams:0kB global headers:0kB muxing overhead: 0.046441%
avconv version v13_dev0-1649-ge5afa1b, Copyright (c) 2000-2018 the Libav developers
  built on Aug 26 2019 04:10:35 with gcc 4.6 (Ubuntu/Linaro 4.6.3-1ubuntu5)
Input #0, avi, from '/home/martin/fate-local/build/tests/data/fate/vsynth1-v210-10.avi':
  Duration: 00:00:02.00, start: 0.000000, bitrate: 59009 kb/s
    Stream #0:0: Video: v210 [v210 / 0x30313276]
      yuv422p10le, 352x288
      25 fps, 25 tbn
Stream mapping:
  Stream #0:0 -> #0:0 (v210 (native) -> rawvideo (native))
Press ctrl-c to stop encoding
Output #0, rawvideo, to '/home/martin/fate-local/build/tests/data/fate/vsynth1-v210-10.out.rawvideo':
    Stream #0:0: Video: rawvideo [I420 / 0x30323449]
      yuv420p, 352x288, q=2-31, 200 kb/s
      25 tbn
    Metadata:
      encoder         : rawvideo
frame=   50 fps=  0 q=-0.0 Lsize=    7425kB time=1.96 bitrate=31033.5kbits/s    
video:7425kB audio:0kB other streams:0kB global headers:0kB muxing overhead: 0.000000%