armv7-hf-linux-gcc-4.6 v13_dev0-1648-gc464278

Architecturearm
Variantarmv7a
CPUarmv7-a
OSlinux
Ownermartin
Compilergcc 4.6 (Ubuntu/Linaro 4.6.3-1ubuntu5)
Configuration--enable-gpl --prefix=/home/martin/fate-local/install --samples=/home/martin/fate-local/samples --arch=arm --cpu=armv7-a --target-os=linux
Comment
Revisionv13_dev0-1648-gc464278
Date2019-04-22 02:17:01
Status2168 / 2169
Warnings400
Logscompile configure test
1 failed testsStatusLast good rev
diffstderrvorbis-101v13_dev0-1643-g0676de9
stddev:   44.44 PSNR: 63.37 MAXDIFF: 2498 bytes:   803328/   803328
avconv version v13_dev0-1648-gc464278, Copyright (c) 2000-2018 the Libav developers
  built on Apr 22 2019 04:10:43 with gcc 4.6 (Ubuntu/Linaro 4.6.3-1ubuntu5)
Input #0, ogg, from '/home/martin/fate-local/samples/vorbis/lsp-test4_small.ogg':
  Duration: 00:00:04.55, start: 0.000000, bitrate: 175 kb/s
    Stream #0:0: Audio: vorbis
      44100 Hz, stereo, fltp, 160 kb/s
Codec AVOption threads () specified for input file #0 (/home/martin/fate-local/samples/vorbis/lsp-test4_small.ogg) has not been used for any stream. The most likely reason is either wrong type (e.g. a video option with no video streams) or that it is a private option of some decoder which was not actually used for any stream.
Codec AVOption thread_type (select multithreading type) specified for input file #0 (/home/martin/fate-local/samples/vorbis/lsp-test4_small.ogg) has not been used for any stream. The most likely reason is either wrong type (e.g. a video option with no video streams) or that it is a private option of some decoder which was not actually used for any stream.
Stream mapping:
  Stream #0:0 -> #0:0 (vorbis (native) -> pcm_s16le (native))
Press ctrl-c to stop encoding
Output #0, s16le, to 'pipe:':
  Metadata:
    encoder         : Lavf58.2.0
    Stream #0:0: Audio: pcm_s16le
      44100 Hz, stereo, s16, 1411 kb/s
    Metadata:
      encoder         : Lavc58.12.1 pcm_s16le
size=     784kB time=4.55 bitrate=1412.1kbits/s    
video:0kB audio:784kB other streams:0kB global headers:0kB muxing overhead: 0.000000%