armv7-hf-linux-gcc-4.6 v13_dev0-1119-g6ccf76a

Architecturearm
Variantarmv7a
CPUarmv7-a
OSlinux
Ownermartin
Compilergcc 4.6 (Ubuntu/Linaro 4.6.3-1ubuntu5)
Configuration--prefix=/home/martin/fate-local/install --samples=/home/martin/fate-local/samples --enable-gpl --arch=arm --cpu=armv7-a --target-os=linux
Comment
Revisionv13_dev0-1119-g6ccf76a
Date2017-05-15 02:13:05
Status2107 / 2108
Warnings394
Logscompile configure test
1 failed testsStatusLast good rev
diffstderrlavf-tiff1v13_dev0-1217-g825e463
--- /home/martin/fate-local/src/tests/ref/lavf/tiff	2013-05-22 02:33:48.260544418 +0300
+++ tests/data/fate/lavf-tiff	2017-05-15 04:35:28.763059800 +0300
@@ -1,3 +1,3 @@
 b3299346a8959553a437e486d8f3bf76 *./tests/data/images/tiff/02.tiff
-./tests/data/images/tiff/%02d.tiff CRC=0x28c7369b
+./tests/data/images/tiff/%02d.tiff CRC=0xaa623731
 307131 ./tests/data/images/tiff/02.tiff
avconv version v13_dev0-1119-g6ccf76a, Copyright (c) 2000-2017 the Libav developers
  built on May 15 2017 04:08:18 with gcc 4.6 (Ubuntu/Linaro 4.6.3-1ubuntu5)
Input #0, image2, from '/home/martin/fate-local/build/tests/vsynth1/%02d.pgm':
  Duration: 00:00:02.00, start: 0.000000, bitrate: N/A
    Stream #0:0: Video: pgmyuv
      yuv420p, 352x288
      25 fps, 25 tbn
Stream mapping:
  Stream #0:0 -> #0:0 (pgmyuv (native) -> tiff (native))
Press ctrl-c to stop encoding
Output #0, image2, to '/home/martin/fate-local/build/./tests/data/images/tiff/%02d.tiff':
    Stream #0:0: Video: tiff
      rgb24, 352x288, q=2-31, 200 kb/s
      25 tbn
    Metadata:
      encoder         : tiff
frame=   12 fps=  0 q=-0.0 Lsize=       0kB time=0.44 bitrate=   0.0kbits/s    
video:3599kB audio:0kB other streams:0kB global headers:0kB muxing overhead: unknown
avconv version v13_dev0-1119-g6ccf76a, Copyright (c) 2000-2017 the Libav developers
  built on May 15 2017 04:08:18 with gcc 4.6 (Ubuntu/Linaro 4.6.3-1ubuntu5)
Input #0, image2, from '/home/martin/fate-local/build/./tests/data/images/tiff/%02d.tiff':
  Duration: 00:00:00.48, start: 0.000000, bitrate: N/A
    Stream #0:0: Video: tiff
      rgb24, 352x288
      25 fps, 25 tbn
Stream mapping:
  Stream #0:0 -> #0:0 (tiff (native) -> rawvideo (native))
Press ctrl-c to stop encoding
Output #0, crc, to '/home/martin/fate-local/build/./tests/data/tiff.lavf.crc':
  Metadata:
    encoder         : Lavf58.0.0
    Stream #0:0: Video: rawvideo [RGB[24] / 0x18424752]
      rgb24, 352x288, q=2-31, 200 kb/s
      25 tbn
    Metadata:
      encoder         : Lavc58.3.1 rawvideo
frame=   12 fps=  0 q=-0.0 Lsize=       0kB time=0.44 bitrate=   0.3kbits/s    
video:3564kB audio:0kB other streams:0kB global headers:0kB muxing overhead: unknown