armv6-hf-linux-gcc-4.9 v13_dev0-1399-g620f88a

Architecturearm
Variantarmv6
CPUarmv6
OSlinux
Ownermartin
Compilergcc 4.9.2 (Raspbian 4.9.2-10)
Configuration--prefix=/home/martin/fate-local/install --samples=/home/martin/fate-local/samples --enable-gpl --arch=arm --cpu=armv6 --target-os=linux
Comment
Revisionv13_dev0-1399-g620f88a
Date2017-11-13 05:57:38
Status2148 / 2149
Warnings70
Logscompile configure test
1 failed testsStatusLast good rev
diffstderrh264-conformance-cvpcmnl1_sva_c1v13_dev0-1386-g8e0febe
--- /home/martin/fate-local/src/tests/ref/fate/h264-conformance-cvpcmnl1_sva_c	2013-02-19 19:34:41.395298450 +0200
+++ tests/data/fate/h264-conformance-cvpcmnl1_sva_c	2017-11-13 06:48:14.997776574 +0200
@@ -8,8 +8,8 @@
 0,          6,          6,        1,   152064, 0x9443e44a
 0,          7,          7,        1,   152064, 0x0d158c55
 0,          8,          8,        1,   152064, 0x4b207062
-0,          9,          9,        1,   152064, 0x31d8543f
-0,         10,         10,        1,   152064, 0x43520337
+0,          9,          9,        1,   152064, 0xc43558ff
+0,         10,         10,        1,   152064, 0x98fd0011
 0,         11,         11,        1,   152064, 0x4676dd14
 0,         12,         12,        1,   152064, 0x8b4291d4
 0,         13,         13,        1,   152064, 0xb35e4950
avconv version v13_dev0-1399-g620f88a, Copyright (c) 2000-2017 the Libav developers
  built on Nov 13 2017 05:12:29 with gcc 4.9.2 (Raspbian 4.9.2-10)
[h264 @ 0x1874e80] corrupted macroblock 6 9 (total_coeff=-1)
[h264 @ 0x1874e80] error while decoding MB 6 9
[h264 @ 0x1874100] Estimating duration from bitrate, this may be inaccurate
Input #0, h264, from '/home/martin/fate-local/samples/h264-conformance/CVPCMNL1_SVA_C.264':
  Duration: N/A, bitrate: N/A
    Stream #0:0: Video: h264 (Main)
      yuv420p, 352x288
      25 fps, 25 tbn
Stream mapping:
  Stream #0:0 -> #0:0 (h264 (native) -> rawvideo (native))
Press ctrl-c to stop encoding
[h264 @ 0x1aa58a0] corrupted macroblock 6 9 (total_coeff=-1)
[h264 @ 0x1aa58a0] error while decoding MB 6 9
Output #0, framecrc, to 'pipe:':
  Metadata:
    encoder         : Lavf58.1.0
    Stream #0:0: Video: rawvideo [I420 / 0x30323449]
      yuv420p, 352x288, q=2-31, 200 kb/s
      25 tbn
    Metadata:
      encoder         : Lavc58.5.0 rawvideo
frame=   30 fps=  0 q=-0.0 Lsize=       2kB time=1.16 bitrate=  12.1kbits/s    
video:4455kB audio:0kB other streams:0kB global headers:0kB muxing overhead: unknown