armv6-hf-linux-gcc-4.8 v13_dev0-1415-ge171022c2

Architecturearm
Variantarmv6
CPUarmv6
OSlinux
Ownermartin
Compilergcc 4.8.3 (crosstool-NG linaro-1.13.1-4.8-2014.01 - Linaro GCC 2013.11) 20140106 (prerelease)
Configuration--prefix=/home/martin/fate/install --samples=/home/martin/fate/samples --enable-gpl --arch=arm --cpu=armv6 --cross-prefix=arm-linux-gnueabihf- --target-os=linux --target-exec='ssh rpi' --extra-cflags='-isystem/home/martin/rpi-env/opt/vc/include -isystem/home/martin/rpi-env/opt/vc/include/interface/vcos/pthreads -isystem/home/martin/rpi-env/opt/vc/include/interface/vmcs_host/linux -I/home/martin/rpi-env/opt/vc/include/IL -fgnu89-inline' --extra-ldflags='-L/home/martin/rpi-env/opt/vc/lib -Wl,-rpath-link,/home/martin/rpi-env/opt/vc/lib' --enable-mmal --enable-omx-rpi
CommentMMAL, OpenMAX
Revisionv13_dev0-1415-ge171022c2
Date2017-12-03 10:53:05
Status2148 / 2149
Warnings71
Logscompile configure test
1 failed testsStatusLast good rev
diffstderrfilter-pixfmts-scale1v13_dev0-1423-gf2e9a0ecb
--- /home/martin/fate/src/tests/ref/fate/filter-pixfmts-scale	2017-04-19 08:45:17.622893635 +0300
+++ tests/data/fate/filter-pixfmts-scale	2017-12-03 10:17:26.770491820 +0200
@@ -75,8 +75,7 @@
 yuv444p16be         e89fe5a4624ed06603580b4a74af9170
 yuv444p16le         6944d11048ff4013c5e60359faf1bd2d
 yuv444p9be          04a950e843d099eb9ade2ddcea494fb3
-yuv444p9le          918015450d5ab87600de64bbb7b33a10
-yuva420p            279eec11fe81f48a6cf2950fe097c51f
+yuv444p9le          yuva420p            279eec11fe81f48a6cf2950fe097c51f
 yuva420p10be        b9178665f4ff9512b10552f212157a94
 yuva420p10le        a627c535ced8514f2e1d1b78e73ca046
 yuva420p16be        2ec22c863c67bcba0295e125d0fa9f3e
Detected 1 logical cores.
Detected 1 logical cores.
avconv version v13_dev0-1415-ge171022c2, Copyright (c) 2000-2017 the Libav developers
  built on Dec  3 2017 08:47:18 with gcc 4.8.3 (crosstool-NG linaro-1.13.1-4.8-2014.01 - Linaro GCC 2013.11) 20140106 (prerelease)
Input #0, image2, from '/home/martin/fate/build/tests/vsynth1/%02d.pgm':
  Duration: 00:00:02.00, start: 0.000000, bitrate: N/A
    Stream #0:0: Video: pgmyuv
      yuv420p, 352x288
      25 fps, 25 tbn
Stream mapping:
  Stream #0:0 -> #0:0 (pgmyuv (native) -> rawvideo (native))
Press ctrl-c to stop encoding
opts ':100' 
Output #0, nut, to 'md5:':
    Stream #0:0: Video: rawvideo [ABGR / 0x52474241]
      abgr, 200x100, q=2-31, 200 kb/s
      25 tbn
    Metadata:
      encoder         : rawvideo
frame=    1 fps=  0 q=-0.0 Lsize=      78kB time=10000000000.00 bitrate=   0.0kbits/s    
video:78kB audio:0kB other streams:0kB global headers:0kB muxing overhead: 0.223750%
avconv version v13_dev0-1415-ge171022c2, Copyright (c) 2000-2017 the Libav developers
  built on Dec  3 2017 08:47:18 with gcc 4.8.3 (crosstool-NG linaro-1.13.1-4.8-2014.01 - Linaro GCC 2013.11) 20140106 (prerelease)
Input #0, image2, from '/home/martin/fate/build/tests/vsynth1/%02d.pgm':
  Duration: 00:00:02.00, start: 0.000000, bitrate: N/A
    Stream #0:0: Video: pgmyuv
      yuv420p, 352x288
      25 fps, 25 tbn
Stream mapping:
  Stream #0:0 -> #0:0 (pgmyuv (native) -> rawvideo (native))
Press ctrl-c to stop encoding
opts ':100' 
Output #0, nut, to 'md5:':
    Stream #0:0: Video: rawvideo [ARGB / 0x42475241]
      argb, 200x100, q=2-31, 200 kb/s
      25 tbn
    Metadata:
      encoder         : rawvideo
frame=    1 fps=  0 q=-0.0 Lsize=      78kB time=10000000000.00 bitrate=   0.0kbits/s    
video:78kB audio:0kB other streams:0kB global headers:0kB muxing overhead: 0.223750%
avconv version v13_dev0-1415-ge171022c2, Copyright (c) 2000-2017 the Libav developers
  built on Dec  3 2017 08:47:18 with gcc 4.8.3 (crosstool-NG linaro-1.13.1-4.8-2014.01 - Linaro GCC 2013.11) 20140106 (prerelease)
Input #0, image2, from '/home/martin/fate/build/tests/vsynth1/%02d.pgm':
  Duration: 00:00:02.00, start: 0.000000, bitrate: N/A
    Stream #0:0: Video: pgmyuv
      yuv420p, 352x288
      25 fps, 25 tbn
Stream mapping:
  Stream #0:0 -> #0:0 (pgmyuv (native) -> rawvideo (native))
Press ctrl-c to stop encoding
opts ':100' 
Output #0, nut, to 'md5:':
    Stream #0:0: Video: rawvideo [BGR[24] / 0x18524742]
      bgr24, 200x100, q=2-31, 200 kb/s
      25 tbn
    Metadata:
      encoder         : rawvideo
frame=    1 fps=  0 q=-0.0 Lsize=      59kB time=10000000000.00 bitrate=   0.0kbits/s    
video:59kB audio:0kB other streams:0kB global headers:0kB muxing overhead: 0.290000%
avconv version v13_dev0-1415-ge171022c2, Copyright (c) 2000-2017 the Libav developers
  built on Dec  3 2017 08:47:18 with gcc 4.8.3 (crosstool-NG linaro-1.13.1-4.8-2014.01 - Linaro GCC 2013.11) 20140106 (prerelease)
Input #0, image2, from '/home/martin/fate/build/tests/vsynth1/%02d.pgm':
  Duration: 00:00:02.00, start: 0.000000, bitrate: N/A
    Stream #0:0: Video: pgmyuv
      yuv420p, 352x288
      25 fps, 25 tbn
Stream mapping:
  Stream #0:0 -> #0:0 (pgmyuv (native) -> rawvideo (native))
Press ctrl-c to stop encoding
opts ':100' 
Output #0, nut, to 'md5:':
    Stream #0:0: Video: rawvideo [[12]RGB / 0x4247520C]
      bgr444be, 200x100, q=2-31, 200 kb/s
      25 tbn
    Metadata:
      encoder         : rawvideo
frame=    1 fps=  0 q=-0.0 Lsize=      39kB time=10000000000.00 bitrate=   0.0kbits/s    
video:39kB audio:0kB other streams:0kB global headers:0kB muxing overhead: 0.435000%
avconv version v13_dev0-1415-ge171022c2, Copyright (c) 2000-2017 the Libav developers
  built on Dec  3 2017 08:47:18 with gcc 4.8.3 (crosstool-NG linaro-1.13.1-4.8-2014.01 - Linaro GCC 2013.11) 20140106 (prerelease)
Input #0, image2, from '/home/martin/fate/build/tests/vsynth1/%02d.pgm':
  Duration: 00:00:02.00, start: 0.000000, bitrate: N/A
    Stream #0:0: Video: pgmyuv
      yuv420p, 352x288
      25 fps, 25 tbn
Stream mapping:
  Stream #0:0 -> #0:0 (pgmyuv (native) -> rawvideo (native))
Press ctrl-c to stop encoding
opts ':100' 
Output #0, nut, to 'md5:':
    Stream #0:0: Video: rawvideo [BGR[12] / 0xC524742]
      bgr444le, 200x100, q=2-31, 200 kb/s
      25 tbn
    Metadata:
      encoder         : rawvideo
frame=    1 fps=  0 q=-0.0 Lsize=      39kB time=10000000000.00 bitrate=   0.0kbits/s    
video:39kB audio:0kB other streams:0kB global headers:0kB muxing overhead: 0.435000%
avconv version v13_dev0-1415-ge171022c2, Copyright (c) 2000-2017 the Libav developers
  built on Dec  3 2017 08:47:18 with gcc 4.8.3 (crosstool-NG linaro-1.13.1-4.8-2014.01 - Linaro GCC 2013.11) 20140106 (prerelease)
Input #0, image2, from '/home/martin/fate/build/tests/vsynth1/%02d.pgm':
  Duration: 00:00:02.00, start: 0.000000, bitrate: N/A
    Stream #0:0: Video: pgmyuv
      yuv420p, 352x288
      25 fps, 25 tbn
Stream mapping:
  Stream #0:0 -> #0:0 (pgmyuv (native) -> rawvideo (native))
Press ctrl-c to stop encoding
opts ':100' 
Output #0, nut, to 'md5:':
    Stream #0:0: Video: rawvideo [0BGR / 0x52474230]
      bgr48be, 200x100, q=2-31, 200 kb/s
      25 tbn
    Metadata:
      encoder         : rawvideo
frame=    1 fps=  0 q=-0.0 Lsize=     117kB time=10000000000.00 bitrate=   0.0kbits/s    
video:117kB audio:0kB other streams:0kB global headers:0kB muxing overhead: 0.149167%
avconv version v13_dev0-1415-ge171022c2, Copyright (c) 2000-2017 the Libav developers
  built on Dec  3 2017 08:47:18 with gcc 4.8.3 (crosstool-NG linaro-1.13.1-4.8-2014.01 - Linaro GCC 2013.11) 20140106 (prerelease)
Input #0, image2, from '/home/martin/fate/build/tests/vsynth1/%02d.pgm':
  Duration: 00:00:02.00, start: 0.000000, bitrate: N/A
    Stream #0:0: Video: pgmyuv
      yuv420p, 352x288
      25 fps, 25 tbn
Stream mapping:
  Stream #0:0 -> #0:0 (pgmyuv (native) -> rawvideo (native))
Press ctrl-c to stop encoding
opts ':100' 
Output #0, nut, to 'md5:':
    Stream #0:0: Video: rawvideo [BGR0 / 0x30524742]
      bgr48le, 200x100, q=2-31, 200 kb/s
      25 tbn
    Metadata:
      encoder         : rawvideo
frame=    1 fps=  0 q=-0.0 Lsize=     117kB time=10000000000.00 bitrate=   0.0kbits/s    
video:117kB audio:0kB other streams:0kB global headers:0kB muxing overhead: 0.149167%
avconv version v13_dev0-1415-ge171022c2, Copyright (c) 2000-2017 the Libav developers
  built on Dec  3 2017 08:47:18 with gcc 4.8.3 (crosstool-NG linaro-1.13.1-4.8-2014.01 - Linaro GCC 2013.11) 20140106 (prerelease)
Input #0, image2, from '/home/martin/fate/build/tests/vsynth1/%02d.pgm':
  Duration: 00:00:02.00, start: 0.000000, bitrate: N/A
    Stream #0:0: Video: pgmyuv
      yuv420p, 352x288
      25 fps, 25 tbn
Stream mapping:
  Stream #0:0 -> #0:0 (pgmyuv (native) -> rawvideo (native))
Press ctrl-c to stop encoding
opts ':100' 
Output #0, nut, to 'md5:':
    Stream #0:0: Video: rawvideo [R4BY / 0x59423452]
      bgr4_byte, 200x100, q=2-31, 200 kb/s
      25 tbn
    Metadata:
      encoder         : rawvideo
frame=    1 fps=  0 q=-0.0 Lsize=      20kB time=10000000000.00 bitrate=   0.0kbits/s    
video:20kB audio:0kB other streams:0kB global headers:0kB muxing overhead: 0.870000%
avconv version v13_dev0-1415-ge171022c2, Copyright (c) 2000-2017 the Libav developers
  built on Dec  3 2017 08:47:18 with gcc 4.8.3 (crosstool-NG linaro-1.13.1-4.8-2014.01 - Linaro GCC 2013.11) 20140106 (prerelease)
Input #0, image2, from '/home/martin/fate/build/tests/vsynth1/%02d.pgm':
  Duration: 00:00:02.00, start: 0.000000, bitrate: N/A
    Stream #0:0: Video: pgmyuv
      yuv420p, 352x288
      25 fps, 25 tbn
Stream mapping:
  Stream #0:0 -> #0:0 (pgmyuv (native) -> rawvideo (native))
Press ctrl-c to stop encoding
opts ':100' 
Output #0, nut, to 'md5:':
    Stream #0:0: Video: rawvideo [[15]RGB / 0x4247520F]
      bgr555be, 200x100, q=2-31, 200 kb/s
      25 tbn
    Metadata:
      encoder         : rawvideo
frame=    1 fps=  0 q=-0.0 Lsize=      39kB time=10000000000.00 bitrate=   0.0kbits/s    
video:39kB audio:0kB other streams:0kB global headers:0kB muxing overhead: 0.435000%
avconv version v13_dev0-1415-ge171022c2, Copyright (c) 2000-2017 the Libav developers
  built on Dec  3 2017 08:47:18 with gcc 4.8.3 (crosstool-NG linaro-1.13.1-4.8-2014.01 - Linaro GCC 2013.11) 20140106 (prerelease)
Input #0, image2, from '/home/martin/fate/build/tests/vsynth1/%02d.pgm':
  Duration: 00:00:02.00, start: 0.000000, bitrate: N/A
    Stream #0:0: Video: pgmyuv
      yuv420p, 352x288
      25 fps, 25 tbn
Stream mapping:
  Stream #0:0 -> #0:0 (pgmyuv (native) -> rawvideo (native))
Press ctrl-c to stop encoding
opts ':100' 
Output #0, nut, to 'md5:':
    Stream #0:0: Video: rawvideo [BGR[15] / 0xF524742]
      bgr555le, 200x100, q=2-31, 200 kb/s
      25 tbn
    Metadata:
      encoder         : rawvideo
frame=    1 fps=  0 q=-0.0 Lsize=      39kB time=10000000000.00 bitrate=   0.0kbits/s    
video:39kB audio:0kB other streams:0kB global headers:0kB muxing overhead: 0.435000%
avconv version v13_dev0-1415-ge171022c2, Copyright (c) 2000-2017 the Libav developers
  built on Dec  3 2017 08:47:18 with gcc 4.8.3 (crosstool-NG linaro-1.13.1-4.8-2014.01 - Linaro GCC 2013.11) 20140106 (prerelease)
Input #0, image2, from '/home/martin/fate/build/tests/vsynth1/%02d.pgm':
  Duration: 00:00:02.00, start: 0.000000, bitrate: N/A
    Stream #0:0: Video: pgmyuv
      yuv420p, 352x288
      25 fps, 25 tbn
Stream mapping:
  Stream #0:0 -> #0:0 (pgmyuv (native) -> rawvideo (native))
Press ctrl-c to stop encoding
opts ':100' 
Output #0, nut, to 'md5:':
    Stream #0:0: Video: rawvideo [[16]RGB / 0x42475210]
      bgr565be, 200x100, q=2-31, 200 kb/s
      25 tbn
    Metadata:
      encoder         : rawvideo
frame=    1 fps=  0 q=-0.0 Lsize=      39kB time=10000000000.00 bitrate=   0.0kbits/s    
video:39kB audio:0kB other streams:0kB global headers:0kB muxing overhead: 0.435000%
avconv version v13_dev0-1415-ge171022c2, Copyright (c) 2000-2017 the Libav developers
  built on Dec  3 2017 08:47:18 with gcc 4.8.3 (crosstool-NG linaro-1.13.1-4.8-2014.01 - Linaro GCC 2013.11) 20140106 (prerelease)
Input #0, image2, from '/home/martin/fate/build/tests/vsynth1/%02d.pgm':
  Duration: 00:00:02.00, start: 0.000000, bitrate: N/A
    Stream #0:0: Video: pgmyuv
      yuv420p, 352x288
      25 fps, 25 tbn
Stream mapping:
  Stream #0:0 -> #0:0 (pgmyuv (native) -> rawvideo (native))
Press ctrl-c to stop encoding
opts ':100' 
Output #0, nut, to 'md5:':
    Stream #0:0: Video: rawvideo [BGR[16] / 0x10524742]
      bgr565le, 200x100, q=2-31, 200 kb/s
      25 tbn
    Metadata:
      encoder         : rawvideo
frame=    1 fps=  0 q=-0.0 Lsize=      39kB time=10000000000.00 bitrate=   0.0kbits/s    
video:39kB audio:0kB other streams:0kB global headers:0kB muxing overhead: 0.435000%
avconv version v13_dev0-1415-ge171022c2, Copyright (c) 2000-2017 the Libav developers
  built on Dec  3 2017 08:47:18 with gcc 4.8.3 (crosstool-NG linaro-1.13.1-4.8-2014.01 - Linaro GCC 2013.11) 20140106 (prerelease)
Input #0, image2, from '/home/martin/fate/build/tests/vsynth1/%02d.pgm':
  Duration: 00:00:02.00, start: 0.000000, bitrate: N/A
    Stream #0:0: Video: pgmyuv
      yuv420p, 352x288
      25 fps, 25 tbn
Stream mapping:
  Stream #0:0 -> #0:0 (pgmyuv (native) -> rawvideo (native))
Press ctrl-c to stop encoding
opts ':100' 
Output #0, nut, to 'md5:':
    Stream #0:0: Video: rawvideo [BGR[8] / 0x8524742]
      bgr8, 200x100, q=2-31, 200 kb/s
      25 tbn
    Metadata:
      encoder         : rawvideo
frame=    1 fps=  0 q=-0.0 Lsize=      20kB time=10000000000.00 bitrate=   0.0kbits/s    
video:20kB audio:0kB other streams:0kB global headers:0kB muxing overhead: 0.870000%
avconv version v13_dev0-1415-ge171022c2, Copyright (c) 2000-2017 the Libav developers
  built on Dec  3 2017 08:47:18 with gcc 4.8.3 (crosstool-NG linaro-1.13.1-4.8-2014.01 - Linaro GCC 2013.11) 20140106 (prerelease)
Input #0, image2, from '/home/martin/fate/build/tests/vsynth1/%02d.pgm':
  Duration: 00:00:02.00, start: 0.000000, bitrate: N/A
    Stream #0:0: Video: pgmyuv
      yuv420p, 352x288
      25 fps, 25 tbn
Stream mapping:
  Stream #0:0 -> #0:0 (pgmyuv (native) -> rawvideo (native))
Press ctrl-c to stop encoding
opts ':100' 
Output #0, nut, to 'md5:':
    Stream #0:0: Video: rawvideo [BGRA / 0x41524742]
      bgra, 200x100, q=2-31, 200 kb/s
      25 tbn
    Metadata:
      encoder         : rawvideo
frame=    1 fps=  0 q=-0.0 Lsize=      78kB time=10000000000.00 bitrate=   0.0kbits/s    
video:78kB audio:0kB other streams:0kB global headers:0kB muxing overhead: 0.223750%
avconv version v13_dev0-1415-ge171022c2, Copyright (c) 2000-2017 the Libav developers
  built on Dec  3 2017 08:47:18 with gcc 4.8.3 (crosstool-NG linaro-1.13.1-4.8-2014.01 - Linaro GCC 2013.11) 20140106 (prerelease)
Input #0, image2, from '/home/martin/fate/build/tests/vsynth1/%02d.pgm':
  Duration: 00:00:02.00, start: 0.000000, bitrate: N/A
    Stream #0:0: Video: pgmyuv
      yuv420p, 352x288
      25 fps, 25 tbn
Stream mapping:
  Stream #0:0 -> #0:0 (pgmyuv (native) -> rawvideo (native))
Press ctrl-c to stop encoding
opts ':100' 
Output #0, nut, to 'md5:':
    Stream #0:0: Video: rawvideo [RGB[15] / 0xF424752]
      gbrap, 200x100, q=2-31, 200 kb/s
      25 tbn
    Metadata:
      encoder         : rawvideo
frame=    1 fps=  0 q=-0.0 Lsize=      78kB time=10000000000.00 bitrate=   0.0kbits/s    
video:78kB audio:0kB other streams:0kB global headers:0kB muxing overhead: 0.223750%
avconv version v13_dev0-1415-ge171022c2, Copyright (c) 2000-2017 the Libav developers
  built on Dec  3 2017 08:47:18 with gcc 4.8.3 (crosstool-NG linaro-1.13.1-4.8-2014.01 - Linaro GCC 2013.11) 20140106 (prerelease)
Input #0, image2, from '/home/martin/fate/build/tests/vsynth1/%02d.pgm':
  Duration: 00:00:02.00, start: 0.000000, bitrate: N/A
    Stream #0:0: Video: pgmyuv
      yuv420p, 352x288
      25 fps, 25 tbn
Stream mapping:
  Stream #0:0 -> #0:0 (pgmyuv (native) -> rawvideo (native))
Press ctrl-c to stop encoding
opts ':100' 
Output #0, nut, to 'md5:':
    Stream #0:0: Video: rawvideo [RGB[15] / 0xF424752]
      gbrap10be, 200x100, q=2-31, 200 kb/s
      25 tbn
    Metadata:
      encoder         : rawvideo
frame=    1 fps=  0 q=-0.0 Lsize=     156kB time=10000000000.00 bitrate=   0.0kbits/s    
video:156kB audio:0kB other streams:0kB global headers:0kB muxing overhead: 0.111875%
avconv version v13_dev0-1415-ge171022c2, Copyright (c) 2000-2017 the Libav developers
  built on Dec  3 2017 08:47:18 with gcc 4.8.3 (crosstool-NG linaro-1.13.1-4.8-2014.01 - Linaro GCC 2013.11) 20140106 (prerelease)
Input #0, image2, from '/home/martin/fate/build/tests/vsynth1/%02d.pgm':
  Duration: 00:00:02.00, start: 0.000000, bitrate: N/A
    Stream #0:0: Video: pgmyuv
      yuv420p, 352x288
      25 fps, 25 tbn
Stream mapping:
  Stream #0:0 -> #0:0 (pgmyuv (native) -> rawvideo (native))
Press ctrl-c to stop encoding
opts ':100' 
Output #0, nut, to 'md5:':
    Stream #0:0: Video: rawvideo [RGB[15] / 0xF424752]
      gbrap10le, 200x100, q=2-31, 200 kb/s
      25 tbn
    Metadata:
      encoder         : rawvideo
frame=    1 fps=  0 q=-0.0 Lsize=     156kB time=10000000000.00 bitrate=   0.0kbits/s    
video:156kB audio:0kB other streams:0kB global headers:0kB muxing overhead: 0.111875%
avconv version v13_dev0-1415-ge171022c2, Copyright (c) 2000-2017 the Libav developers
  built on Dec  3 2017 08:47:18 with gcc 4.8.3 (crosstool-NG linaro-1.13.1-4.8-2014.01 - Linaro GCC 2013.11) 20140106 (prerelease)
Input #0, image2, from '/home/martin/fate/build/tests/vsynth1/%02d.pgm':
  Duration: 00:00:02.00, start: 0.000000, bitrate: N/A
    Stream #0:0: Video: pgmyuv
      yuv420p, 352x288
      25 fps, 25 tbn
Stream mapping:
  Stream #0:0 -> #0:0 (pgmyuv (native) -> rawvideo (native))
Press ctrl-c to stop encoding
opts ':100' 
Output #0, nut, to 'md5:':
    Stream #0:0: Video: rawvideo [RGB[15] / 0xF424752]
      gbrap12be, 200x100, q=2-31, 200 kb/s
      25 tbn
    Metadata:
      encoder         : rawvideo
frame=    1 fps=  0 q=-0.0 Lsize=     156kB time=10000000000.00 bitrate=   0.0kbits/s    
video:156kB audio:0kB other streams:0kB global headers:0kB muxing overhead: 0.111875%
avconv version v13_dev0-1415-ge171022c2, Copyright (c) 2000-2017 the Libav developers
  built on Dec  3 2017 08:47:18 with gcc 4.8.3 (crosstool-NG linaro-1.13.1-4.8-2014.01 - Linaro GCC 2013.11) 20140106 (prerelease)
Input #0, image2, from '/home/martin/fate/build/tests/vsynth1/%02d.pgm':
  Duration: 00:00:02.00, start: 0.000000, bitrate: N/A
    Stream #0:0: Video: pgmyuv
      yuv420p, 352x288
      25 fps, 25 tbn
Stream mapping:
  Stream #0:0 -> #0:0 (pgmyuv (native) -> rawvideo (native))
Press ctrl-c to stop encoding
opts ':100' 
Output #0, nut, to 'md5:':
    Stream #0:0: Video: rawvideo [RGB[15] / 0xF424752]
      gbrap12le, 200x100, q=2-31, 200 kb/s
      25 tbn
    Metadata:
      encoder         : rawvideo
frame=    1 fps=  0 q=-0.0 Lsize=     156kB time=10000000000.00 bitrate=   0.0kbits/s    
video:156kB audio:0kB other streams:0kB global headers:0kB muxing overhead: 0.111875%
avconv version v13_dev0-1415-ge171022c2, Copyright (c) 2000-2017 the Libav developers
  built on Dec  3 2017 08:47:18 with gcc 4.8.3 (crosstool-NG linaro-1.13.1-4.8-2014.01 - Linaro GCC 2013.11) 20140106 (prerelease)
Input #0, image2, from '/home/martin/fate/build/tests/vsynth1/%02d.pgm':
  Duration: 00:00:02.00, start: 0.000000, bitrate: N/A
    Stream #0:0: Video: pgmyuv
      yuv420p, 352x288
      25 fps, 25 tbn
Stream mapping:
  Stream #0:0 -> #0:0 (pgmyuv (native) -> rawvideo (native))
Press ctrl-c to stop encoding
opts ':100' 
Output #0, nut, to 'md5:':
    Stream #0:0: Video: rawvideo [RGB[15] / 0xF424752]
      gbrp, 200x100, q=2-31, 200 kb/s
      25 tbn
    Metadata:
      encoder         : rawvideo
frame=    1 fps=  0 q=-0.0 Lsize=      59kB time=10000000000.00 bitrate=   0.0kbits/s    
video:59kB audio:0kB other streams:0kB global headers:0kB muxing overhead: 0.290000%
avconv version v13_dev0-1415-ge171022c2, Copyright (c) 2000-2017 the Libav developers
  built on Dec  3 2017 08:47:18 with gcc 4.8.3 (crosstool-NG linaro-1.13.1-4.8-2014.01 - Linaro GCC 2013.11) 20140106 (prerelease)
Input #0, image2, from '/home/martin/fate/build/tests/vsynth1/%02d.pgm':
  Duration: 00:00:02.00, start: 0.000000, bitrate: N/A
    Stream #0:0: Video: pgmyuv
      yuv420p, 352x288
      25 fps, 25 tbn
Stream mapping:
  Stream #0:0 -> #0:0 (pgmyuv (native) -> rawvideo (native))
Press ctrl-c to stop encoding
opts ':100' 
Output #0, nut, to 'md5:':
    Stream #0:0: Video: rawvideo [RGB[15] / 0xF424752]
      gbrp10be, 200x100, q=2-31, 200 kb/s
      25 tbn
    Metadata:
      encoder         : rawvideo
frame=    1 fps=  0 q=-0.0 Lsize=     117kB time=10000000000.00 bitrate=   0.0kbits/s    
video:117kB audio:0kB other streams:0kB global headers:0kB muxing overhead: 0.149167%
avconv version v13_dev0-1415-ge171022c2, Copyright (c) 2000-2017 the Libav developers
  built on Dec  3 2017 08:47:18 with gcc 4.8.3 (crosstool-NG linaro-1.13.1-4.8-2014.01 - Linaro GCC 2013.11) 20140106 (prerelease)
Input #0, image2, from '/home/martin/fate/build/tests/vsynth1/%02d.pgm':
  Duration: 00:00:02.00, start: 0.000000, bitrate: N/A
    Stream #0:0: Video: pgmyuv
      yuv420p, 352x288
      25 fps, 25 tbn
Stream mapping:
  Stream #0:0 -> #0:0 (pgmyuv (native) -> rawvideo (native))
Press ctrl-c to stop encoding
opts ':100' 
Output #0, nut, to 'md5:':
    Stream #0:0: Video: rawvideo [RGB[15] / 0xF424752]
      gbrp10le, 200x100, q=2-31, 200 kb/s
      25 tbn
    Metadata:
      encoder         : rawvideo
frame=    1 fps=  0 q=-0.0 Lsize=     117kB time=10000000000.00 bitrate=   0.0kbits/s    
video:117kB audio:0kB other streams:0kB global headers:0kB muxing overhead: 0.149167%
avconv version v13_dev0-1415-ge171022c2, Copyright (c) 2000-2017 the Libav developers
  built on Dec  3 2017 08:47:18 with gcc 4.8.3 (crosstool-NG linaro-1.13.1-4.8-2014.01 - Linaro GCC 2013.11) 20140106 (prerelease)
Input #0, image2, from '/home/martin/fate/build/tests/vsynth1/%02d.pgm':
  Duration: 00:00:02.00, start: 0.000000, bitrate: N/A
    Stream #0:0: Video: pgmyuv
      yuv420p, 352x288
      25 fps, 25 tbn
Stream mapping:
  Stream #0:0 -> #0:0 (pgmyuv (native) -> rawvideo (native))
Press ctrl-c to stop encoding
opts ':100' 
Output #0, nut, to 'md5:':
    Stream #0:0: Video: rawvideo [RGB[15] / 0xF424752]
      gbrp12be, 200x100, q=2-31, 200 kb/s
      25 tbn
    Metadata:
      encoder         : rawvideo
frame=    1 fps=  0 q=-0.0 Lsize=     117kB time=10000000000.00 bitrate=   0.0kbits/s    
video:117kB audio:0kB other streams:0kB global headers:0kB muxing overhead: 0.149167%
avconv version v13_dev0-1415-ge171022c2, Copyright (c) 2000-2017 the Libav developers
  built on Dec  3 2017 08:47:18 with gcc 4.8.3 (crosstool-NG linaro-1.13.1-4.8-2014.01 - Linaro GCC 2013.11) 20140106 (prerelease)
Input #0, image2, from '/home/martin/fate/build/tests/vsynth1/%02d.pgm':
  Duration: 00:00:02.00, start: 0.000000, bitrate: N/A
    Stream #0:0: Video: pgmyuv
      yuv420p, 352x288
      25 fps, 25 tbn
Stream mapping:
  Stream #0:0 -> #0:0 (pgmyuv (native) -> rawvideo (native))
Press ctrl-c to stop encoding
opts ':100' 
Output #0, nut, to 'md5:':
    Stream #0:0: Video: rawvideo [RGB[15] / 0xF424752]
      gbrp12le, 200x100, q=2-31, 200 kb/s
      25 tbn
    Metadata:
      encoder         : rawvideo
frame=    1 fps=  0 q=-0.0 Lsize=     117kB time=10000000000.00 bitrate=   0.0kbits/s    
video:117kB audio:0kB other streams:0kB global headers:0kB muxing overhead: 0.149167%
avconv version v13_dev0-1415-ge171022c2, Copyright (c) 2000-2017 the Libav developers
  built on Dec  3 2017 08:47:18 with gcc 4.8.3 (crosstool-NG linaro-1.13.1-4.8-2014.01 - Linaro GCC 2013.11) 20140106 (prerelease)
Input #0, image2, from '/home/martin/fate/build/tests/vsynth1/%02d.pgm':
  Duration: 00:00:02.00, start: 0.000000, bitrate: N/A
    Stream #0:0: Video: pgmyuv
      yuv420p, 352x288
      25 fps, 25 tbn
Stream mapping:
  Stream #0:0 -> #0:0 (pgmyuv (native) -> rawvideo (native))
Press ctrl-c to stop encoding
opts ':100' 
Output #0, nut, to 'md5:':
    Stream #0:0: Video: rawvideo [RGB[15] / 0xF424752]
      gbrp9be, 200x100, q=2-31, 200 kb/s
      25 tbn
    Metadata:
      encoder         : rawvideo
frame=    1 fps=  0 q=-0.0 Lsize=     117kB time=10000000000.00 bitrate=   0.0kbits/s    
video:117kB audio:0kB other streams:0kB global headers:0kB muxing overhead: 0.149167%
avconv version v13_dev0-1415-ge171022c2, Copyright (c) 2000-2017 the Libav developers
  built on Dec  3 2017 08:47:18 with gcc 4.8.3 (crosstool-NG linaro-1.13.1-4.8-2014.01 - Linaro GCC 2013.11) 20140106 (prerelease)
Input #0, image2, from '/home/martin/fate/build/tests/vsynth1/%02d.pgm':
  Duration: 00:00:02.00, start: 0.000000, bitrate: N/A
    Stream #0:0: Video: pgmyuv
      yuv420p, 352x288
      25 fps, 25 tbn
Stream mapping:
  Stream #0:0 -> #0:0 (pgmyuv (native) -> rawvideo (native))
Press ctrl-c to stop encoding
opts ':100' 
Output #0, nut, to 'md5:':
    Stream #0:0: Video: rawvideo [RGB[15] / 0xF424752]
      gbrp9le, 200x100, q=2-31, 200 kb/s
      25 tbn
    Metadata:
      encoder         : rawvideo
frame=    1 fps=  0 q=-0.0 Lsize=     117kB time=10000000000.00 bitrate=   0.0kbits/s    
video:117kB audio:0kB other streams:0kB global headers:0kB muxing overhead: 0.149167%
avconv version v13_dev0-1415-ge171022c2, Copyright (c) 2000-2017 the Libav developers
  built on Dec  3 2017 08:47:18 with gcc 4.8.3 (crosstool-NG linaro-1.13.1-4.8-2014.01 - Linaro GCC 2013.11) 20140106 (prerelease)
Input #0, image2, from '/home/martin/fate/build/tests/vsynth1/%02d.pgm':
  Duration: 00:00:02.00, start: 0.000000, bitrate: N/A
    Stream #0:0: Video: pgmyuv
      yuv420p, 352x288
      25 fps, 25 tbn
Stream mapping:
  Stream #0:0 -> #0:0 (pgmyuv (native) -> rawvideo (native))
Press ctrl-c to stop encoding
opts ':100' 
Output #0, nut, to 'md5:':
    Stream #0:0: Video: rawvideo [Y800 / 0x30303859]
      gray, 200x100, q=2-31, 200 kb/s
      25 tbn
    Metadata:
      encoder         : rawvideo
frame=    1 fps=  0 q=-0.0 Lsize=      20kB time=10000000000.00 bitrate=   0.0kbits/s    
video:20kB audio:0kB other streams:0kB global headers:0kB muxing overhead: 0.870000%
avconv version v13_dev0-1415-ge171022c2, Copyright (c) 2000-2017 the Libav developers
  built on Dec  3 2017 08:47:18 with gcc 4.8.3 (crosstool-NG linaro-1.13.1-4.8-2014.01 - Linaro GCC 2013.11) 20140106 (prerelease)
Input #0, image2, from '/home/martin/fate/build/tests/vsynth1/%02d.pgm':
  Duration: 00:00:02.00, start: 0.000000, bitrate: N/A
    Stream #0:0: Video: pgmyuv
      yuv420p, 352x288
      25 fps, 25 tbn
Stream mapping:
  Stream #0:0 -> #0:0 (pgmyuv (native) -> rawvideo (native))
Press ctrl-c to stop encoding
opts ':100' 
Output #0, nut, to 'md5:':
    Stream #0:0: Video: rawvideo [RGB[15] / 0xF424752]
      gray12be, 200x100, q=2-31, 200 kb/s
      25 tbn
    Metadata:
      encoder         : rawvideo
frame=    1 fps=  0 q=-0.0 Lsize=      39kB time=10000000000.00 bitrate=   0.0kbits/s    
video:39kB audio:0kB other streams:0kB global headers:0kB muxing overhead: 0.435000%
avconv version v13_dev0-1415-ge171022c2, Copyright (c) 2000-2017 the Libav developers
  built on Dec  3 2017 08:47:18 with gcc 4.8.3 (crosstool-NG linaro-1.13.1-4.8-2014.01 - Linaro GCC 2013.11) 20140106 (prerelease)
Input #0, image2, from '/home/martin/fate/build/tests/vsynth1/%02d.pgm':
  Duration: 00:00:02.00, start: 0.000000, bitrate: N/A
    Stream #0:0: Video: pgmyuv
      yuv420p, 352x288
      25 fps, 25 tbn
Stream mapping:
  Stream #0:0 -> #0:0 (pgmyuv (native) -> rawvideo (native))
Press ctrl-c to stop encoding
opts ':100' 
Output #0, nut, to 'md5:':
    Stream #0:0: Video: rawvideo [RGB[15] / 0xF424752]
      gray12le, 200x100, q=2-31, 200 kb/s
      25 tbn
    Metadata:
      encoder         : rawvideo
frame=    1 fps=  0 q=-0.0 Lsize=      39kB time=10000000000.00 bitrate=   0.0kbits/s    
video:39kB audio:0kB other streams:0kB global headers:0kB muxing overhead: 0.435000%
avconv version v13_dev0-1415-ge171022c2, Copyright (c) 2000-2017 the Libav developers
  built on Dec  3 2017 08:47:18 with gcc 4.8.3 (crosstool-NG linaro-1.13.1-4.8-2014.01 - Linaro GCC 2013.11) 20140106 (prerelease)
Input #0, image2, from '/home/martin/fate/build/tests/vsynth1/%02d.pgm':
  Duration: 00:00:02.00, start: 0.000000, bitrate: N/A
    Stream #0:0: Video: pgmyuv
      yuv420p, 352x288
      25 fps, 25 tbn
Stream mapping:
  Stream #0:0 -> #0:0 (pgmyuv (native) -> rawvideo (native))
Press ctrl-c to stop encoding
opts ':100' 
Output #0, nut, to 'md5:':
    Stream #0:0: Video: rawvideo [[16][0]1Y / 0x59310010]
      gray16be, 200x100, q=2-31, 200 kb/s
      25 tbn
    Metadata:
      encoder         : rawvideo
frame=    1 fps=  0 q=-0.0 Lsize=      39kB time=10000000000.00 bitrate=   0.0kbits/s    
video:39kB audio:0kB other streams:0kB global headers:0kB muxing overhead: 0.435000%
avconv version v13_dev0-1415-ge171022c2, Copyright (c) 2000-2017 the Libav developers
  built on Dec  3 2017 08:47:18 with gcc 4.8.3 (crosstool-NG linaro-1.13.1-4.8-2014.01 - Linaro GCC 2013.11) 20140106 (prerelease)
Input #0, image2, from '/home/martin/fate/build/tests/vsynth1/%02d.pgm':
  Duration: 00:00:02.00, start: 0.000000, bitrate: N/A
    Stream #0:0: Video: pgmyuv
      yuv420p, 352x288
      25 fps, 25 tbn
Stream mapping:
  Stream #0:0 -> #0:0 (pgmyuv (native) -> rawvideo (native))
Press ctrl-c to stop encoding
opts ':100' 
Output #0, nut, to 'md5:':
    Stream #0:0: Video: rawvideo [Y1[0][16] / 0x10003159]
      gray16le, 200x100, q=2-31, 200 kb/s
      25 tbn
    Metadata:
      encoder         : rawvideo
frame=    1 fps=  0 q=-0.0 Lsize=      39kB time=10000000000.00 bitrate=   0.0kbits/s    
video:39kB audio:0kB other streams:0kB global headers:0kB muxing overhead: 0.435000%
avconv version v13_dev0-1415-ge171022c2, Copyright (c) 2000-2017 the Libav developers
  built on Dec  3 2017 08:47:18 with gcc 4.8.3 (crosstool-NG linaro-1.13.1-4.8-2014.01 - Linaro GCC 2013.11) 20140106 (prerelease)
Input #0, image2, from '/home/martin/fate/build/tests/vsynth1/%02d.pgm':
  Duration: 00:00:02.00, start: 0.000000, bitrate: N/A
    Stream #0:0: Video: pgmyuv
      yuv420p, 352x288
      25 fps, 25 tbn
Stream mapping:
  Stream #0:0 -> #0:0 (pgmyuv (native) -> rawvideo (native))
Press ctrl-c to stop encoding
opts ':100' 
Output #0, nut, to 'md5:':
    Stream #0:0: Video: rawvideo [B0W1 / 0x31573042]
      monob, 200x100, q=2-31, 200 kb/s
      25 tbn
    Metadata:
      encoder         : rawvideo
frame=    1 fps=  0 q=-0.0 Lsize=       3kB time=10000000000.00 bitrate=   0.0kbits/s    
video:2kB audio:0kB other streams:0kB global headers:0kB muxing overhead: 6.920000%
avconv version v13_dev0-1415-ge171022c2, Copyright (c) 2000-2017 the Libav developers
  built on Dec  3 2017 08:47:18 with gcc 4.8.3 (crosstool-NG linaro-1.13.1-4.8-2014.01 - Linaro GCC 2013.11) 20140106 (prerelease)
Input #0, image2, from '/home/martin/fate/build/tests/vsynth1/%02d.pgm':
  Duration: 00:00:02.00, start: 0.000000, bitrate: N/A
    Stream #0:0: Video: pgmyuv
      yuv420p, 352x288
      25 fps, 25 tbn
Stream mapping:
  Stream #0:0 -> #0:0 (pgmyuv (native) -> rawvideo (native))
Press ctrl-c to stop encoding
opts ':100' 
Output #0, nut, to 'md5:':
    Stream #0:0: Video: rawvideo [B1W0 / 0x30573142]
      monow, 200x100, q=2-31, 200 kb/s
      25 tbn
    Metadata:
      encoder         : rawvideo
frame=    1 fps=  0 q=-0.0 Lsize=       3kB time=10000000000.00 bitrate=   0.0kbits/s    
video:2kB audio:0kB other streams:0kB global headers:0kB muxing overhead: 6.920000%
avconv version v13_dev0-1415-ge171022c2, Copyright (c) 2000-2017 the Libav developers
  built on Dec  3 2017 08:47:18 with gcc 4.8.3 (crosstool-NG linaro-1.13.1-4.8-2014.01 - Linaro GCC 2013.11) 20140106 (prerelease)
Input #0, image2, from '/home/martin/fate/build/tests/vsynth1/%02d.pgm':
  Duration: 00:00:02.00, start: 0.000000, bitrate: N/A
    Stream #0:0: Video: pgmyuv
      yuv420p, 352x288
      25 fps, 25 tbn
Stream mapping:
  Stream #0:0 -> #0:0 (pgmyuv (native) -> rawvideo (native))
Press ctrl-c to stop encoding
opts ':100' 
Output #0, nut, to 'md5:':
    Stream #0:0: Video: rawvideo [NV12 / 0x3231564E]
      nv12, 200x100, q=2-31, 200 kb/s
      25 tbn
    Metadata:
      encoder         : rawvideo
frame=    1 fps=  0 q=-0.0 Lsize=      29kB time=10000000000.00 bitrate=   0.0kbits/s    
video:29kB audio:0kB other streams:0kB global headers:0kB muxing overhead: 0.580000%
avconv version v13_dev0-1415-ge171022c2, Copyright (c) 2000-2017 the Libav developers
  built on Dec  3 2017 08:47:18 with gcc 4.8.3 (crosstool-NG linaro-1.13.1-4.8-2014.01 - Linaro GCC 2013.11) 20140106 (prerelease)
Input #0, image2, from '/home/martin/fate/build/tests/vsynth1/%02d.pgm':
  Duration: 00:00:02.00, start: 0.000000, bitrate: N/A
    Stream #0:0: Video: pgmyuv
      yuv420p, 352x288
      25 fps, 25 tbn
Stream mapping:
  Stream #0:0 -> #0:0 (pgmyuv (native) -> rawvideo (native))
Press ctrl-c to stop encoding
opts ':100' 
Output #0, nut, to 'md5:':
    Stream #0:0: Video: rawvideo [NV21 / 0x3132564E]
      nv21, 200x100, q=2-31, 200 kb/s
      25 tbn
    Metadata:
      encoder         : rawvideo
frame=    1 fps=  0 q=-0.0 Lsize=      29kB time=10000000000.00 bitrate=   0.0kbits/s    
video:29kB audio:0kB other streams:0kB global headers:0kB muxing overhead: 0.580000%
avconv version v13_dev0-1415-ge171022c2, Copyright (c) 2000-2017 the Libav developers
  built on Dec  3 2017 08:47:18 with gcc 4.8.3 (crosstool-NG linaro-1.13.1-4.8-2014.01 - Linaro GCC 2013.11) 20140106 (prerelease)
Input #0, image2, from '/home/martin/fate/build/tests/vsynth1/%02d.pgm':
  Duration: 00:00:02.00, start: 0.000000, bitrate: N/A
    Stream #0:0: Video: pgmyuv
      yuv420p, 352x288
      25 fps, 25 tbn
Stream mapping:
  Stream #0:0 -> #0:0 (pgmyuv (native) -> rawvideo (native))
Press ctrl-c to stop encoding
opts ':100' 
Output #0, nut, to 'md5:':
    Stream #0:0: Video: rawvideo [RGB[24] / 0x18424752]
      rgb24, 200x100, q=2-31, 200 kb/s
      25 tbn
    Metadata:
      encoder         : rawvideo
frame=    1 fps=  0 q=-0.0 Lsize=      59kB time=10000000000.00 bitrate=   0.0kbits/s    
video:59kB audio:0kB other streams:0kB global headers:0kB muxing overhead: 0.290000%
avconv version v13_dev0-1415-ge171022c2, Copyright (c) 2000-2017 the Libav developers
  built on Dec  3 2017 08:47:18 with gcc 4.8.3 (crosstool-NG linaro-1.13.1-4.8-2014.01 - Linaro GCC 2013.11) 20140106 (prerelease)
Input #0, image2, from '/home/martin/fate/build/tests/vsynth1/%02d.pgm':
  Duration: 00:00:02.00, start: 0.000000, bitrate: N/A
    Stream #0:0: Video: pgmyuv
      yuv420p, 352x288
      25 fps, 25 tbn
Stream mapping:
  Stream #0:0 -> #0:0 (pgmyuv (native) -> rawvideo (native))
Press ctrl-c to stop encoding
opts ':100' 
Output #0, nut, to 'md5:':
    Stream #0:0: Video: rawvideo [[12]BGR / 0x5247420C]
      rgb444be, 200x100, q=2-31, 200 kb/s
      25 tbn
    Metadata:
      encoder         : rawvideo
frame=    1 fps=  0 q=-0.0 Lsize=      39kB time=10000000000.00 bitrate=   0.0kbits/s    
video:39kB audio:0kB other streams:0kB global headers:0kB muxing overhead: 0.435000%
avconv version v13_dev0-1415-ge171022c2, Copyright (c) 2000-2017 the Libav developers
  built on Dec  3 2017 08:47:18 with gcc 4.8.3 (crosstool-NG linaro-1.13.1-4.8-2014.01 - Linaro GCC 2013.11) 20140106 (prerelease)
Input #0, image2, from '/home/martin/fate/build/tests/vsynth1/%02d.pgm':
  Duration: 00:00:02.00, start: 0.000000, bitrate: N/A
    Stream #0:0: Video: pgmyuv
      yuv420p, 352x288
      25 fps, 25 tbn
Stream mapping:
  Stream #0:0 -> #0:0 (pgmyuv (native) -> rawvideo (native))
Press ctrl-c to stop encoding
opts ':100' 
Output #0, nut, to 'md5:':
    Stream #0:0: Video: rawvideo [RGB[12] / 0xC424752]
      rgb444le, 200x100, q=2-31, 200 kb/s
      25 tbn
    Metadata:
      encoder         : rawvideo
frame=    1 fps=  0 q=-0.0 Lsize=      39kB time=10000000000.00 bitrate=   0.0kbits/s    
video:39kB audio:0kB other streams:0kB global headers:0kB muxing overhead: 0.435000%
avconv version v13_dev0-1415-ge171022c2, Copyright (c) 2000-2017 the Libav developers
  built on Dec  3 2017 08:47:18 with gcc 4.8.3 (crosstool-NG linaro-1.13.1-4.8-2014.01 - Linaro GCC 2013.11) 20140106 (prerelease)
Input #0, image2, from '/home/martin/fate/build/tests/vsynth1/%02d.pgm':
  Duration: 00:00:02.00, start: 0.000000, bitrate: N/A
    Stream #0:0: Video: pgmyuv
      yuv420p, 352x288
      25 fps, 25 tbn
Stream mapping:
  Stream #0:0 -> #0:0 (pgmyuv (native) -> rawvideo (native))
Press ctrl-c to stop encoding
opts ':100' 
Output #0, nut, to 'md5:':
    Stream #0:0: Video: rawvideo [0RGB / 0x42475230]
      rgb48be, 200x100, q=2-31, 200 kb/s
      25 tbn
    Metadata:
      encoder         : rawvideo
frame=    1 fps=  0 q=-0.0 Lsize=     117kB time=10000000000.00 bitrate=   0.0kbits/s    
video:117kB audio:0kB other streams:0kB global headers:0kB muxing overhead: 0.149167%
avconv version v13_dev0-1415-ge171022c2, Copyright (c) 2000-2017 the Libav developers
  built on Dec  3 2017 08:47:18 with gcc 4.8.3 (crosstool-NG linaro-1.13.1-4.8-2014.01 - Linaro GCC 2013.11) 20140106 (prerelease)
Input #0, image2, from '/home/martin/fate/build/tests/vsynth1/%02d.pgm':
  Duration: 00:00:02.00, start: 0.000000, bitrate: N/A
    Stream #0:0: Video: pgmyuv
      yuv420p, 352x288
      25 fps, 25 tbn
Stream mapping:
  Stream #0:0 -> #0:0 (pgmyuv (native) -> rawvideo (native))
Press ctrl-c to stop encoding
opts ':100' 
Output #0, nut, to 'md5:':
    Stream #0:0: Video: rawvideo [RGB0 / 0x30424752]
      rgb48le, 200x100, q=2-31, 200 kb/s
      25 tbn
    Metadata:
      encoder         : rawvideo
frame=    1 fps=  0 q=-0.0 Lsize=     117kB time=10000000000.00 bitrate=   0.0kbits/s    
video:117kB audio:0kB other streams:0kB global headers:0kB muxing overhead: 0.149167%
avconv version v13_dev0-1415-ge171022c2, Copyright (c) 2000-2017 the Libav developers
  built on Dec  3 2017 08:47:18 with gcc 4.8.3 (crosstool-NG linaro-1.13.1-4.8-2014.01 - Linaro GCC 2013.11) 20140106 (prerelease)
Input #0, image2, from '/home/martin/fate/build/tests/vsynth1/%02d.pgm':
  Duration: 00:00:02.00, start: 0.000000, bitrate: N/A
    Stream #0:0: Video: pgmyuv
      yuv420p, 352x288
      25 fps, 25 tbn
Stream mapping:
  Stream #0:0 -> #0:0 (pgmyuv (native) -> rawvideo (native))
Press ctrl-c to stop encoding
opts ':100' 
Output #0, nut, to 'md5:':
    Stream #0:0: Video: rawvideo [B4BY / 0x59423442]
      rgb4_byte, 200x100, q=2-31, 200 kb/s
      25 tbn
    Metadata:
      encoder         : rawvideo
frame=    1 fps=  0 q=-0.0 Lsize=      20kB time=10000000000.00 bitrate=   0.0kbits/s    
video:20kB audio:0kB other streams:0kB global headers:0kB muxing overhead: 0.870000%
avconv version v13_dev0-1415-ge171022c2, Copyright (c) 2000-2017 the Libav developers
  built on Dec  3 2017 08:47:18 with gcc 4.8.3 (crosstool-NG linaro-1.13.1-4.8-2014.01 - Linaro GCC 2013.11) 20140106 (prerelease)
Input #0, image2, from '/home/martin/fate/build/tests/vsynth1/%02d.pgm':
  Duration: 00:00:02.00, start: 0.000000, bitrate: N/A
    Stream #0:0: Video: pgmyuv
      yuv420p, 352x288
      25 fps, 25 tbn
Stream mapping:
  Stream #0:0 -> #0:0 (pgmyuv (native) -> rawvideo (native))
Press ctrl-c to stop encoding
opts ':100' 
Output #0, nut, to 'md5:':
    Stream #0:0: Video: rawvideo [[15]BGR / 0x5247420F]
      rgb555be, 200x100, q=2-31, 200 kb/s
      25 tbn
    Metadata:
      encoder         : rawvideo
frame=    1 fps=  0 q=-0.0 Lsize=      39kB time=10000000000.00 bitrate=   0.0kbits/s    
video:39kB audio:0kB other streams:0kB global headers:0kB muxing overhead: 0.435000%
avconv version v13_dev0-1415-ge171022c2, Copyright (c) 2000-2017 the Libav developers
  built on Dec  3 2017 08:47:18 with gcc 4.8.3 (crosstool-NG linaro-1.13.1-4.8-2014.01 - Linaro GCC 2013.11) 20140106 (prerelease)
Input #0, image2, from '/home/martin/fate/build/tests/vsynth1/%02d.pgm':
  Duration: 00:00:02.00, start: 0.000000, bitrate: N/A
    Stream #0:0: Video: pgmyuv
      yuv420p, 352x288
      25 fps, 25 tbn
Stream mapping:
  Stream #0:0 -> #0:0 (pgmyuv (native) -> rawvideo (native))
Press ctrl-c to stop encoding
opts ':100' 
Output #0, nut, to 'md5:':
    Stream #0:0: Video: rawvideo [RGB[15] / 0xF424752]
      rgb555le, 200x100, q=2-31, 200 kb/s
      25 tbn
    Metadata:
      encoder         : rawvideo
frame=    1 fps=  0 q=-0.0 Lsize=      39kB time=10000000000.00 bitrate=   0.0kbits/s    
video:39kB audio:0kB other streams:0kB global headers:0kB muxing overhead: 0.435000%
avconv version v13_dev0-1415-ge171022c2, Copyright (c) 2000-2017 the Libav developers
  built on Dec  3 2017 08:47:18 with gcc 4.8.3 (crosstool-NG linaro-1.13.1-4.8-2014.01 - Linaro GCC 2013.11) 20140106 (prerelease)
Input #0, image2, from '/home/martin/fate/build/tests/vsynth1/%02d.pgm':
  Duration: 00:00:02.00, start: 0.000000, bitrate: N/A
    Stream #0:0: Video: pgmyuv
      yuv420p, 352x288
      25 fps, 25 tbn
Stream mapping:
  Stream #0:0 -> #0:0 (pgmyuv (native) -> rawvideo (native))
Press ctrl-c to stop encoding
opts ':100' 
Output #0, nut, to 'md5:':
    Stream #0:0: Video: rawvideo [[16]BGR / 0x52474210]
      rgb565be, 200x100, q=2-31, 200 kb/s
      25 tbn
    Metadata:
      encoder         : rawvideo
frame=    1 fps=  0 q=-0.0 Lsize=      39kB time=10000000000.00 bitrate=   0.0kbits/s    
video:39kB audio:0kB other streams:0kB global headers:0kB muxing overhead: 0.435000%
avconv version v13_dev0-1415-ge171022c2, Copyright (c) 2000-2017 the Libav developers
  built on Dec  3 2017 08:47:18 with gcc 4.8.3 (crosstool-NG linaro-1.13.1-4.8-2014.01 - Linaro GCC 2013.11) 20140106 (prerelease)
Input #0, image2, from '/home/martin/fate/build/tests/vsynth1/%02d.pgm':
  Duration: 00:00:02.00, start: 0.000000, bitrate: N/A
    Stream #0:0: Video: pgmyuv
      yuv420p, 352x288
      25 fps, 25 tbn
Stream mapping:
  Stream #0:0 -> #0:0 (pgmyuv (native) -> rawvideo (native))
Press ctrl-c to stop encoding
opts ':100' 
Output #0, nut, to 'md5:':
    Stream #0:0: Video: rawvideo [RGB[16] / 0x10424752]
      rgb565le, 200x100, q=2-31, 200 kb/s
      25 tbn
    Metadata:
      encoder         : rawvideo
frame=    1 fps=  0 q=-0.0 Lsize=      39kB time=10000000000.00 bitrate=   0.0kbits/s    
video:39kB audio:0kB other streams:0kB global headers:0kB muxing overhead: 0.435000%
avconv version v13_dev0-1415-ge171022c2, Copyright (c) 2000-2017 the Libav developers
  built on Dec  3 2017 08:47:18 with gcc 4.8.3 (crosstool-NG linaro-1.13.1-4.8-2014.01 - Linaro GCC 2013.11) 20140106 (prerelease)
Input #0, image2, from '/home/martin/fate/build/tests/vsynth1/%02d.pgm':
  Duration: 00:00:02.00, start: 0.000000, bitrate: N/A
    Stream #0:0: Video: pgmyuv
      yuv420p, 352x288
      25 fps, 25 tbn
Stream mapping:
  Stream #0:0 -> #0:0 (pgmyuv (native) -> rawvideo (native))
Press ctrl-c to stop encoding
opts ':100' 
Output #0, nut, to 'md5:':
    Stream #0:0: Video: rawvideo [RGB[8] / 0x8424752]
      rgb8, 200x100, q=2-31, 200 kb/s
      25 tbn
    Metadata:
      encoder         : rawvideo
frame=    1 fps=  0 q=-0.0 Lsize=      20kB time=10000000000.00 bitrate=   0.0kbits/s    
video:20kB audio:0kB other streams:0kB global headers:0kB muxing overhead: 0.870000%
avconv version v13_dev0-1415-ge171022c2, Copyright (c) 2000-2017 the Libav developers
  built on Dec  3 2017 08:47:18 with gcc 4.8.3 (crosstool-NG linaro-1.13.1-4.8-2014.01 - Linaro GCC 2013.11) 20140106 (prerelease)
Input #0, image2, from '/home/martin/fate/build/tests/vsynth1/%02d.pgm':
  Duration: 00:00:02.00, start: 0.000000, bitrate: N/A
    Stream #0:0: Video: pgmyuv
      yuv420p, 352x288
      25 fps, 25 tbn
Stream mapping:
  Stream #0:0 -> #0:0 (pgmyuv (native) -> rawvideo (native))
Press ctrl-c to stop encoding
opts ':100' 
Output #0, nut, to 'md5:':
    Stream #0:0: Video: rawvideo [RGBA / 0x41424752]
      rgba, 200x100, q=2-31, 200 kb/s
      25 tbn
    Metadata:
      encoder         : rawvideo
frame=    1 fps=  0 q=-0.0 Lsize=      78kB time=10000000000.00 bitrate=   0.0kbits/s    
video:78kB audio:0kB other streams:0kB global headers:0kB muxing overhead: 0.223750%
avconv version v13_dev0-1415-ge171022c2, Copyright (c) 2000-2017 the Libav developers
  built on Dec  3 2017 08:47:18 with gcc 4.8.3 (crosstool-NG linaro-1.13.1-4.8-2014.01 - Linaro GCC 2013.11) 20140106 (prerelease)
Input #0, image2, from '/home/martin/fate/build/tests/vsynth1/%02d.pgm':
  Duration: 00:00:02.00, start: 0.000000, bitrate: N/A
    Stream #0:0: Video: pgmyuv
      yuv420p, 352x288
      25 fps, 25 tbn
Stream mapping:
  Stream #0:0 -> #0:0 (pgmyuv (native) -> rawvideo (native))
Press ctrl-c to stop encoding
opts ':100' 
Output #0, nut, to 'md5:':
    Stream #0:0: Video: rawvideo [UYVY / 0x59565955]
      uyvy422, 200x100, q=2-31, 200 kb/s
      25 tbn
    Metadata:
      encoder         : rawvideo
frame=    1 fps=  0 q=-0.0 Lsize=      39kB time=10000000000.00 bitrate=   0.0kbits/s    
video:39kB audio:0kB other streams:0kB global headers:0kB muxing overhead: 0.435000%
avconv version v13_dev0-1415-ge171022c2, Copyright (c) 2000-2017 the Libav developers
  built on Dec  3 2017 08:47:18 with gcc 4.8.3 (crosstool-NG linaro-1.13.1-4.8-2014.01 - Linaro GCC 2013.11) 20140106 (prerelease)
Input #0, image2, from '/home/martin/fate/build/tests/vsynth1/%02d.pgm':
  Duration: 00:00:02.00, start: 0.000000, bitrate: N/A
    Stream #0:0: Video: pgmyuv
      yuv420p, 352x288
      25 fps, 25 tbn
Stream mapping:
  Stream #0:0 -> #0:0 (pgmyuv (native) -> rawvideo (native))
Press ctrl-c to stop encoding
opts ':100' 
Output #0, nut, to 'md5:':
    Stream #0:0: Video: rawvideo [YUV9 / 0x39565559]
      yuv410p, 200x100, q=2-31, 200 kb/s
      25 tbn
    Metadata:
      encoder         : rawvideo
frame=    1 fps=  0 q=-0.0 Lsize=      22kB time=10000000000.00 bitrate=   0.0kbits/s    
video:22kB audio:0kB other streams:0kB global headers:0kB muxing overhead: 0.773333%
avconv version v13_dev0-1415-ge171022c2, Copyright (c) 2000-2017 the Libav developers
  built on Dec  3 2017 08:47:18 with gcc 4.8.3 (crosstool-NG linaro-1.13.1-4.8-2014.01 - Linaro GCC 2013.11) 20140106 (prerelease)
Input #0, image2, from '/home/martin/fate/build/tests/vsynth1/%02d.pgm':
  Duration: 00:00:02.00, start: 0.000000, bitrate: N/A
    Stream #0:0: Video: pgmyuv
      yuv420p, 352x288
      25 fps, 25 tbn
Stream mapping:
  Stream #0:0 -> #0:0 (pgmyuv (native) -> rawvideo (native))
Press ctrl-c to stop encoding
opts ':100' 
Output #0, nut, to 'md5:':
    Stream #0:0: Video: rawvideo [Y41B / 0x42313459]
      yuv411p, 200x100, q=2-31, 200 kb/s
      25 tbn
    Metadata:
      encoder         : rawvideo
frame=    1 fps=  0 q=-0.0 Lsize=      29kB time=10000000000.00 bitrate=   0.0kbits/s    
video:29kB audio:0kB other streams:0kB global headers:0kB muxing overhead: 0.580000%
avconv version v13_dev0-1415-ge171022c2, Copyright (c) 2000-2017 the Libav developers
  built on Dec  3 2017 08:47:18 with gcc 4.8.3 (crosstool-NG linaro-1.13.1-4.8-2014.01 - Linaro GCC 2013.11) 20140106 (prerelease)
Input #0, image2, from '/home/martin/fate/build/tests/vsynth1/%02d.pgm':
  Duration: 00:00:02.00, start: 0.000000, bitrate: N/A
    Stream #0:0: Video: pgmyuv
      yuv420p, 352x288
      25 fps, 25 tbn
Stream mapping:
  Stream #0:0 -> #0:0 (pgmyuv (native) -> rawvideo (native))
Press ctrl-c to stop encoding
opts ':100' 
Output #0, nut, to 'md5:':
    Stream #0:0: Video: rawvideo [I420 / 0x30323449]
      yuv420p, 200x100, q=2-31, 200 kb/s
      25 tbn
    Metadata:
      encoder         : rawvideo
frame=    1 fps=  0 q=-0.0 Lsize=      29kB time=10000000000.00 bitrate=   0.0kbits/s    
video:29kB audio:0kB other streams:0kB global headers:0kB muxing overhead: 0.580000%
avconv version v13_dev0-1415-ge171022c2, Copyright (c) 2000-2017 the Libav developers
  built on Dec  3 2017 08:47:18 with gcc 4.8.3 (crosstool-NG linaro-1.13.1-4.8-2014.01 - Linaro GCC 2013.11) 20140106 (prerelease)
Input #0, image2, from '/home/martin/fate/build/tests/vsynth1/%02d.pgm':
  Duration: 00:00:02.00, start: 0.000000, bitrate: N/A
    Stream #0:0: Video: pgmyuv
      yuv420p, 352x288
      25 fps, 25 tbn
Stream mapping:
  Stream #0:0 -> #0:0 (pgmyuv (native) -> rawvideo (native))
Press ctrl-c to stop encoding
opts ':100' 
Output #0, nut, to 'md5:':
    Stream #0:0: Video: rawvideo [[10][11]3Y / 0x59330B0A]
      yuv420p10be, 200x100, q=2-31, 200 kb/s
      25 tbn
    Metadata:
      encoder         : rawvideo
frame=    1 fps=  0 q=-0.0 Lsize=      59kB time=10000000000.00 bitrate=   0.0kbits/s    
video:59kB audio:0kB other streams:0kB global headers:0kB muxing overhead: 0.290000%
avconv version v13_dev0-1415-ge171022c2, Copyright (c) 2000-2017 the Libav developers
  built on Dec  3 2017 08:47:18 with gcc 4.8.3 (crosstool-NG linaro-1.13.1-4.8-2014.01 - Linaro GCC 2013.11) 20140106 (prerelease)
Input #0, image2, from '/home/martin/fate/build/tests/vsynth1/%02d.pgm':
  Duration: 00:00:02.00, start: 0.000000, bitrate: N/A
    Stream #0:0: Video: pgmyuv
      yuv420p, 352x288
      25 fps, 25 tbn
Stream mapping:
  Stream #0:0 -> #0:0 (pgmyuv (native) -> rawvideo (native))
Press ctrl-c to stop encoding
opts ':100' 
Output #0, nut, to 'md5:':
    Stream #0:0: Video: rawvideo [Y3[11][10] / 0xA0B3359]
      yuv420p10le, 200x100, q=2-31, 200 kb/s
      25 tbn
    Metadata:
      encoder         : rawvideo
frame=    1 fps=  0 q=-0.0 Lsize=      59kB time=10000000000.00 bitrate=   0.0kbits/s    
video:59kB audio:0kB other streams:0kB global headers:0kB muxing overhead: 0.290000%
avconv version v13_dev0-1415-ge171022c2, Copyright (c) 2000-2017 the Libav developers
  built on Dec  3 2017 08:47:18 with gcc 4.8.3 (crosstool-NG linaro-1.13.1-4.8-2014.01 - Linaro GCC 2013.11) 20140106 (prerelease)
Input #0, image2, from '/home/martin/fate/build/tests/vsynth1/%02d.pgm':
  Duration: 00:00:02.00, start: 0.000000, bitrate: N/A
    Stream #0:0: Video: pgmyuv
      yuv420p, 352x288
      25 fps, 25 tbn
Stream mapping:
  Stream #0:0 -> #0:0 (pgmyuv (native) -> rawvideo (native))
Press ctrl-c to stop encoding
opts ':100' 
Output #0, nut, to 'md5:':
    Stream #0:0: Video: rawvideo [RGB[15] / 0xF424752]
      yuv420p12be, 200x100, q=2-31, 200 kb/s
      25 tbn
    Metadata:
      encoder         : rawvideo
frame=    1 fps=  0 q=-0.0 Lsize=      59kB time=10000000000.00 bitrate=   0.0kbits/s    
video:59kB audio:0kB other streams:0kB global headers:0kB muxing overhead: 0.290000%
avconv version v13_dev0-1415-ge171022c2, Copyright (c) 2000-2017 the Libav developers
  built on Dec  3 2017 08:47:18 with gcc 4.8.3 (crosstool-NG linaro-1.13.1-4.8-2014.01 - Linaro GCC 2013.11) 20140106 (prerelease)
Input #0, image2, from '/home/martin/fate/build/tests/vsynth1/%02d.pgm':
  Duration: 00:00:02.00, start: 0.000000, bitrate: N/A
    Stream #0:0: Video: pgmyuv
      yuv420p, 352x288
      25 fps, 25 tbn
Stream mapping:
  Stream #0:0 -> #0:0 (pgmyuv (native) -> rawvideo (native))
Press ctrl-c to stop encoding
opts ':100' 
Output #0, nut, to 'md5:':
    Stream #0:0: Video: rawvideo [RGB[15] / 0xF424752]
      yuv420p12le, 200x100, q=2-31, 200 kb/s
      25 tbn
    Metadata:
      encoder         : rawvideo
frame=    1 fps=  0 q=-0.0 Lsize=      59kB time=10000000000.00 bitrate=   0.0kbits/s    
video:59kB audio:0kB other streams:0kB global headers:0kB muxing overhead: 0.290000%
avconv version v13_dev0-1415-ge171022c2, Copyright (c) 2000-2017 the Libav developers
  built on Dec  3 2017 08:47:18 with gcc 4.8.3 (crosstool-NG linaro-1.13.1-4.8-2014.01 - Linaro GCC 2013.11) 20140106 (prerelease)
Input #0, image2, from '/home/martin/fate/build/tests/vsynth1/%02d.pgm':
  Duration: 00:00:02.00, start: 0.000000, bitrate: N/A
    Stream #0:0: Video: pgmyuv
      yuv420p, 352x288
      25 fps, 25 tbn
Stream mapping:
  Stream #0:0 -> #0:0 (pgmyuv (native) -> rawvideo (native))
Press ctrl-c to stop encoding
opts ':100' 
Output #0, nut, to 'md5:':
    Stream #0:0: Video: rawvideo [[16][11]3Y / 0x59330B10]
      yuv420p16be, 200x100, q=2-31, 200 kb/s
      25 tbn
    Metadata:
      encoder         : rawvideo
frame=    1 fps=  0 q=-0.0 Lsize=      59kB time=10000000000.00 bitrate=   0.0kbits/s    
video:59kB audio:0kB other streams:0kB global headers:0kB muxing overhead: 0.290000%
avconv version v13_dev0-1415-ge171022c2, Copyright (c) 2000-2017 the Libav developers
  built on Dec  3 2017 08:47:18 with gcc 4.8.3 (crosstool-NG linaro-1.13.1-4.8-2014.01 - Linaro GCC 2013.11) 20140106 (prerelease)
Input #0, image2, from '/home/martin/fate/build/tests/vsynth1/%02d.pgm':
  Duration: 00:00:02.00, start: 0.000000, bitrate: N/A
    Stream #0:0: Video: pgmyuv
      yuv420p, 352x288
      25 fps, 25 tbn
Stream mapping:
  Stream #0:0 -> #0:0 (pgmyuv (native) -> rawvideo (native))
Press ctrl-c to stop encoding
opts ':100' 
Output #0, nut, to 'md5:':
    Stream #0:0: Video: rawvideo [Y3[11][16] / 0x100B3359]
      yuv420p16le, 200x100, q=2-31, 200 kb/s
      25 tbn
    Metadata:
      encoder         : rawvideo
frame=    1 fps=  0 q=-0.0 Lsize=      59kB time=10000000000.00 bitrate=   0.0kbits/s    
video:59kB audio:0kB other streams:0kB global headers:0kB muxing overhead: 0.290000%
avconv version v13_dev0-1415-ge171022c2, Copyright (c) 2000-2017 the Libav developers
  built on Dec  3 2017 08:47:18 with gcc 4.8.3 (crosstool-NG linaro-1.13.1-4.8-2014.01 - Linaro GCC 2013.11) 20140106 (prerelease)
Input #0, image2, from '/home/martin/fate/build/tests/vsynth1/%02d.pgm':
  Duration: 00:00:02.00, start: 0.000000, bitrate: N/A
    Stream #0:0: Video: pgmyuv
      yuv420p, 352x288
      25 fps, 25 tbn
Stream mapping:
  Stream #0:0 -> #0:0 (pgmyuv (native) -> rawvideo (native))
Press ctrl-c to stop encoding
opts ':100' 
Output #0, nut, to 'md5:':
    Stream #0:0: Video: rawvideo [RGB[15] / 0xF424752]
      yuv420p9be, 200x100, q=2-31, 200 kb/s
      25 tbn
    Metadata:
      encoder         : rawvideo
frame=    1 fps=  0 q=-0.0 Lsize=      59kB time=10000000000.00 bitrate=   0.0kbits/s    
video:59kB audio:0kB other streams:0kB global headers:0kB muxing overhead: 0.290000%
avconv version v13_dev0-1415-ge171022c2, Copyright (c) 2000-2017 the Libav developers
  built on Dec  3 2017 08:47:18 with gcc 4.8.3 (crosstool-NG linaro-1.13.1-4.8-2014.01 - Linaro GCC 2013.11) 20140106 (prerelease)
Input #0, image2, from '/home/martin/fate/build/tests/vsynth1/%02d.pgm':
  Duration: 00:00:02.00, start: 0.000000, bitrate: N/A
    Stream #0:0: Video: pgmyuv
      yuv420p, 352x288
      25 fps, 25 tbn
Stream mapping:
  Stream #0:0 -> #0:0 (pgmyuv (native) -> rawvideo (native))
Press ctrl-c to stop encoding
opts ':100' 
Output #0, nut, to 'md5:':
    Stream #0:0: Video: rawvideo [RGB[15] / 0xF424752]
      yuv420p9le, 200x100, q=2-31, 200 kb/s
      25 tbn
    Metadata:
      encoder         : rawvideo
frame=    1 fps=  0 q=-0.0 Lsize=      59kB time=10000000000.00 bitrate=   0.0kbits/s    
video:59kB audio:0kB other streams:0kB global headers:0kB muxing overhead: 0.290000%
avconv version v13_dev0-1415-ge171022c2, Copyright (c) 2000-2017 the Libav developers
  built on Dec  3 2017 08:47:18 with gcc 4.8.3 (crosstool-NG linaro-1.13.1-4.8-2014.01 - Linaro GCC 2013.11) 20140106 (prerelease)
Input #0, image2, from '/home/martin/fate/build/tests/vsynth1/%02d.pgm':
  Duration: 00:00:02.00, start: 0.000000, bitrate: N/A
    Stream #0:0: Video: pgmyuv
      yuv420p, 352x288
      25 fps, 25 tbn
Stream mapping:
  Stream #0:0 -> #0:0 (pgmyuv (native) -> rawvideo (native))
Press ctrl-c to stop encoding
opts ':100' 
Output #0, nut, to 'md5:':
    Stream #0:0: Video: rawvideo [Y42B / 0x42323459]
      yuv422p, 200x100, q=2-31, 200 kb/s
      25 tbn
    Metadata:
      encoder         : rawvideo
frame=    1 fps=  0 q=-0.0 Lsize=      39kB time=10000000000.00 bitrate=   0.0kbits/s    
video:39kB audio:0kB other streams:0kB global headers:0kB muxing overhead: 0.435000%
avconv version v13_dev0-1415-ge171022c2, Copyright (c) 2000-2017 the Libav developers
  built on Dec  3 2017 08:47:18 with gcc 4.8.3 (crosstool-NG linaro-1.13.1-4.8-2014.01 - Linaro GCC 2013.11) 20140106 (prerelease)
Input #0, image2, from '/home/martin/fate/build/tests/vsynth1/%02d.pgm':
  Duration: 00:00:02.00, start: 0.000000, bitrate: N/A
    Stream #0:0: Video: pgmyuv
      yuv420p, 352x288
      25 fps, 25 tbn
Stream mapping:
  Stream #0:0 -> #0:0 (pgmyuv (native) -> rawvideo (native))
Press ctrl-c to stop encoding
opts ':100' 
Output #0, nut, to 'md5:':
    Stream #0:0: Video: rawvideo [[10][10]3Y / 0x59330A0A]
      yuv422p10be, 200x100, q=2-31, 200 kb/s
      25 tbn
    Metadata:
      encoder         : rawvideo
frame=    1 fps=  0 q=-0.0 Lsize=      78kB time=10000000000.00 bitrate=   0.0kbits/s    
video:78kB audio:0kB other streams:0kB global headers:0kB muxing overhead: 0.223750%
avconv version v13_dev0-1415-ge171022c2, Copyright (c) 2000-2017 the Libav developers
  built on Dec  3 2017 08:47:18 with gcc 4.8.3 (crosstool-NG linaro-1.13.1-4.8-2014.01 - Linaro GCC 2013.11) 20140106 (prerelease)
Input #0, image2, from '/home/martin/fate/build/tests/vsynth1/%02d.pgm':
  Duration: 00:00:02.00, start: 0.000000, bitrate: N/A
    Stream #0:0: Video: pgmyuv
      yuv420p, 352x288
      25 fps, 25 tbn
Stream mapping:
  Stream #0:0 -> #0:0 (pgmyuv (native) -> rawvideo (native))
Press ctrl-c to stop encoding
opts ':100' 
Output #0, nut, to 'md5:':
    Stream #0:0: Video: rawvideo [Y3[10][10] / 0xA0A3359]
      yuv422p10le, 200x100, q=2-31, 200 kb/s
      25 tbn
    Metadata:
      encoder         : rawvideo
frame=    1 fps=  0 q=-0.0 Lsize=      78kB time=10000000000.00 bitrate=   0.0kbits/s    
video:78kB audio:0kB other streams:0kB global headers:0kB muxing overhead: 0.223750%
avconv version v13_dev0-1415-ge171022c2, Copyright (c) 2000-2017 the Libav developers
  built on Dec  3 2017 08:47:18 with gcc 4.8.3 (crosstool-NG linaro-1.13.1-4.8-2014.01 - Linaro GCC 2013.11) 20140106 (prerelease)
Input #0, image2, from '/home/martin/fate/build/tests/vsynth1/%02d.pgm':
  Duration: 00:00:02.00, start: 0.000000, bitrate: N/A
    Stream #0:0: Video: pgmyuv
      yuv420p, 352x288
      25 fps, 25 tbn
Stream mapping:
  Stream #0:0 -> #0:0 (pgmyuv (native) -> rawvideo (native))
Press ctrl-c to stop encoding
opts ':100' 
Output #0, nut, to 'md5:':
    Stream #0:0: Video: rawvideo [RGB[15] / 0xF424752]
      yuv422p12be, 200x100, q=2-31, 200 kb/s
      25 tbn
    Metadata:
      encoder         : rawvideo
frame=    1 fps=  0 q=-0.0 Lsize=      78kB time=10000000000.00 bitrate=   0.0kbits/s    
video:78kB audio:0kB other streams:0kB global headers:0kB muxing overhead: 0.223750%
avconv version v13_dev0-1415-ge171022c2, Copyright (c) 2000-2017 the Libav developers
  built on Dec  3 2017 08:47:18 with gcc 4.8.3 (crosstool-NG linaro-1.13.1-4.8-2014.01 - Linaro GCC 2013.11) 20140106 (prerelease)
Input #0, image2, from '/home/martin/fate/build/tests/vsynth1/%02d.pgm':
  Duration: 00:00:02.00, start: 0.000000, bitrate: N/A
    Stream #0:0: Video: pgmyuv
      yuv420p, 352x288
      25 fps, 25 tbn
Stream mapping:
  Stream #0:0 -> #0:0 (pgmyuv (native) -> rawvideo (native))
Press ctrl-c to stop encoding
opts ':100' 
Output #0, nut, to 'md5:':
    Stream #0:0: Video: rawvideo [RGB[15] / 0xF424752]
      yuv422p12le, 200x100, q=2-31, 200 kb/s
      25 tbn
    Metadata:
      encoder         : rawvideo
frame=    1 fps=  0 q=-0.0 Lsize=      78kB time=10000000000.00 bitrate=   0.0kbits/s    
video:78kB audio:0kB other streams:0kB global headers:0kB muxing overhead: 0.223750%
avconv version v13_dev0-1415-ge171022c2, Copyright (c) 2000-2017 the Libav developers
  built on Dec  3 2017 08:47:18 with gcc 4.8.3 (crosstool-NG linaro-1.13.1-4.8-2014.01 - Linaro GCC 2013.11) 20140106 (prerelease)
Input #0, image2, from '/home/martin/fate/build/tests/vsynth1/%02d.pgm':
  Duration: 00:00:02.00, start: 0.000000, bitrate: N/A
    Stream #0:0: Video: pgmyuv
      yuv420p, 352x288
      25 fps, 25 tbn
Stream mapping:
  Stream #0:0 -> #0:0 (pgmyuv (native) -> rawvideo (native))
Press ctrl-c to stop encoding
opts ':100' 
Output #0, nut, to 'md5:':
    Stream #0:0: Video: rawvideo [[16][10]3Y / 0x59330A10]
      yuv422p16be, 200x100, q=2-31, 200 kb/s
      25 tbn
    Metadata:
      encoder         : rawvideo
frame=    1 fps=  0 q=-0.0 Lsize=      78kB time=10000000000.00 bitrate=   0.0kbits/s    
video:78kB audio:0kB other streams:0kB global headers:0kB muxing overhead: 0.223750%
avconv version v13_dev0-1415-ge171022c2, Copyright (c) 2000-2017 the Libav developers
  built on Dec  3 2017 08:47:18 with gcc 4.8.3 (crosstool-NG linaro-1.13.1-4.8-2014.01 - Linaro GCC 2013.11) 20140106 (prerelease)
Input #0, image2, from '/home/martin/fate/build/tests/vsynth1/%02d.pgm':
  Duration: 00:00:02.00, start: 0.000000, bitrate: N/A
    Stream #0:0: Video: pgmyuv
      yuv420p, 352x288
      25 fps, 25 tbn
Stream mapping:
  Stream #0:0 -> #0:0 (pgmyuv (native) -> rawvideo (native))
Press ctrl-c to stop encoding
opts ':100' 
Output #0, nut, to 'md5:':
    Stream #0:0: Video: rawvideo [Y3[10][16] / 0x100A3359]
      yuv422p16le, 200x100, q=2-31, 200 kb/s
      25 tbn
    Metadata:
      encoder         : rawvideo
frame=    1 fps=  0 q=-0.0 Lsize=      78kB time=10000000000.00 bitrate=   0.0kbits/s    
video:78kB audio:0kB other streams:0kB global headers:0kB muxing overhead: 0.223750%
avconv version v13_dev0-1415-ge171022c2, Copyright (c) 2000-2017 the Libav developers
  built on Dec  3 2017 08:47:18 with gcc 4.8.3 (crosstool-NG linaro-1.13.1-4.8-2014.01 - Linaro GCC 2013.11) 20140106 (prerelease)
Input #0, image2, from '/home/martin/fate/build/tests/vsynth1/%02d.pgm':
  Duration: 00:00:02.00, start: 0.000000, bitrate: N/A
    Stream #0:0: Video: pgmyuv
      yuv420p, 352x288
      25 fps, 25 tbn
Stream mapping:
  Stream #0:0 -> #0:0 (pgmyuv (native) -> rawvideo (native))
Press ctrl-c to stop encoding
opts ':100' 
Output #0, nut, to 'md5:':
    Stream #0:0: Video: rawvideo [RGB[15] / 0xF424752]
      yuv422p9be, 200x100, q=2-31, 200 kb/s
      25 tbn
    Metadata:
      encoder         : rawvideo
frame=    1 fps=  0 q=-0.0 Lsize=      78kB time=10000000000.00 bitrate=   0.0kbits/s    
video:78kB audio:0kB other streams:0kB global headers:0kB muxing overhead: 0.223750%
avconv version v13_dev0-1415-ge171022c2, Copyright (c) 2000-2017 the Libav developers
  built on Dec  3 2017 08:47:18 with gcc 4.8.3 (crosstool-NG linaro-1.13.1-4.8-2014.01 - Linaro GCC 2013.11) 20140106 (prerelease)
Input #0, image2, from '/home/martin/fate/build/tests/vsynth1/%02d.pgm':
  Duration: 00:00:02.00, start: 0.000000, bitrate: N/A
    Stream #0:0: Video: pgmyuv
      yuv420p, 352x288
      25 fps, 25 tbn
Stream mapping:
  Stream #0:0 -> #0:0 (pgmyuv (native) -> rawvideo (native))
Press ctrl-c to stop encoding
opts ':100' 
Output #0, nut, to 'md5:':
    Stream #0:0: Video: rawvideo [RGB[15] / 0xF424752]
      yuv422p9le, 200x100, q=2-31, 200 kb/s
      25 tbn
    Metadata:
      encoder         : rawvideo
frame=    1 fps=  0 q=-0.0 Lsize=      78kB time=10000000000.00 bitrate=   0.0kbits/s    
video:78kB audio:0kB other streams:0kB global headers:0kB muxing overhead: 0.223750%
avconv version v13_dev0-1415-ge171022c2, Copyright (c) 2000-2017 the Libav developers
  built on Dec  3 2017 08:47:18 with gcc 4.8.3 (crosstool-NG linaro-1.13.1-4.8-2014.01 - Linaro GCC 2013.11) 20140106 (prerelease)
Input #0, image2, from '/home/martin/fate/build/tests/vsynth1/%02d.pgm':
  Duration: 00:00:02.00, start: 0.000000, bitrate: N/A
    Stream #0:0: Video: pgmyuv
      yuv420p, 352x288
      25 fps, 25 tbn
Stream mapping:
  Stream #0:0 -> #0:0 (pgmyuv (native) -> rawvideo (native))
Press ctrl-c to stop encoding
opts ':100' 
Output #0, nut, to 'md5:':
    Stream #0:0: Video: rawvideo [440P / 0x50303434]
      yuv440p, 200x100, q=2-31, 200 kb/s
      25 tbn
    Metadata:
      encoder         : rawvideo
frame=    1 fps=  0 q=-0.0 Lsize=      39kB time=10000000000.00 bitrate=   0.0kbits/s    
video:39kB audio:0kB other streams:0kB global headers:0kB muxing overhead: 0.435000%
avconv version v13_dev0-1415-ge171022c2, Copyright (c) 2000-2017 the Libav developers
  built on Dec  3 2017 08:47:18 with gcc 4.8.3 (crosstool-NG linaro-1.13.1-4.8-2014.01 - Linaro GCC 2013.11) 20140106 (prerelease)
Input #0, image2, from '/home/martin/fate/build/tests/vsynth1/%02d.pgm':
  Duration: 00:00:02.00, start: 0.000000, bitrate: N/A
    Stream #0:0: Video: pgmyuv
      yuv420p, 352x288
      25 fps, 25 tbn
Stream mapping:
  Stream #0:0 -> #0:0 (pgmyuv (native) -> rawvideo (native))
Press ctrl-c to stop encoding
opts ':100' 
Output #0, nut, to 'md5:':
    Stream #0:0: Video: rawvideo [444P / 0x50343434]
      yuv444p, 200x100, q=2-31, 200 kb/s
      25 tbn
    Metadata:
      encoder         : rawvideo
frame=    1 fps=  0 q=-0.0 Lsize=      59kB time=10000000000.00 bitrate=   0.0kbits/s    
video:59kB audio:0kB other streams:0kB global headers:0kB muxing overhead: 0.290000%
avconv version v13_dev0-1415-ge171022c2, Copyright (c) 2000-2017 the Libav developers
  built on Dec  3 2017 08:47:18 with gcc 4.8.3 (crosstool-NG linaro-1.13.1-4.8-2014.01 - Linaro GCC 2013.11) 20140106 (prerelease)
Input #0, image2, from '/home/martin/fate/build/tests/vsynth1/%02d.pgm':
  Duration: 00:00:02.00, start: 0.000000, bitrate: N/A
    Stream #0:0: Video: pgmyuv
      yuv420p, 352x288
      25 fps, 25 tbn
Stream mapping:
  Stream #0:0 -> #0:0 (pgmyuv (native) -> rawvideo (native))
Press ctrl-c to stop encoding
opts ':100' 
Output #0, nut, to 'md5:':
    Stream #0:0: Video: rawvideo [[10][0]3Y / 0x5933000A]
      yuv444p10be, 200x100, q=2-31, 200 kb/s
      25 tbn
    Metadata:
      encoder         : rawvideo
frame=    1 fps=  0 q=-0.0 Lsize=     117kB time=10000000000.00 bitrate=   0.0kbits/s    
video:117kB audio:0kB other streams:0kB global headers:0kB muxing overhead: 0.149167%
avconv version v13_dev0-1415-ge171022c2, Copyright (c) 2000-2017 the Libav developers
  built on Dec  3 2017 08:47:18 with gcc 4.8.3 (crosstool-NG linaro-1.13.1-4.8-2014.01 - Linaro GCC 2013.11) 20140106 (prerelease)
Input #0, image2, from '/home/martin/fate/build/tests/vsynth1/%02d.pgm':
  Duration: 00:00:02.00, start: 0.000000, bitrate: N/A
    Stream #0:0: Video: pgmyuv
      yuv420p, 352x288
      25 fps, 25 tbn
Stream mapping:
  Stream #0:0 -> #0:0 (pgmyuv (native) -> rawvideo (native))
Press ctrl-c to stop encoding
opts ':100' 
Output #0, nut, to 'md5:':
    Stream #0:0: Video: rawvideo [Y3[0][10] / 0xA003359]
      yuv444p10le, 200x100, q=2-31, 200 kb/s
      25 tbn
    Metadata:
      encoder         : rawvideo
frame=    1 fps=  0 q=-0.0 Lsize=     117kB time=10000000000.00 bitrate=   0.0kbits/s    
video:117kB audio:0kB other streams:0kB global headers:0kB muxing overhead: 0.149167%
avconv version v13_dev0-1415-ge171022c2, Copyright (c) 2000-2017 the Libav developers
  built on Dec  3 2017 08:47:18 with gcc 4.8.3 (crosstool-NG linaro-1.13.1-4.8-2014.01 - Linaro GCC 2013.11) 20140106 (prerelease)
Input #0, image2, from '/home/martin/fate/build/tests/vsynth1/%02d.pgm':
  Duration: 00:00:02.00, start: 0.000000, bitrate: N/A
    Stream #0:0: Video: pgmyuv
      yuv420p, 352x288
      25 fps, 25 tbn
Stream mapping:
  Stream #0:0 -> #0:0 (pgmyuv (native) -> rawvideo (native))
Press ctrl-c to stop encoding
opts ':100' 
Output #0, nut, to 'md5:':
    Stream #0:0: Video: rawvideo [RGB[15] / 0xF424752]
      yuv444p12be, 200x100, q=2-31, 200 kb/s
      25 tbn
    Metadata:
      encoder         : rawvideo
frame=    1 fps=  0 q=-0.0 Lsize=     117kB time=10000000000.00 bitrate=   0.0kbits/s    
video:117kB audio:0kB other streams:0kB global headers:0kB muxing overhead: 0.149167%
avconv version v13_dev0-1415-ge171022c2, Copyright (c) 2000-2017 the Libav developers
  built on Dec  3 2017 08:47:18 with gcc 4.8.3 (crosstool-NG linaro-1.13.1-4.8-2014.01 - Linaro GCC 2013.11) 20140106 (prerelease)
Input #0, image2, from '/home/martin/fate/build/tests/vsynth1/%02d.pgm':
  Duration: 00:00:02.00, start: 0.000000, bitrate: N/A
    Stream #0:0: Video: pgmyuv
      yuv420p, 352x288
      25 fps, 25 tbn
Stream mapping:
  Stream #0:0 -> #0:0 (pgmyuv (native) -> rawvideo (native))
Press ctrl-c to stop encoding
opts ':100' 
Output #0, nut, to 'md5:':
    Stream #0:0: Video: rawvideo [RGB[15] / 0xF424752]
      yuv444p12le, 200x100, q=2-31, 200 kb/s
      25 tbn
    Metadata:
      encoder         : rawvideo
frame=    1 fps=  0 q=-0.0 Lsize=     117kB time=10000000000.00 bitrate=   0.0kbits/s    
video:117kB audio:0kB other streams:0kB global headers:0kB muxing overhead: 0.149167%
avconv version v13_dev0-1415-ge171022c2, Copyright (c) 2000-2017 the Libav developers
  built on Dec  3 2017 08:47:18 with gcc 4.8.3 (crosstool-NG linaro-1.13.1-4.8-2014.01 - Linaro GCC 2013.11) 20140106 (prerelease)
Input #0, image2, from '/home/martin/fate/build/tests/vsynth1/%02d.pgm':
  Duration: 00:00:02.00, start: 0.000000, bitrate: N/A
    Stream #0:0: Video: pgmyuv
      yuv420p, 352x288
      25 fps, 25 tbn
Stream mapping:
  Stream #0:0 -> #0:0 (pgmyuv (native) -> rawvideo (native))
Press ctrl-c to stop encoding
opts ':100' 
Output #0, nut, to 'md5:':
    Stream #0:0: Video: rawvideo [[16][0]3Y / 0x59330010]
      yuv444p16be, 200x100, q=2-31, 200 kb/s
      25 tbn
    Metadata:
      encoder         : rawvideo
frame=    1 fps=  0 q=-0.0 Lsize=     117kB time=10000000000.00 bitrate=   0.0kbits/s    
video:117kB audio:0kB other streams:0kB global headers:0kB muxing overhead: 0.149167%
avconv version v13_dev0-1415-ge171022c2, Copyright (c) 2000-2017 the Libav developers
  built on Dec  3 2017 08:47:18 with gcc 4.8.3 (crosstool-NG linaro-1.13.1-4.8-2014.01 - Linaro GCC 2013.11) 20140106 (prerelease)
Input #0, image2, from '/home/martin/fate/build/tests/vsynth1/%02d.pgm':
  Duration: 00:00:02.00, start: 0.000000, bitrate: N/A
    Stream #0:0: Video: pgmyuv
      yuv420p, 352x288
      25 fps, 25 tbn
Stream mapping:
  Stream #0:0 -> #0:0 (pgmyuv (native) -> rawvideo (native))
Press ctrl-c to stop encoding
opts ':100' 
Output #0, nut, to 'md5:':
    Stream #0:0: Video: rawvideo [Y3[0][16] / 0x10003359]
      yuv444p16le, 200x100, q=2-31, 200 kb/s
      25 tbn
    Metadata:
      encoder         : rawvideo
frame=    1 fps=  0 q=-0.0 Lsize=     117kB time=10000000000.00 bitrate=   0.0kbits/s    
video:117kB audio:0kB other streams:0kB global headers:0kB muxing overhead: 0.149167%
avconv version v13_dev0-1415-ge171022c2, Copyright (c) 2000-2017 the Libav developers
  built on Dec  3 2017 08:47:18 with gcc 4.8.3 (crosstool-NG linaro-1.13.1-4.8-2014.01 - Linaro GCC 2013.11) 20140106 (prerelease)
Input #0, image2, from '/home/martin/fate/build/tests/vsynth1/%02d.pgm':
  Duration: 00:00:02.00, start: 0.000000, bitrate: N/A
    Stream #0:0: Video: pgmyuv
      yuv420p, 352x288
      25 fps, 25 tbn
Stream mapping:
  Stream #0:0 -> #0:0 (pgmyuv (native) -> rawvideo (native))
Press ctrl-c to stop encoding
opts ':100' 
Output #0, nut, to 'md5:':
    Stream #0:0: Video: rawvideo [RGB[15] / 0xF424752]
      yuv444p9be, 200x100, q=2-31, 200 kb/s
      25 tbn
    Metadata:
      encoder         : rawvideo
frame=    1 fps=  0 q=-0.0 Lsize=     117kB time=10000000000.00 bitrate=   0.0kbits/s    
video:117kB audio:0kB other streams:0kB global headers:0kB muxing overhead: 0.149167%
avconv version v13_dev0-1415-ge171022c2, Copyright (c) 2000-2017 the Libav developers
  built on Dec  3 2017 08:47:18 with gcc 4.8.3 (crosstool-NG linaro-1.13.1-4.8-2014.01 - Linaro GCC 2013.11) 20140106 (prerelease)
Input #0, image2, from '/home/martin/fate/build/tests/vsynth1/%02d.pgm':
  Duration: 00:00:02.00, start: 0.000000, bitrate: N/A
    Stream #0:0: Video: pgmyuv
      yuv420p, 352x288
      25 fps, 25 tbn
Stream mapping:
  Stream #0:0 -> #0:0 (pgmyuv (native) -> rawvideo (native))
Press ctrl-c to stop encoding
opts ':100' 
Output #0, nut, to 'md5:':
    Stream #0:0: Video: rawvideo [Y4[11][8] / 0x80B3459]
      yuva420p, 200x100, q=2-31, 200 kb/s
      25 tbn
    Metadata:
      encoder         : rawvideo
frame=    1 fps=  0 q=-0.0 Lsize=      49kB time=10000000000.00 bitrate=   0.0kbits/s    
video:49kB audio:0kB other streams:0kB global headers:0kB muxing overhead: 0.348000%
avconv version v13_dev0-1415-ge171022c2, Copyright (c) 2000-2017 the Libav developers
  built on Dec  3 2017 08:47:18 with gcc 4.8.3 (crosstool-NG linaro-1.13.1-4.8-2014.01 - Linaro GCC 2013.11) 20140106 (prerelease)
Input #0, image2, from '/home/martin/fate/build/tests/vsynth1/%02d.pgm':
  Duration: 00:00:02.00, start: 0.000000, bitrate: N/A
    Stream #0:0: Video: pgmyuv
      yuv420p, 352x288
      25 fps, 25 tbn
Stream mapping:
  Stream #0:0 -> #0:0 (pgmyuv (native) -> rawvideo (native))
Press ctrl-c to stop encoding
opts ':100' 
Output #0, nut, to 'md5:':
    Stream #0:0: Video: rawvideo [[10][11]4Y / 0x59340B0A]
      yuva420p10be, 200x100, q=2-31, 200 kb/s
      25 tbn
    Metadata:
      encoder         : rawvideo
frame=    1 fps=  0 q=-0.0 Lsize=      98kB time=10000000000.00 bitrate=   0.0kbits/s    
video:98kB audio:0kB other streams:0kB global headers:0kB muxing overhead: 0.179000%
avconv version v13_dev0-1415-ge171022c2, Copyright (c) 2000-2017 the Libav developers
  built on Dec  3 2017 08:47:18 with gcc 4.8.3 (crosstool-NG linaro-1.13.1-4.8-2014.01 - Linaro GCC 2013.11) 20140106 (prerelease)
Input #0, image2, from '/home/martin/fate/build/tests/vsynth1/%02d.pgm':
  Duration: 00:00:02.00, start: 0.000000, bitrate: N/A
    Stream #0:0: Video: pgmyuv
      yuv420p, 352x288
      25 fps, 25 tbn
Stream mapping:
  Stream #0:0 -> #0:0 (pgmyuv (native) -> rawvideo (native))
Press ctrl-c to stop encoding
opts ':100' 
Output #0, nut, to 'md5:':
    Stream #0:0: Video: rawvideo [Y4[11][10] / 0xA0B3459]
      yuva420p10le, 200x100, q=2-31, 200 kb/s
      25 tbn
    Metadata:
      encoder         : rawvideo
frame=    1 fps=  0 q=-0.0 Lsize=      98kB time=10000000000.00 bitrate=   0.0kbits/s    
video:98kB audio:0kB other streams:0kB global headers:0kB muxing overhead: 0.179000%
avconv version v13_dev0-1415-ge171022c2, Copyright (c) 2000-2017 the Libav developers
  built on Dec  3 2017 08:47:18 with gcc 4.8.3 (crosstool-NG linaro-1.13.1-4.8-2014.01 - Linaro GCC 2013.11) 20140106 (prerelease)
Input #0, image2, from '/home/martin/fate/build/tests/vsynth1/%02d.pgm':
  Duration: 00:00:02.00, start: 0.000000, bitrate: N/A
    Stream #0:0: Video: pgmyuv
      yuv420p, 352x288
      25 fps, 25 tbn
Stream mapping:
  Stream #0:0 -> #0:0 (pgmyuv (native) -> rawvideo (native))
Press ctrl-c to stop encoding
opts ':100' 
Output #0, nut, to 'md5:':
    Stream #0:0: Video: rawvideo [[16][11]4Y / 0x59340B10]
      yuva420p16be, 200x100, q=2-31, 200 kb/s
      25 tbn
    Metadata:
      encoder         : rawvideo
frame=    1 fps=  0 q=-0.0 Lsize=      98kB time=10000000000.00 bitrate=   0.0kbits/s    
video:98kB audio:0kB other streams:0kB global headers:0kB muxing overhead: 0.179000%
avconv version v13_dev0-1415-ge171022c2, Copyright (c) 2000-2017 the Libav developers
  built on Dec  3 2017 08:47:18 with gcc 4.8.3 (crosstool-NG linaro-1.13.1-4.8-2014.01 - Linaro GCC 2013.11) 20140106 (prerelease)
Input #0, image2, from '/home/martin/fate/build/tests/vsynth1/%02d.pgm':
  Duration: 00:00:02.00, start: 0.000000, bitrate: N/A
    Stream #0:0: Video: pgmyuv
      yuv420p, 352x288
      25 fps, 25 tbn
Stream mapping:
  Stream #0:0 -> #0:0 (pgmyuv (native) -> rawvideo (native))
Press ctrl-c to stop encoding
opts ':100' 
Output #0, nut, to 'md5:':
    Stream #0:0: Video: rawvideo [Y4[11][16] / 0x100B3459]
      yuva420p16le, 200x100, q=2-31, 200 kb/s
      25 tbn
    Metadata:
      encoder         : rawvideo
frame=    1 fps=  0 q=-0.0 Lsize=      98kB time=10000000000.00 bitrate=   0.0kbits/s    
video:98kB audio:0kB other streams:0kB global headers:0kB muxing overhead: 0.179000%
avconv version v13_dev0-1415-ge171022c2, Copyright (c) 2000-2017 the Libav developers
  built on Dec  3 2017 08:47:18 with gcc 4.8.3 (crosstool-NG linaro-1.13.1-4.8-2014.01 - Linaro GCC 2013.11) 20140106 (prerelease)
Input #0, image2, from '/home/martin/fate/build/tests/vsynth1/%02d.pgm':
  Duration: 00:00:02.00, start: 0.000000, bitrate: N/A
    Stream #0:0: Video: pgmyuv
      yuv420p, 352x288
      25 fps, 25 tbn
Stream mapping:
  Stream #0:0 -> #0:0 (pgmyuv (native) -> rawvideo (native))
Press ctrl-c to stop encoding
opts ':100' 
Output #0, nut, to 'md5:':
    Stream #0:0: Video: rawvideo [[9][11]4Y / 0x59340B09]
      yuva420p9be, 200x100, q=2-31, 200 kb/s
      25 tbn
    Metadata:
      encoder         : rawvideo
frame=    1 fps=  0 q=-0.0 Lsize=      98kB time=10000000000.00 bitrate=   0.0kbits/s    
video:98kB audio:0kB other streams:0kB global headers:0kB muxing overhead: 0.179000%
avconv version v13_dev0-1415-ge171022c2, Copyright (c) 2000-2017 the Libav developers
  built on Dec  3 2017 08:47:18 with gcc 4.8.3 (crosstool-NG linaro-1.13.1-4.8-2014.01 - Linaro GCC 2013.11) 20140106 (prerelease)
Input #0, image2, from '/home/martin/fate/build/tests/vsynth1/%02d.pgm':
  Duration: 00:00:02.00, start: 0.000000, bitrate: N/A
    Stream #0:0: Video: pgmyuv
      yuv420p, 352x288
      25 fps, 25 tbn
Stream mapping:
  Stream #0:0 -> #0:0 (pgmyuv (native) -> rawvideo (native))
Press ctrl-c to stop encoding
opts ':100' 
Output #0, nut, to 'md5:':
    Stream #0:0: Video: rawvideo [Y4[11][9] / 0x90B3459]
      yuva420p9le, 200x100, q=2-31, 200 kb/s
      25 tbn
    Metadata:
      encoder         : rawvideo
frame=    1 fps=  0 q=-0.0 Lsize=      98kB time=10000000000.00 bitrate=   0.0kbits/s    
video:98kB audio:0kB other streams:0kB global headers:0kB muxing overhead: 0.179000%
avconv version v13_dev0-1415-ge171022c2, Copyright (c) 2000-2017 the Libav developers
  built on Dec  3 2017 08:47:18 with gcc 4.8.3 (crosstool-NG linaro-1.13.1-4.8-2014.01 - Linaro GCC 2013.11) 20140106 (prerelease)
Input #0, image2, from '/home/martin/fate/build/tests/vsynth1/%02d.pgm':
  Duration: 00:00:02.00, start: 0.000000, bitrate: N/A
    Stream #0:0: Video: pgmyuv
      yuv420p, 352x288
      25 fps, 25 tbn
Stream mapping:
  Stream #0:0 -> #0:0 (pgmyuv (native) -> rawvideo (native))
Press ctrl-c to stop encoding
opts ':100' 
Output #0, nut, to 'md5:':
    Stream #0:0: Video: rawvideo [RGB[15] / 0xF424752]
      yuva422p, 200x100, q=2-31, 200 kb/s
      25 tbn
    Metadata:
      encoder         : rawvideo
frame=    1 fps=  0 q=-0.0 Lsize=      59kB time=10000000000.00 bitrate=   0.0kbits/s    
video:59kB audio:0kB other streams:0kB global headers:0kB muxing overhead: 0.290000%
avconv version v13_dev0-1415-ge171022c2, Copyright (c) 2000-2017 the Libav developers
  built on Dec  3 2017 08:47:18 with gcc 4.8.3 (crosstool-NG linaro-1.13.1-4.8-2014.01 - Linaro GCC 2013.11) 20140106 (prerelease)
Input #0, image2, from '/home/martin/fate/build/tests/vsynth1/%02d.pgm':
  Duration: 00:00:02.00, start: 0.000000, bitrate: N/A
    Stream #0:0: Video: pgmyuv
      yuv420p, 352x288
      25 fps, 25 tbn
Stream mapping:
  Stream #0:0 -> #0:0 (pgmyuv (native) -> rawvideo (native))
Press ctrl-c to stop encoding
opts ':100' 
Output #0, nut, to 'md5:':
    Stream #0:0: Video: rawvideo [[10][10]4Y / 0x59340A0A]
      yuva422p10be, 200x100, q=2-31, 200 kb/s
      25 tbn
    Metadata:
      encoder         : rawvideo
frame=    1 fps=  0 q=-0.0 Lsize=     117kB time=10000000000.00 bitrate=   0.0kbits/s    
video:117kB audio:0kB other streams:0kB global headers:0kB muxing overhead: 0.149167%
avconv version v13_dev0-1415-ge171022c2, Copyright (c) 2000-2017 the Libav developers
  built on Dec  3 2017 08:47:18 with gcc 4.8.3 (crosstool-NG linaro-1.13.1-4.8-2014.01 - Linaro GCC 2013.11) 20140106 (prerelease)
Input #0, image2, from '/home/martin/fate/build/tests/vsynth1/%02d.pgm':
  Duration: 00:00:02.00, start: 0.000000, bitrate: N/A
    Stream #0:0: Video: pgmyuv
      yuv420p, 352x288
      25 fps, 25 tbn
Stream mapping:
  Stream #0:0 -> #0:0 (pgmyuv (native) -> rawvideo (native))
Press ctrl-c to stop encoding
opts ':100' 
Output #0, nut, to 'md5:':
    Stream #0:0: Video: rawvideo [Y4[10][10] / 0xA0A3459]
      yuva422p10le, 200x100, q=2-31, 200 kb/s
      25 tbn
    Metadata:
      encoder         : rawvideo
frame=    1 fps=  0 q=-0.0 Lsize=     117kB time=10000000000.00 bitrate=   0.0kbits/s    
video:117kB audio:0kB other streams:0kB global headers:0kB muxing overhead: 0.149167%
avconv version v13_dev0-1415-ge171022c2, Copyright (c) 2000-2017 the Libav developers
  built on Dec  3 2017 08:47:18 with gcc 4.8.3 (crosstool-NG linaro-1.13.1-4.8-2014.01 - Linaro GCC 2013.11) 20140106 (prerelease)
Input #0, image2, from '/home/martin/fate/build/tests/vsynth1/%02d.pgm':
  Duration: 00:00:02.00, start: 0.000000, bitrate: N/A
    Stream #0:0: Video: pgmyuv
      yuv420p, 352x288
      25 fps, 25 tbn
Stream mapping:
  Stream #0:0 -> #0:0 (pgmyuv (native) -> rawvideo (native))
Press ctrl-c to stop encoding
opts ':100' 
Output #0, nut, to 'md5:':
    Stream #0:0: Video: rawvideo [[16][10]4Y / 0x59340A10]
      yuva422p16be, 200x100, q=2-31, 200 kb/s
      25 tbn
    Metadata:
      encoder         : rawvideo
frame=    1 fps=  0 q=-0.0 Lsize=     117kB time=10000000000.00 bitrate=   0.0kbits/s    
video:117kB audio:0kB other streams:0kB global headers:0kB muxing overhead: 0.149167%
avconv version v13_dev0-1415-ge171022c2, Copyright (c) 2000-2017 the Libav developers
  built on Dec  3 2017 08:47:18 with gcc 4.8.3 (crosstool-NG linaro-1.13.1-4.8-2014.01 - Linaro GCC 2013.11) 20140106 (prerelease)
Input #0, image2, from '/home/martin/fate/build/tests/vsynth1/%02d.pgm':
  Duration: 00:00:02.00, start: 0.000000, bitrate: N/A
    Stream #0:0: Video: pgmyuv
      yuv420p, 352x288
      25 fps, 25 tbn
Stream mapping:
  Stream #0:0 -> #0:0 (pgmyuv (native) -> rawvideo (native))
Press ctrl-c to stop encoding
opts ':100' 
Output #0, nut, to 'md5:':
    Stream #0:0: Video: rawvideo [Y4[10][16] / 0x100A3459]
      yuva422p16le, 200x100, q=2-31, 200 kb/s
      25 tbn
    Metadata:
      encoder         : rawvideo
frame=    1 fps=  0 q=-0.0 Lsize=     117kB time=10000000000.00 bitrate=   0.0kbits/s    
video:117kB audio:0kB other streams:0kB global headers:0kB muxing overhead: 0.149167%
avconv version v13_dev0-1415-ge171022c2, Copyright (c) 2000-2017 the Libav developers
  built on Dec  3 2017 08:47:18 with gcc 4.8.3 (crosstool-NG linaro-1.13.1-4.8-2014.01 - Linaro GCC 2013.11) 20140106 (prerelease)
Input #0, image2, from '/home/martin/fate/build/tests/vsynth1/%02d.pgm':
  Duration: 00:00:02.00, start: 0.000000, bitrate: N/A
    Stream #0:0: Video: pgmyuv
      yuv420p, 352x288
      25 fps, 25 tbn
Stream mapping:
  Stream #0:0 -> #0:0 (pgmyuv (native) -> rawvideo (native))
Press ctrl-c to stop encoding
opts ':100' 
Output #0, nut, to 'md5:':
    Stream #0:0: Video: rawvideo [[9][10]4Y / 0x59340A09]
      yuva422p9be, 200x100, q=2-31, 200 kb/s
      25 tbn
    Metadata:
      encoder         : rawvideo
frame=    1 fps=  0 q=-0.0 Lsize=     117kB time=10000000000.00 bitrate=   0.0kbits/s    
video:117kB audio:0kB other streams:0kB global headers:0kB muxing overhead: 0.149167%
avconv version v13_dev0-1415-ge171022c2, Copyright (c) 2000-2017 the Libav developers
  built on Dec  3 2017 08:47:18 with gcc 4.8.3 (crosstool-NG linaro-1.13.1-4.8-2014.01 - Linaro GCC 2013.11) 20140106 (prerelease)
Input #0, image2, from '/home/martin/fate/build/tests/vsynth1/%02d.pgm':
  Duration: 00:00:02.00, start: 0.000000, bitrate: N/A
    Stream #0:0: Video: pgmyuv
      yuv420p, 352x288
      25 fps, 25 tbn
Stream mapping:
  Stream #0:0 -> #0:0 (pgmyuv (native) -> rawvideo (native))
Press ctrl-c to stop encoding
opts ':100' 
Output #0, nut, to 'md5:':
    Stream #0:0: Video: rawvideo [Y4[10][9] / 0x90A3459]
      yuva422p9le, 200x100, q=2-31, 200 kb/s
      25 tbn
    Metadata:
      encoder         : rawvideo
frame=    1 fps=  0 q=-0.0 Lsize=     117kB time=10000000000.00 bitrate=   0.0kbits/s    
video:117kB audio:0kB other streams:0kB global headers:0kB muxing overhead: 0.149167%
avconv version v13_dev0-1415-ge171022c2, Copyright (c) 2000-2017 the Libav developers
  built on Dec  3 2017 08:47:18 with gcc 4.8.3 (crosstool-NG linaro-1.13.1-4.8-2014.01 - Linaro GCC 2013.11) 20140106 (prerelease)
Input #0, image2, from '/home/martin/fate/build/tests/vsynth1/%02d.pgm':
  Duration: 00:00:02.00, start: 0.000000, bitrate: N/A
    Stream #0:0: Video: pgmyuv
      yuv420p, 352x288
      25 fps, 25 tbn
Stream mapping:
  Stream #0:0 -> #0:0 (pgmyuv (native) -> rawvideo (native))
Press ctrl-c to stop encoding
opts ':100' 
Output #0, nut, to 'md5:':
    Stream #0:0: Video: rawvideo [RGB[15] / 0xF424752]
      yuva444p, 200x100, q=2-31, 200 kb/s
      25 tbn
    Metadata:
      encoder         : rawvideo
frame=    1 fps=  0 q=-0.0 Lsize=      78kB time=10000000000.00 bitrate=   0.0kbits/s    
video:78kB audio:0kB other streams:0kB global headers:0kB muxing overhead: 0.223750%
avconv version v13_dev0-1415-ge171022c2, Copyright (c) 2000-2017 the Libav developers
  built on Dec  3 2017 08:47:18 with gcc 4.8.3 (crosstool-NG linaro-1.13.1-4.8-2014.01 - Linaro GCC 2013.11) 20140106 (prerelease)
Input #0, image2, from '/home/martin/fate/build/tests/vsynth1/%02d.pgm':
  Duration: 00:00:02.00, start: 0.000000, bitrate: N/A
    Stream #0:0: Video: pgmyuv
      yuv420p, 352x288
      25 fps, 25 tbn
Stream mapping:
  Stream #0:0 -> #0:0 (pgmyuv (native) -> rawvideo (native))
Press ctrl-c to stop encoding
opts ':100' 
Output #0, nut, to 'md5:':
    Stream #0:0: Video: rawvideo [[10][0]4Y / 0x5934000A]
      yuva444p10be, 200x100, q=2-31, 200 kb/s
      25 tbn
    Metadata:
      encoder         : rawvideo
frame=    1 fps=  0 q=-0.0 Lsize=     156kB time=10000000000.00 bitrate=   0.0kbits/s    
video:156kB audio:0kB other streams:0kB global headers:0kB muxing overhead: 0.111875%
avconv version v13_dev0-1415-ge171022c2, Copyright (c) 2000-2017 the Libav developers
  built on Dec  3 2017 08:47:18 with gcc 4.8.3 (crosstool-NG linaro-1.13.1-4.8-2014.01 - Linaro GCC 2013.11) 20140106 (prerelease)
Input #0, image2, from '/home/martin/fate/build/tests/vsynth1/%02d.pgm':
  Duration: 00:00:02.00, start: 0.000000, bitrate: N/A
    Stream #0:0: Video: pgmyuv
      yuv420p, 352x288
      25 fps, 25 tbn
Stream mapping:
  Stream #0:0 -> #0:0 (pgmyuv (native) -> rawvideo (native))
Press ctrl-c to stop encoding
opts ':100' 
Output #0, nut, to 'md5:':
    Stream #0:0: Video: rawvideo [Y4[0][10] / 0xA003459]
      yuva444p10le, 200x100, q=2-31, 200 kb/s
      25 tbn
    Metadata:
      encoder         : rawvideo
frame=    1 fps=  0 q=-0.0 Lsize=     156kB time=10000000000.00 bitrate=   0.0kbits/s    
video:156kB audio:0kB other streams:0kB global headers:0kB muxing overhead: 0.111875%
avconv version v13_dev0-1415-ge171022c2, Copyright (c) 2000-2017 the Libav developers
  built on Dec  3 2017 08:47:18 with gcc 4.8.3 (crosstool-NG linaro-1.13.1-4.8-2014.01 - Linaro GCC 2013.11) 20140106 (prerelease)
Input #0, image2, from '/home/martin/fate/build/tests/vsynth1/%02d.pgm':
  Duration: 00:00:02.00, start: 0.000000, bitrate: N/A
    Stream #0:0: Video: pgmyuv
      yuv420p, 352x288
      25 fps, 25 tbn
Stream mapping:
  Stream #0:0 -> #0:0 (pgmyuv (native) -> rawvideo (native))
Press ctrl-c to stop encoding
opts ':100' 
Output #0, nut, to 'md5:':
    Stream #0:0: Video: rawvideo [[16][0]4Y / 0x59340010]
      yuva444p16be, 200x100, q=2-31, 200 kb/s
      25 tbn
    Metadata:
      encoder         : rawvideo
frame=    1 fps=  0 q=-0.0 Lsize=     156kB time=10000000000.00 bitrate=   0.0kbits/s    
video:156kB audio:0kB other streams:0kB global headers:0kB muxing overhead: 0.111875%
avconv version v13_dev0-1415-ge171022c2, Copyright (c) 2000-2017 the Libav developers
  built on Dec  3 2017 08:47:18 with gcc 4.8.3 (crosstool-NG linaro-1.13.1-4.8-2014.01 - Linaro GCC 2013.11) 20140106 (prerelease)
Input #0, image2, from '/home/martin/fate/build/tests/vsynth1/%02d.pgm':
  Duration: 00:00:02.00, start: 0.000000, bitrate: N/A
    Stream #0:0: Video: pgmyuv
      yuv420p, 352x288
      25 fps, 25 tbn
Stream mapping:
  Stream #0:0 -> #0:0 (pgmyuv (native) -> rawvideo (native))
Press ctrl-c to stop encoding
opts ':100' 
Output #0, nut, to 'md5:':
    Stream #0:0: Video: rawvideo [Y4[0][16] / 0x10003459]
      yuva444p16le, 200x100, q=2-31, 200 kb/s
      25 tbn
    Metadata:
      encoder         : rawvideo
frame=    1 fps=  0 q=-0.0 Lsize=     156kB time=10000000000.00 bitrate=   0.0kbits/s    
video:156kB audio:0kB other streams:0kB global headers:0kB muxing overhead: 0.111875%
avconv version v13_dev0-1415-ge171022c2, Copyright (c) 2000-2017 the Libav developers
  built on Dec  3 2017 08:47:18 with gcc 4.8.3 (crosstool-NG linaro-1.13.1-4.8-2014.01 - Linaro GCC 2013.11) 20140106 (prerelease)
Input #0, image2, from '/home/martin/fate/build/tests/vsynth1/%02d.pgm':
  Duration: 00:00:02.00, start: 0.000000, bitrate: N/A
    Stream #0:0: Video: pgmyuv
      yuv420p, 352x288
      25 fps, 25 tbn
Stream mapping:
  Stream #0:0 -> #0:0 (pgmyuv (native) -> rawvideo (native))
Press ctrl-c to stop encoding
opts ':100' 
Output #0, nut, to 'md5:':
    Stream #0:0: Video: rawvideo [[9][0]4Y / 0x59340009]
      yuva444p9be, 200x100, q=2-31, 200 kb/s
      25 tbn
    Metadata:
      encoder         : rawvideo
frame=    1 fps=  0 q=-0.0 Lsize=     156kB time=10000000000.00 bitrate=   0.0kbits/s    
video:156kB audio:0kB other streams:0kB global headers:0kB muxing overhead: 0.111875%
avconv version v13_dev0-1415-ge171022c2, Copyright (c) 2000-2017 the Libav developers
  built on Dec  3 2017 08:47:18 with gcc 4.8.3 (crosstool-NG linaro-1.13.1-4.8-2014.01 - Linaro GCC 2013.11) 20140106 (prerelease)
Input #0, image2, from '/home/martin/fate/build/tests/vsynth1/%02d.pgm':
  Duration: 00:00:02.00, start: 0.000000, bitrate: N/A
    Stream #0:0: Video: pgmyuv
      yuv420p, 352x288
      25 fps, 25 tbn
Stream mapping:
  Stream #0:0 -> #0:0 (pgmyuv (native) -> rawvideo (native))
Press ctrl-c to stop encoding
opts ':100' 
Output #0, nut, to 'md5:':
    Stream #0:0: Video: rawvideo [Y4[0][9] / 0x9003459]
      yuva444p9le, 200x100, q=2-31, 200 kb/s
      25 tbn
    Metadata:
      encoder         : rawvideo
frame=    1 fps=  0 q=-0.0 Lsize=     156kB time=10000000000.00 bitrate=   0.0kbits/s    
video:156kB audio:0kB other streams:0kB global headers:0kB muxing overhead: 0.111875%
avconv version v13_dev0-1415-ge171022c2, Copyright (c) 2000-2017 the Libav developers
  built on Dec  3 2017 08:47:18 with gcc 4.8.3 (crosstool-NG linaro-1.13.1-4.8-2014.01 - Linaro GCC 2013.11) 20140106 (prerelease)
Input #0, image2, from '/home/martin/fate/build/tests/vsynth1/%02d.pgm':
  Duration: 00:00:02.00, start: 0.000000, bitrate: N/A
    Stream #0:0: Video: pgmyuv
      yuv420p, 352x288
      25 fps, 25 tbn
Stream mapping:
  Stream #0:0 -> #0:0 (pgmyuv (native) -> rawvideo (native))
Press ctrl-c to stop encoding
opts ':100' 
Output #0, nut, to 'md5:':
    Stream #0:0: Video: rawvideo [I420 / 0x30323449]
      yuvj420p, 200x100, q=2-31, 200 kb/s
      25 tbn
    Metadata:
      encoder         : rawvideo
frame=    1 fps=  0 q=-0.0 Lsize=      29kB time=10000000000.00 bitrate=   0.0kbits/s    
video:29kB audio:0kB other streams:0kB global headers:0kB muxing overhead: 0.580000%
avconv version v13_dev0-1415-ge171022c2, Copyright (c) 2000-2017 the Libav developers
  built on Dec  3 2017 08:47:18 with gcc 4.8.3 (crosstool-NG linaro-1.13.1-4.8-2014.01 - Linaro GCC 2013.11) 20140106 (prerelease)
Input #0, image2, from '/home/martin/fate/build/tests/vsynth1/%02d.pgm':
  Duration: 00:00:02.00, start: 0.000000, bitrate: N/A
    Stream #0:0: Video: pgmyuv
      yuv420p, 352x288
      25 fps, 25 tbn
Stream mapping:
  Stream #0:0 -> #0:0 (pgmyuv (native) -> rawvideo (native))
Press ctrl-c to stop encoding
opts ':100' 
Output #0, nut, to 'md5:':
    Stream #0:0: Video: rawvideo [Y42B / 0x42323459]
      yuvj422p, 200x100, q=2-31, 200 kb/s
      25 tbn
    Metadata:
      encoder         : rawvideo
frame=    1 fps=  0 q=-0.0 Lsize=      39kB time=10000000000.00 bitrate=   0.0kbits/s    
video:39kB audio:0kB other streams:0kB global headers:0kB muxing overhead: 0.435000%
avconv version v13_dev0-1415-ge171022c2, Copyright (c) 2000-2017 the Libav developers
  built on Dec  3 2017 08:47:18 with gcc 4.8.3 (crosstool-NG linaro-1.13.1-4.8-2014.01 - Linaro GCC 2013.11) 20140106 (prerelease)
Input #0, image2, from '/home/martin/fate/build/tests/vsynth1/%02d.pgm':
  Duration: 00:00:02.00, start: 0.000000, bitrate: N/A
    Stream #0:0: Video: pgmyuv
      yuv420p, 352x288
      25 fps, 25 tbn
Stream mapping:
  Stream #0:0 -> #0:0 (pgmyuv (native) -> rawvideo (native))
Press ctrl-c to stop encoding
opts ':100' 
Output #0, nut, to 'md5:':
    Stream #0:0: Video: rawvideo [440P / 0x50303434]
      yuvj440p, 200x100, q=2-31, 200 kb/s
      25 tbn
    Metadata:
      encoder         : rawvideo
frame=    1 fps=  0 q=-0.0 Lsize=      39kB time=10000000000.00 bitrate=   0.0kbits/s    
video:39kB audio:0kB other streams:0kB global headers:0kB muxing overhead: 0.435000%
avconv version v13_dev0-1415-ge171022c2, Copyright (c) 2000-2017 the Libav developers
  built on Dec  3 2017 08:47:18 with gcc 4.8.3 (crosstool-NG linaro-1.13.1-4.8-2014.01 - Linaro GCC 2013.11) 20140106 (prerelease)
Input #0, image2, from '/home/martin/fate/build/tests/vsynth1/%02d.pgm':
  Duration: 00:00:02.00, start: 0.000000, bitrate: N/A
    Stream #0:0: Video: pgmyuv
      yuv420p, 352x288
      25 fps, 25 tbn
Stream mapping:
  Stream #0:0 -> #0:0 (pgmyuv (native) -> rawvideo (native))
Press ctrl-c to stop encoding
opts ':100' 
Output #0, nut, to 'md5:':
    Stream #0:0: Video: rawvideo [444P / 0x50343434]
      yuvj444p, 200x100, q=2-31, 200 kb/s
      25 tbn
    Metadata:
      encoder         : rawvideo
frame=    1 fps=  0 q=-0.0 Lsize=      59kB time=10000000000.00 bitrate=   0.0kbits/s    
video:59kB audio:0kB other streams:0kB global headers:0kB muxing overhead: 0.290000%
avconv version v13_dev0-1415-ge171022c2, Copyright (c) 2000-2017 the Libav developers
  built on Dec  3 2017 08:47:18 with gcc 4.8.3 (crosstool-NG linaro-1.13.1-4.8-2014.01 - Linaro GCC 2013.11) 20140106 (prerelease)
Input #0, image2, from '/home/martin/fate/build/tests/vsynth1/%02d.pgm':
  Duration: 00:00:02.00, start: 0.000000, bitrate: N/A
    Stream #0:0: Video: pgmyuv
      yuv420p, 352x288
      25 fps, 25 tbn
Stream mapping:
  Stream #0:0 -> #0:0 (pgmyuv (native) -> rawvideo (native))
Press ctrl-c to stop encoding
opts ':100' 
Output #0, nut, to 'md5:':
    Stream #0:0: Video: rawvideo [YUY2 / 0x32595559]
      yuyv422, 200x100, q=2-31, 200 kb/s
      25 tbn
    Metadata:
      encoder         : rawvideo
frame=    1 fps=  0 q=-0.0 Lsize=      39kB time=10000000000.00 bitrate=   0.0kbits/s    
video:39kB audio:0kB other streams:0kB global headers:0kB muxing overhead: 0.435000%
avconv version v13_dev0-1415-ge171022c2, Copyright (c) 2000-2017 the Libav developers
  built on Dec  3 2017 08:47:18 with gcc 4.8.3 (crosstool-NG linaro-1.13.1-4.8-2014.01 - Linaro GCC 2013.11) 20140106 (prerelease)
Input #0, image2, from '/home/martin/fate/build/tests/vsynth1/%02d.pgm':
  Duration: 00:00:02.00, start: 0.000000, bitrate: N/A
    Stream #0:0: Video: pgmyuv
      yuv420p, 352x288
      25 fps, 25 tbn
Stream mapping:
  Stream #0:0 -> #0:0 (pgmyuv (native) -> rawvideo (native))
Press ctrl-c to stop encoding
opts ':100' 
Output #0, nut, to 'md5:':
    Stream #0:0: Video: rawvideo [YVYU / 0x55595659]
      yvyu422, 200x100, q=2-31, 200 kb/s
      25 tbn
    Metadata:
      encoder         : rawvideo
frame=    1 fps=  0 q=-0.0 Lsize=      39kB time=10000000000.00 bitrate=   0.0kbits/s    
video:39kB audio:0kB other streams:0kB global headers:0kB muxing overhead: 0.435000%