armv6-hf-linux-gcc-4.8 v13_dev0-1400-gb72ac6dbb

Architecturearm
Variantarmv6
CPUarmv6
OSlinux
Ownermartin
Compilergcc 4.8.3 (crosstool-NG linaro-1.13.1-4.8-2014.01 - Linaro GCC 2013.11) 20140106 (prerelease)
Configuration--prefix=/home/martin/fate/install --samples=/home/martin/fate/samples --enable-gpl --arch=arm --cpu=armv6 --cross-prefix=arm-linux-gnueabihf- --target-os=linux --target-exec='ssh rpi' --extra-cflags='-isystem/home/martin/rpi-env/opt/vc/include -isystem/home/martin/rpi-env/opt/vc/include/interface/vcos/pthreads -isystem/home/martin/rpi-env/opt/vc/include/interface/vmcs_host/linux -I/home/martin/rpi-env/opt/vc/include/IL -fgnu89-inline' --extra-ldflags='-L/home/martin/rpi-env/opt/vc/lib -Wl,-rpath-link,/home/martin/rpi-env/opt/vc/lib' --enable-mmal --enable-omx-rpi
CommentMMAL, OpenMAX
Revisionv13_dev0-1400-gb72ac6dbb
Date2017-11-13 10:51:45
Status2147 / 2149
Warnings71
Logscompile configure test
2 failed testsStatusLast good rev
diffstderrlavf-pixfmt255v13_dev0-1406-g136e7cf64
--- /home/martin/fate/src/tests/ref/lavf/pixfmt	2013-01-25 12:11:41.686862692 +0200
+++ tests/data/fate/lavf-pixfmt	2017-11-13 09:38:16.128481295 +0200
@@ -2,37 +2,3 @@
 304128 ./tests/data/pixfmt/yuv420p.yuv
 ac68f9fdd9d55efd0306d9b004038761 *./tests/data/pixfmt/yuv422p.yuv
 304128 ./tests/data/pixfmt/yuv422p.yuv
-5641dba168ff665af1cdb4a91e1afdd6 *./tests/data/pixfmt/yuv444p.yuv
-304128 ./tests/data/pixfmt/yuv444p.yuv
-ac68f9fdd9d55efd0306d9b004038761 *./tests/data/pixfmt/yuyv422.yuv
-304128 ./tests/data/pixfmt/yuyv422.yuv
-507c7e9f0c97660385df977469ca9e6d *./tests/data/pixfmt/yuv410p.yuv
-304128 ./tests/data/pixfmt/yuv410p.yuv
-8594ea0b8d7c2c964525b0801b5351de *./tests/data/pixfmt/yuv411p.yuv
-304128 ./tests/data/pixfmt/yuv411p.yuv
-e176bd14185788110e055f945de7f95f *./tests/data/pixfmt/yuvj420p.yuv
-304128 ./tests/data/pixfmt/yuvj420p.yuv
-472028e46a81c98d9b2477507def4723 *./tests/data/pixfmt/yuvj422p.yuv
-304128 ./tests/data/pixfmt/yuvj422p.yuv
-c10442da177c9f1d12be3c53be6fa12c *./tests/data/pixfmt/yuvj444p.yuv
-304128 ./tests/data/pixfmt/yuvj444p.yuv
-c6e0f9b5817f484b175c1ec4ffb4e9c9 *./tests/data/pixfmt/rgb24.yuv
-304128 ./tests/data/pixfmt/rgb24.yuv
-c6e0f9b5817f484b175c1ec4ffb4e9c9 *./tests/data/pixfmt/bgr24.yuv
-304128 ./tests/data/pixfmt/bgr24.yuv
-c6e0f9b5817f484b175c1ec4ffb4e9c9 *./tests/data/pixfmt/rgb32.yuv
-304128 ./tests/data/pixfmt/rgb32.yuv
-66d39d464bd89ded2a124897f0a75ade *./tests/data/pixfmt/rgb565.yuv
-304128 ./tests/data/pixfmt/rgb565.yuv
-c894c3bd8d2631ed1964500b90a0c350 *./tests/data/pixfmt/rgb555.yuv
-304128 ./tests/data/pixfmt/rgb555.yuv
-6be306b0cce5f8e6c271ea17fef9745b *./tests/data/pixfmt/gray.yuv
-304128 ./tests/data/pixfmt/gray.yuv
-31398104d2349dd48328a6862bc6711f *./tests/data/pixfmt/monow.yuv
-304128 ./tests/data/pixfmt/monow.yuv
-31398104d2349dd48328a6862bc6711f *./tests/data/pixfmt/monob.yuv
-304128 ./tests/data/pixfmt/monob.yuv
-00b85790df5740bab95e2559d81603a7 *./tests/data/pixfmt/yuv440p.yuv
-304128 ./tests/data/pixfmt/yuv440p.yuv
-4d8d402c45d913038d4b725396719111 *./tests/data/pixfmt/yuvj440p.yuv
-304128 ./tests/data/pixfmt/yuvj440p.yuv
avconv version v13_dev0-1400-gb72ac6dbb, Copyright (c) 2000-2017 the Libav developers
  built on Nov 13 2017 08:47:41 with gcc 4.8.3 (crosstool-NG linaro-1.13.1-4.8-2014.01 - Linaro GCC 2013.11) 20140106 (prerelease)
[image2 @ 0x2160340] max_analyze_duration 5000000 reached
Input #0, image2, from '/home/martin/fate/build/tests/vsynth1/%02d.pgm':
  Duration: 00:00:50.00, start: 0.000000, bitrate: N/A
    Stream #0:0: Video: pgmyuv
      yuv420p, 352x288
      1 fps, 1 tbn
Stream mapping:
  Stream #0:0 -> #0:0 (pgmyuv (native) -> rawvideo (native))
Press ctrl-c to stop encoding
Output #0, rawvideo, to '/home/martin/fate/build/./tests/data/pixfmt.lavf.out.yuv':
    Stream #0:0: Video: rawvideo [I420 / 0x30323449]
      yuv420p, 352x288, q=2-31, 200 kb/s
      1 tbn
    Metadata:
      encoder         : rawvideo
frame=    1 fps=  0 q=-0.0 Lsize=     148kB time=10000000000.00 bitrate=   0.0kbits/s    
video:148kB audio:0kB other streams:0kB global headers:0kB muxing overhead: 0.000000%
avconv version v13_dev0-1400-gb72ac6dbb, Copyright (c) 2000-2017 the Libav developers
  built on Nov 13 2017 08:47:41 with gcc 4.8.3 (crosstool-NG linaro-1.13.1-4.8-2014.01 - Linaro GCC 2013.11) 20140106 (prerelease)
[rawvideo @ 0x2970340] Estimating duration from bitrate, this may be inaccurate
Input #0, rawvideo, from '/home/martin/fate/build/./tests/data/pixfmt.lavf.out.yuv':
  Duration: N/A, start: 0.000000, bitrate: N/A
    Stream #0:0: Video: rawvideo
      yuv420p, 352x288
      25 tbn
Stream mapping:
  Stream #0:0 -> #0:0 (rawvideo (native) -> rawvideo (native))
Press ctrl-c to stop encoding
Output #0, rawvideo, to '/home/martin/fate/build/./tests/data/pixfmt/yuv420p.yuv':
    Stream #0:0: Video: rawvideo [444P / 0x50343434]
      yuv444p, 352x288, q=2-31, 200 kb/s
      25 tbn
    Metadata:
      encoder         : rawvideo
frame=    1 fps=  0 q=-0.0 Lsize=     297kB time=10000000000.00 bitrate=   0.0kbits/s    
video:297kB audio:0kB other streams:0kB global headers:0kB muxing overhead: 0.000000%
avconv version v13_dev0-1400-gb72ac6dbb, Copyright (c) 2000-2017 the Libav developers
  built on Nov 13 2017 08:47:41 with gcc 4.8.3 (crosstool-NG linaro-1.13.1-4.8-2014.01 - Linaro GCC 2013.11) 20140106 (prerelease)
[image2 @ 0x2b27340] max_analyze_duration 5000000 reached
Input #0, image2, from '/home/martin/fate/build/tests/vsynth1/%02d.pgm':
  Duration: 00:00:50.00, start: 0.000000, bitrate: N/A
    Stream #0:0: Video: pgmyuv
      yuv420p, 352x288
      1 fps, 1 tbn
Stream mapping:
  Stream #0:0 -> #0:0 (pgmyuv (native) -> rawvideo (native))
Press ctrl-c to stop encoding
Output #0, rawvideo, to '/home/martin/fate/build/./tests/data/pixfmt.lavf.out.yuv':
    Stream #0:0: Video: rawvideo [Y42B / 0x42323459]
      yuv422p, 352x288, q=2-31, 200 kb/s
      1 tbn
    Metadata:
      encoder         : rawvideo
frame=    1 fps=  0 q=-0.0 Lsize=     198kB time=10000000000.00 bitrate=   0.0kbits/s    
video:198kB audio:0kB other streams:0kB global headers:0kB muxing overhead: 0.000000%
avconv version v13_dev0-1400-gb72ac6dbb, Copyright (c) 2000-2017 the Libav developers
  built on Nov 13 2017 08:47:41 with gcc 4.8.3 (crosstool-NG linaro-1.13.1-4.8-2014.01 - Linaro GCC 2013.11) 20140106 (prerelease)
[rawvideo @ 0x24f7340] Estimating duration from bitrate, this may be inaccurate
Input #0, rawvideo, from '/home/martin/fate/build/./tests/data/pixfmt.lavf.out.yuv':
  Duration: N/A, start: 0.000000, bitrate: N/A
    Stream #0:0: Video: rawvideo
      yuv422p, 352x288
      25 tbn
Stream mapping:
  Stream #0:0 -> #0:0 (rawvideo (native) -> rawvideo (native))
Press ctrl-c to stop encoding
Output #0, rawvideo, to '/home/martin/fate/build/./tests/data/pixfmt/yuv422p.yuv':
    Stream #0:0: Video: rawvideo [444P / 0x50343434]
      yuv444p, 352x288, q=2-31, 200 kb/s
      25 tbn
    Metadata:
      encoder         : rawvideo
frame=    1 fps=  0 q=-0.0 Lsize=     297kB time=10000000000.00 bitrate=   0.0kbits/s    
video:297kB audio:0kB other streams:0kB global headers:0kB muxing overhead: 0.000000%
avconv version v13_dev0-1400-gb72ac6dbb, Copyright (c) 2000-2017 the Libav developers
  built on Nov 13 2017 08:47:41 with gcc 4.8.3 (crosstool-NG linaro-1.13.1-4.8-2014.01 - Linaro GCC 2013.11) 20140106 (prerelease)
[image2 @ 0x2e2e340] max_analyze_duration 5000000 reached
Input #0, image2, from '/home/martin/fate/build/tests/vsynth1/%02d.pgm':
  Duration: 00:00:50.00, start: 0.000000, bitrate: N/A
    Stream #0:0: Video: pgmyuv
      yuv420p, 352x288
      1 fps, 1 tbn
Stream mapping:
  Stream #0:0 -> #0:0 (pgmyuv (native) -> rawvideo (native))
Press ctrl-c to stop encoding
Output #0, rawvideo, to '/home/martin/fate/build/./tests/data/pixfmt.lavf.out.yuv':
    Stream #0:0: Video: rawvideo [444P / 0x50343434]
      yuv444p, 352x288, q=2-31, 200 kb/s
      1 tbn
    Metadata:
      encoder         : rawvideo
frame=    1 fps=  0 q=-0.0 Lsize=     297kB time=10000000000.00 bitrate=   0.0kbits/s    
video:297kB audio:0kB other streams:0kB global headers:0kB muxing overhead: 0.000000%
diffstderrvsynth1-mpeg4255v13_dev0-1406-g136e7cf64
--- /home/martin/fate/src/tests/ref/vsynth/vsynth1-mpeg4	2015-07-01 08:45:07.558286429 +0300
+++ tests/data/fate/vsynth1-mpeg4	2017-11-13 09:08:13.268815436 +0200
@@ -1,4 +0,0 @@
-173f524d5cd2591709bf1d5d2818b420 *tests/data/fate/vsynth1-mpeg4.mp4
-540241 tests/data/fate/vsynth1-mpeg4.mp4
-8828a375448dc5c2215163ba70656f89 *tests/data/fate/vsynth1-mpeg4.out.rawvideo
-stddev:    7.97 PSNR: 30.10 MAXDIFF:  105 bytes:  7603200/  7603200
No output on stderr