armv6-hf-linux-gcc-4.8 v13_dev0-1250-g538e50875

Architecturearm
Variantarmv6
CPUarmv6
OSlinux
Ownermartin
Compilergcc 4.8.3 (crosstool-NG linaro-1.13.1-4.8-2014.01 - Linaro GCC 2013.11) 20140106 (prerelease)
Configuration--prefix=/home/martin/fate/install --samples=/home/martin/fate/samples --enable-gpl --arch=arm --cpu=armv6 --cross-prefix=arm-linux-gnueabihf- --target-os=linux --target-exec='ssh rpi' --extra-cflags='-isystem/home/martin/rpi-env/opt/vc/include -isystem/home/martin/rpi-env/opt/vc/include/interface/vcos/pthreads -isystem/home/martin/rpi-env/opt/vc/include/interface/vmcs_host/linux -I/home/martin/rpi-env/opt/vc/include/IL -fgnu89-inline' --extra-ldflags='-L/home/martin/rpi-env/opt/vc/lib -Wl,-rpath-link,/home/martin/rpi-env/opt/vc/lib' --enable-mmal --enable-omx-rpi
CommentMMAL, OpenMAX
Revisionv13_dev0-1250-g538e50875
Date2017-08-11 09:50:41
Status2110 / 2111
Warnings65
Logscompile configure test
1 failed testsStatusLast good rev
diffstderrfilter-join255v13_dev0-1423-gf2e9a0ecb
--- -	2017-08-11 10:33:47.746304945 +0300
+++ tests/data/fate/filter-join	2017-08-11 10:33:44.894791352 +0300
@@ -1 +0,0 @@
-409e66fc5ece4ddea4aa16bc47026bb0
avconv version v13_dev0-1250-g538e50875, Copyright (c) 2000-2017 the Libav developers
  built on Aug 11 2017 08:47:30 with gcc 4.8.3 (crosstool-NG linaro-1.13.1-4.8-2014.01 - Linaro GCC 2013.11) 20140106 (prerelease)
Guessed Channel Layout for Input Stream #0.0 : stereo
Input #0, wav, from '/home/martin/fate/build/tests/data/asynth-44100-2.wav':
  Duration: 00:00:06.00, bitrate: 1411 kb/s
    Stream #0:0: Audio: pcm_s16le [[1][0][0][0] / 0x0001]
      44100 Hz, 2 channels, s16, 1411 kb/s
Codec AVOption threads () specified for input file #0 (/home/martin/fate/build/tests/data/asynth-44100-2.wav) has not been used for any stream. The most likely reason is either wrong type (e.g. a video option with no video streams) or that it is a private option of some decoder which was not actually used for any stream.
Codec AVOption thread_type (select multithreading type) specified for input file #0 (/home/martin/fate/build/tests/data/asynth-44100-2.wav) has not been used for any stream. The most likely reason is either wrong type (e.g. a video option with no video streams) or that it is a private option of some decoder which was not actually used for any stream.
Guessed Channel Layout for Input Stream #1.0 : stereo
Input #1, wav, from '/home/martin/fate/build/tests/data/asynth-44100-3.wav':
  Duration: 00:00:06.00, bitrate: 2116 kb/s
    Stream #1:0: Audio: pcm_s16le [[1][0][0][0] / 0x0001]
      44100 Hz, 2 channels, s16, 1411 kb/s
Codec AVOption threads () specified for input file #1 (/home/martin/fate/build/tests/data/asynth-44100-3.wav) has not been used for any stream. The most likely reason is either wrong type (e.g. a video option with no video streams) or that it is a private option of some decoder which was not actually used for any stream.
Codec AVOption thread_type (select multithreading type) specified for input file #1 (/home/martin/fate/build/tests/data/asynth-44100-3.wav) has not been used for any stream. The most likely reason is either wrong type (e.g. a video option with no video streams) or that it is a private option of some decoder which was not actually used for any stream.
Stream mapping:
  Stream #0:0 (pcm_s16le) -> (null)
  Stream #1:0 (pcm_s16le) -> (null)
  (null) -> Stream #0:0 (pcm_s16le)
Press ctrl-c to stop encoding
[join @ 0x158dee0] Could not find input channel for output channel 'SR'.
Output #0, s16le, to 'md5:':
  Metadata:
    encoder         : Lavf58.0.0
    Stream #0:0: Audio: pcm_s16le
      44100 Hz, 5.0, s16, 3528 kb/s
    Metadata:
      encoder         : Lavc58.4.0 pcm_s16le